osu file format v14

[General]
AudioFilename: audio.mp3
AudioLeadIn: 0
PreviewTime: 99182
Countdown: 0
SampleSet: Soft
StackLeniency: 0.3
Mode: 0
LetterboxInBreaks: 0
EpilepsyWarning: 1
WidescreenStoryboard: 1

[Editor]
Bookmarks: 99543,113389,126947,140793,154639,168485,178581,182043,189254,227331,241177
DistanceSpacing: 0.5
BeatDivisor: 6
GridSize: 32
TimelineZoom: 4.100004

[Metadata]
Title:Utauoka ~Ar=Ciel Ar=Dor~
TitleUnicode:謳う丘 ~Ar=Ciel Ar=Dor~
Artist:Shikata Akiko
ArtistUnicode:志方あきこ
Creator:Yugu
Version:Ar
Source:アルトネリコ3 世界终焉の引鉄は少女の诗が弾く
Tags:Ar tonelico III: The Girl's Song that Pulls the Trigger of World's Demise Japanese hymmnos イメージCD RPG Aoto Saki Finnel Diria
BeatmapID:1401403
BeatmapSetID:591063

[Difficulty]
HPDrainRate:5
CircleSize:4.3
OverallDifficulty:8.5
ApproachRate:9.5
SliderMultiplier:2.1
SliderTickRate:1

[Events]
//Background and Video events
0,0,"Ar.jpg",0,0
//Break Periods
2,255207,261700
2,262785,269279
2,270364,276858
2,277943,284752
//Storyboard Layer 0 (Background)
//Storyboard Layer 1 (Fail)
//Storyboard Layer 2 (Pass)
//Storyboard Layer 3 (Foreground)
//Storyboard Sound Samples

[TimingPoints]
21602,1000,4,2,1,15,1,0
22602,1026,4,2,1,15,1,0
24654,967.48275862069,4,2,1,15,1,0
26588,1023,4,2,1,25,1,0
28634,974,4,2,1,25,1,0
30582,1053,4,2,1,25,1,0
32688,939,4,2,1,25,1,0
33627,991.317709064774,4,2,1,25,1,0
34618,965.731536016166,4,2,1,25,1,0
35583,947.283664093213,4,2,1,25,1,0
36530,434.86,4,2,1,25,1,0
36964,400,4,2,1,25,1,0
37364,357.693278688525,4,2,1,25,1,0
37721,320.923076923077,4,2,2,30,1,0
37721,-200,4,2,2,30,0,0
38362,339.392510402219,4,2,2,30,1,0
38701,-200,4,2,2,30,0,0
39040,332.983050847458,4,2,2,30,1,0
39372,355.875246656435,4,2,2,30,1,0
39727,336.142857142857,4,2,2,30,1,0
39727,-200,4,2,2,30,0,0
40063,311.333333333333,4,2,2,30,1,0
40374,341.086956521739,4,2,2,30,1,0
40715,323.324324324324,4,2,2,30,1,0
40715,-200,4,2,2,30,0,0
41038,316.633333333333,4,2,2,30,1,0
41354,344.789473684211,4,2,2,30,1,0
41698,332.827586206897,4,2,2,30,1,0
41698,-200,4,2,2,30,0,0
42030,331.333333333333,4,2,2,30,1,0
42361,356.333333333333,4,2,2,30,1,0
42717,320,4,2,2,30,1,0
42717,-200,4,2,2,30,0,0
43037,335.086956521739,4,2,2,30,1,0
43372,350.460317460317,4,2,2,30,1,0
43722,305,4,2,2,30,1,0
43722,-200,4,2,2,30,0,0
44027,372,4,2,2,30,1,0
44399,318.4,4,2,2,30,1,0
44399,-200,4,2,2,30,0,0
44717,854.142857142857,4,2,2,30,1,0
45571,1011,4,2,1,25,1,0
48604,967.949152542373,4,2,1,25,1,0
50539,1008.74193548387,4,2,1,25,1,0
52556,553.538461538462,4,2,1,25,1,0
53109,331,4,2,1,25,1,0
53440,287.491712707182,4,2,1,25,1,0
53727,318.633333333333,4,2,2,30,1,0
53727,-200,4,2,2,30,0,0
54045,305.030303030303,4,2,2,30,1,0
54350,374.086956521739,4,2,2,30,1,0
54724,316,4,2,2,30,1,0
54724,-200,4,2,2,30,0,0
55040,313,4,2,2,30,1,0
55353,343.086956521739,4,2,2,30,1,0
55696,349.086956521739,4,2,2,30,1,0
55696,-200,4,2,2,30,0,0
56045,323.941176470588,4,2,2,30,1,0
56368,341.086956521739,4,2,2,30,1,0
56709,364.909090909091,4,2,2,30,1,0
56709,-200,4,2,2,30,0,0
57073,299.953658536585,4,2,2,30,1,0
57372,350,4,2,2,30,1,0
57722,409.314285714286,4,2,2,30,1,0
58131,331.999800800119,4,2,2,30,1,0
64438,490,4,2,2,5,1,0
64928,288.461538461538,4,2,2,30,1,0
64928,-200,4,2,2,30,0,0
73293,-66.6666666666667,4,2,2,50,0,0
73581,-200,4,2,2,30,0,0
75096,-200,4,2,2,5,0,0
75168,-200,4,2,2,30,0,0
75240,-200,4,2,2,5,0,0
75312,-200,4,2,2,30,0,0
75889,-133.333333333333,4,2,2,30,0,0
76466,-66.6666666666667,4,2,2,30,0,0
76754,-100,4,2,2,50,0,1
76827,-100,4,2,2,50,0,0
78197,-100,4,2,2,5,0,0
78485,-100,4,2,2,50,0,1
78557,-100,4,2,2,50,0,0
80793,-100,4,2,2,5,0,0
81658,-100,4,2,1,15,0,0
83677,-200,4,2,1,15,0,0
94062,-200,4,2,1,25,0,0
94927,-200,4,2,1,30,0,0
95793,-200,4,2,1,35,0,0
96081,-200,4,2,1,40,0,0
96370,-200,4,2,1,45,0,0
96658,-200,4,2,1,50,0,0
96947,-200,4,2,1,55,0,0
97235,-200,4,2,1,60,0,0
97524,-200,4,2,1,65,0,0
97812,-200,4,2,1,70,0,0
98389,-200,4,2,1,75,0,0
98966,-200,4,2,1,80,0,0
99254,-200,4,2,3,80,0,1
99687,-133.333333333333,4,2,3,80,0,1
100985,-100,4,2,3,80,0,1
109351,-133.333333333333,4,2,3,80,0,1
109639,-100,4,2,3,80,0,1
112524,-133.333333333333,4,2,3,80,0,1
112812,-100,4,2,3,80,0,1
113101,-76.9230769230769,4,2,3,80,0,1
113173,-76.9230769230769,4,2,3,5,0,1
113533,-133.333333333333,4,2,3,80,0,1
114831,-100,4,2,3,80,0,1
123413,-100,4,2,3,5,0,1
123485,-100,4,2,3,80,0,1
125504,-83.3333333333333,4,2,3,60,0,1
126081,-111.111111111111,4,2,3,50,0,1
126947,-200,4,2,3,40,0,0
133870,-133.333333333333,4,2,3,40,0,1
133942,-133.333333333333,4,2,3,40,0,0
140793,-76.9230769230769,4,2,3,60,0,1
140865,-76.9230769230769,4,2,3,60,0,0
141081,-133.333333333333,4,2,3,60,0,0
141370,-100,4,2,3,60,0,0
143677,-142.857142857143,4,2,3,60,0,0
144254,-100,4,2,3,60,0,0
146274,-125,4,2,3,60,0,0
146562,-153.846153846154,4,2,3,60,0,0
146851,-200,4,2,3,60,0,0
147139,-133.333333333333,4,2,3,60,0,0
147716,-66.6666666666667,4,2,3,60,0,1
147788,-66.6666666666667,4,2,3,60,0,0
148293,-83.3333333333333,4,2,3,60,0,0
148581,-100,4,2,3,60,0,0
149447,-133.333333333333,4,2,3,60,0,0
150312,-100,4,2,3,60,0,0
150889,-200,4,2,3,60,0,0
151105,-200,4,2,3,5,0,0
151177,-166.666666666667,4,2,3,60,0,0
151394,-166.666666666667,4,2,3,5,0,0
151466,-142.857142857143,4,2,3,60,0,0
151682,-142.857142857143,4,2,3,5,0,0
151754,-125,4,2,3,60,0,0
151971,-125,4,2,3,5,0,0
152043,-111.111111111111,4,2,3,60,0,0
152259,-111.111111111111,4,2,3,5,0,0
152331,-100,4,2,3,60,0,0
152548,-100,4,2,3,5,0,0
152620,-90.9090909090909,4,2,3,60,0,0
152836,-90.9090909090909,4,2,3,5,0,0
152908,-76.9230769230769,4,2,3,60,0,0
153197,-76.9230769230769,4,2,3,50,0,0
153341,-111.111111111111,4,2,3,50,0,0
154639,-76.9230769230769,4,2,3,60,0,1
154711,-76.9230769230769,4,2,3,60,0,0
154927,-133.333333333333,4,2,3,60,0,0
155216,-100,4,2,3,60,0,0
157307,-100,4,2,3,5,0,0
157379,-100,4,2,3,60,0,0
157452,-100,4,2,3,5,0,0
157524,-142.857142857143,4,2,3,60,0,0
158101,-100,4,2,3,60,0,0
160120,-125,4,2,3,60,0,0
160408,-153.846153846154,4,2,3,60,0,0
160697,-200,4,2,3,60,0,0
160985,-133.333333333333,4,2,3,60,0,0
161562,-66.6666666666667,4,2,3,60,0,1
161634,-66.6666666666667,4,2,3,60,0,0
162139,-83.3333333333333,4,2,3,60,0,0
162427,-100,4,2,3,60,0,0
162716,-125,4,2,3,60,0,0
163004,-166.666666666667,4,2,3,60,0,0
163293,-66.6666666666667,4,2,3,60,0,0
163870,-83.3333333333333,4,2,3,60,0,0
164158,-100,4,2,3,60,0,0
164447,-125,4,2,3,60,0,0
164735,-166.666666666667,4,2,3,60,0,0
167620,-125,4,2,3,60,0,0
168485,-100,4,2,3,80,0,1
168557,-100,4,2,3,80,0,0
171947,-76.9230769230769,4,2,3,80,0,1
172019,-76.9230769230769,4,2,3,80,0,0
172524,-100,4,2,3,80,0,0
173677,-76.9230769230769,4,2,3,80,0,1
173750,-76.9230769230769,4,2,3,80,0,0
174254,-100,4,2,3,80,0,0
174831,-133.333333333333,4,2,3,80,0,0
175408,-100,4,2,3,80,0,1
175480,-100,4,2,3,80,0,0
175697,-117.647058823529,4,2,3,80,0,0
175937,-166.666666666667,4,2,3,80,0,0
176177,-200,4,2,3,80,0,0
176418,-133.333333333333,4,2,3,80,0,0
177139,-100,4,2,3,80,0,1
177211,-100,4,2,3,80,0,0
178581,-100,4,2,3,80,0,1
178653,-100,4,2,3,80,0,0
178870,-76.9230769230769,4,2,3,80,0,1
178942,-76.9230769230769,4,2,3,80,0,0
179447,-100,4,2,3,80,0,0
180312,-133.333333333333,4,2,3,80,0,0
180601,-83.3333333333333,4,2,3,80,0,0
180889,-100,4,2,3,80,0,0
182331,-76.9230769230769,4,2,3,80,0,1
182403,-76.9230769230769,4,2,3,80,0,0
182908,-100,4,2,3,80,0,0
183774,-133.333333333333,4,2,3,80,0,0
184062,-83.3333333333333,4,2,3,80,0,0
184351,-100,4,2,3,80,0,0
185793,-76.9230769230769,4,2,3,80,0,1
185865,-76.9230769230769,4,2,3,80,0,0
186370,-100,4,2,3,80,0,0
187235,-133.333333333333,4,2,3,80,0,0
187524,-83.3333333333333,4,2,3,80,0,0
187812,-100,4,2,3,80,0,0
189254,-100,4,2,3,60,0,0
196177,-100,4,2,1,30,0,0
196466,-200,4,2,1,30,0,0
197908,-200,4,2,1,5,0,0
198052,-200,4,2,1,10,0,0
198197,-200,4,2,1,15,0,0
198341,-200,4,2,1,20,0,0
198485,-200,4,2,1,25,0,0
198629,-200,4,2,1,30,0,0
201370,-200,4,2,1,5,0,0
201514,-200,4,2,1,10,0,0
201659,-200,4,2,1,15,0,0
201803,-200,4,2,1,20,0,0
201947,-200,4,2,1,25,0,0
202091,-200,4,2,1,30,0,0
208293,-200,4,2,1,5,0,0
208437,-200,4,2,1,10,0,0
208582,-200,4,2,1,15,0,0
208726,-200,4,2,1,20,0,0
208870,-200,4,2,1,25,0,0
209014,-200,4,2,1,30,0,0
209158,-200,4,2,1,35,0,0
209447,-200,4,2,1,40,0,0
209735,-200,4,2,1,45,0,0
210024,-200,4,2,1,30,0,0
211754,-200,4,2,1,5,0,0
211898,-200,4,2,1,10,0,0
212043,-200,4,2,1,15,0,0
212187,-200,4,2,1,20,0,0
212331,-200,4,2,1,25,0,0
212475,-200,4,2,1,30,0,0
212620,-200,4,2,1,35,0,0
212764,-200,4,2,1,40,0,0
213197,-200,4,2,1,30,0,0
214567,-200,4,2,1,5,0,0
214639,-200,4,2,1,30,0,0
214855,-200,4,2,1,5,0,0
214927,-200,4,2,1,30,0,0
215144,-200,4,2,1,5,0,0
215216,-200,4,2,1,15,0,0
215360,-200,4,2,1,20,0,0
215504,-200,4,2,1,25,0,0
215649,-200,4,2,1,30,0,0
218028,-200,4,2,1,5,0,0
218101,-200,4,2,1,30,0,0
218317,-200,4,2,1,5,0,0
218389,-200,4,2,1,30,0,0
218605,-200,4,2,1,5,0,0
218677,-200,4,2,1,15,0,0
218822,-200,4,2,1,20,0,0
218966,-200,4,2,1,25,0,0
219110,-200,4,2,1,30,0,0
219254,-200,4,2,1,30,0,0
219471,-200,4,2,1,5,0,0
219543,-200,4,2,1,30,0,0
219759,-200,4,2,1,5,0,0
219831,-200,4,2,1,30,0,0
220048,-200,4,2,1,5,0,0
220120,-200,4,2,1,30,0,0
220336,-200,4,2,1,5,0,0
220408,-200,4,2,1,5,0,0
220552,-200,4,2,1,10,0,0
220697,-200,4,2,1,15,0,0
220841,-200,4,2,1,20,0,0
220985,-200,4,2,1,25,0,0
221129,-200,4,2,1,30,0,0
223221,-200,4,2,1,5,0,0
223293,-166.666666666667,4,2,1,30,0,0
223509,-166.666666666667,4,2,1,5,0,0
223581,-142.857142857143,4,2,1,30,0,0
223798,-142.857142857143,4,2,1,5,0,0
223870,-125,4,2,1,5,0,0
224014,-125,4,2,1,10,0,0
224158,-125,4,2,1,15,0,0
224302,-125,4,2,1,20,0,0
224447,-125,4,2,1,25,0,0
224591,-125,4,2,1,30,0,0
224735,-125,4,2,1,35,0,0
224879,-125,4,2,1,40,0,0
225024,-125,4,2,1,45,0,0
225168,-125,4,2,1,50,0,0
225312,-125,4,2,1,55,0,0
225456,-125,4,2,1,60,0,0
225601,-125,4,2,1,65,0,0
225745,-125,4,2,1,70,0,0
225889,-125,4,2,1,75,0,0
226033,-125,4,2,1,80,0,0
226177,-125,4,2,1,85,0,0
226322,-125,4,2,1,90,0,0
227331,-100,4,2,3,90,0,1
228197,-83.3333333333333,4,2,3,90,0,1
228918,-71.4285714285714,4,2,3,90,0,1
240024,-50,4,2,3,90,0,1
241177,-100,4,2,3,90,0,1
242043,-83.3333333333333,4,2,3,90,0,1
242764,-71.4285714285714,4,2,3,90,0,1
252427,-62.5,4,2,3,90,0,1
253293,-55.5555555555556,4,2,3,90,0,1
254158,-50,4,2,3,90,0,1
254735,272.454817909363,4,2,3,90,1,1
255007,315.789473684211,4,2,3,90,1,0
262270,-200,4,2,2,50,0,0
285322,-200,4,2,2,50,0,1
285401,-200,4,2,2,50,0,0
292901,-200,4,2,2,50,0,1
292980,-200,4,2,2,50,0,0
298191,-200,4,2,2,5,0,0
298270,-200,4,2,2,50,0,0
298507,-200,4,2,2,5,0,0
298585,-200,4,2,2,50,0,0
298822,-200,4,2,2,5,0,0
298901,-133.333333333333,4,2,2,60,0,0
299138,-133.333333333333,4,2,2,5,0,0
299217,-133.333333333333,4,2,2,60,0,0
299454,-133.333333333333,4,2,2,5,0,0
299533,-133.333333333333,4,2,2,60,0,0
299770,-133.333333333333,4,2,2,5,0,0
299849,-100,4,2,2,65,0,0
300085,-100,4,2,2,5,0,0
300164,-100,4,2,2,65,0,0
300401,-100,4,2,2,5,0,0
300480,-100,4,2,2,70,0,1
300559,-100,4,2,2,70,0,0
300717,-100,4,2,2,5,0,0
300796,-100,4,2,2,70,0,0
301033,-100,4,2,2,5,0,0
301112,-100,4,2,2,70,0,0
301349,-100,4,2,2,5,0,0
301428,-100,4,2,2,70,0,0
301664,-100,4,2,2,5,0,0
301743,-100,4,2,2,70,0,0
301980,-100,4,2,2,5,0,0
302059,-100,4,2,2,70,0,0
302296,-100,4,2,2,5,0,0
302375,-100,4,2,2,70,0,0
302612,-100,4,2,2,5,0,0
302691,-100,4,2,2,70,0,0
302928,-100,4,2,2,5,0,0
303007,-100,4,2,2,70,0,0
303243,-100,4,2,2,5,0,0
303322,-100,4,2,2,70,0,0
303559,-100,4,2,2,5,0,0
303638,-100,4,2,2,70,0,0
303875,-100,4,2,2,5,0,0
303954,-100,4,2,2,70,0,0
304270,-100,4,2,2,70,0,0
304507,-100,4,2,2,5,0,0
304585,-100,4,2,2,70,0,0
304822,-100,4,2,2,5,0,0
304901,-100,4,2,2,70,0,0
305138,-100,4,2,2,5,0,0
305217,-100,4,2,2,70,0,0
305454,-100,4,2,2,5,0,0
305533,-100,4,2,2,70,0,0
305770,-100,4,2,2,5,0,0
305849,-100,4,2,2,70,0,0
306085,-100,4,2,2,5,0,0
306164,-100,4,2,2,70,0,0
306717,-100,4,2,2,5,0,0
306796,-100,4,2,2,70,0,0
307033,-100,4,2,2,5,0,0
307112,-100,4,2,2,70,0,0
307349,-100,4,2,2,5,0,0
307428,-100,4,2,2,70,0,0
307664,-100,4,2,2,5,0,0
307743,-50,4,2,2,70,0,1
307822,-50,4,2,2,70,0,0
307980,-50,4,2,2,5,0,0
308059,-100,4,2,2,70,0,1
308138,-100,4,2,2,70,0,0
308296,-100,4,2,2,5,0,0
308375,-100,4,2,2,70,0,0
308612,-100,4,2,2,5,0,0
308691,-100,4,2,2,70,0,0
308928,-100,4,2,2,5,0,0
309007,-100,4,2,2,70,0,0
309243,-100,4,2,2,5,0,0
309322,-100,4,2,2,70,0,0
309559,-100,4,2,2,5,0,0
309638,-100,4,2,2,70,0,0
309875,-100,4,2,2,5,0,0
309954,-100,4,2,2,70,0,0
310191,-100,4,2,2,5,0,0
310270,-100,4,2,2,70,0,0
310507,-100,4,2,2,5,0,0
310585,-100,4,2,2,70,0,0
310822,-100,4,2,2,5,0,0
310901,-100,4,2,2,70,0,0
311138,-100,4,2,2,5,0,0
311217,-100,4,2,2,70,0,0
311454,-100,4,2,2,5,0,0
311533,-100,4,2,2,70,0,0
311770,-100,4,2,2,5,0,0
311849,-100,4,2,2,70,0,0
312085,-100,4,2,2,5,0,0
312164,-100,4,2,2,70,0,0
312401,-100,4,2,2,5,0,0
312480,-100,4,2,2,70,0,0
315322,343,4,2,1,20,1,0
315665,907.522388059701,4,2,1,20,1,0
315665,-200,4,2,1,20,0,0
317480,941.5,4,2,1,20,1,0
317480,-200,4,2,1,20,0,0
319363,952.380952380952,4,2,1,20,1,0
319363,-200,4,2,1,20,0,0
320315,941.380952380952,4,2,1,20,1,0
321256,961.5,4,2,1,20,1,0
321256,-200,4,2,1,20,0,0
322217,917.5,4,2,1,20,1,0
323134,916.076923076923,4,2,1,20,1,0
323134,-200,4,2,1,20,0,0
324050,974.076923076923,4,2,1,20,1,0
325024,953,4,2,1,20,1,0
325024,-200,4,2,1,20,0,0
325977,1019,4,2,1,20,1,0
326996,896.949152542373,4,2,1,20,1,0
326996,-200,4,2,1,20,0,0
327892,986.422388059701,4,2,1,20,1,0
328878,1073.35541673516,4,2,1,20,1,0
328878,-66.6666666666667,4,2,1,5,0,0
329146,-66.6666666666667,4,2,1,10,0,0
329414,-66.6666666666667,4,2,1,15,0,0
329683,-66.6666666666667,4,2,1,20,0,0
329951,999,4,2,1,25,1,0
329951,-66.6666666666667,4,2,1,25,0,0
330200,-66.6666666666667,4,2,1,30,0,0
330450,-66.6666666666667,4,2,1,35,0,0
330700,-66.6666666666667,4,2,1,40,0,0
330950,992.93,4,2,1,45,1,0
330950,-100,4,2,1,45,0,0
331198,-100,4,2,1,50,0,0
331446,-100,4,2,1,55,0,0
331694,-100,4,2,1,60,0,0
331942,-100,4,2,1,65,0,0
332935,876.142857142857,4,2,1,65,1,0
333811,610,4,2,1,65,1,0
334421,288.461538461538,4,2,3,90,1,1
334421,-66.6666666666667,4,2,3,90,0,1
341344,-50,4,2,3,90,0,1
347401,-50,4,2,3,90,0,0
347690,-50,4,2,3,85,0,0
347978,-50,4,2,3,80,0,0
348267,-50,4,2,3,75,0,0
348555,-50,4,2,3,70,0,0
348844,-50,4,2,3,65,0,0
349132,-50,4,2,3,60,0,0
349421,-50,4,2,3,55,0,0
349709,-50,4,2,3,50,0,0
349997,-50,4,2,3,45,0,0
350286,-50,4,2,3,40,0,0
350574,-50,4,2,3,35,0,0
350863,-50,4,2,3,30,0,0
351151,-50,4,2,3,25,0,0
351440,-50,4,2,3,20,0,0
351728,450.538461538462,4,2,3,5,1,0
352178,1023,4,2,1,20,1,0
354224,1006,4,2,1,20,1,0
356236,986,4,2,1,20,1,0
358208,990,4,2,1,20,1,0
360188,1033,4,2,1,20,1,0
362254,970,4,2,1,20,1,0
364194,1019,4,2,1,20,1,0
365213,920,4,2,1,20,1,0
366133,1083.42857142857,4,2,1,20,1,0
368299,317.941176470588,4,2,2,20,1,0
368299,-200,4,2,2,20,0,0
368616,330.955614973262,4,2,2,20,1,0
368946,363.333333333333,4,2,2,20,1,0
369309,317.636363636364,4,2,2,20,1,0
369309,-200,4,2,2,20,0,0
369626,310.460317460317,4,2,2,20,1,0
369936,338.880829015544,4,2,2,20,1,0
370274,334.983050847458,4,2,2,20,1,0
370274,-200,4,2,2,20,0,0
370608,334.195530726257,4,2,2,20,1,0
370942,350.333333333333,4,2,2,20,1,0
371292,319.877192982456,4,2,2,20,1,0
371292,-200,4,2,2,20,0,0
371611,324.333333333333,4,2,2,20,1,0
371935,370.324324324324,4,2,2,20,1,0
372305,344.670807453416,4,2,2,15,1,0
372305,-200,4,2,2,15,0,0
372649,373.827586206897,4,2,2,15,1,0
373022,414.570807453416,4,2,2,15,1,0
373436,561.454545454546,4,2,2,10,1,0
373436,-200,4,2,2,10,0,0
373997,748,4,2,2,10,1,0
374745,956,4,2,2,5,1,0

[Colours]
Combo1 : 236,184,138
Combo2 : 34,125,81
Combo3 : 233,163,104
Combo4 : 254,223,225
Combo5 : 245,150,170

[HitObjects]
81,83,21602,6,0,L|89:107,3,17.5
166,98,23628,6,0,L|161:122,3,17.5
237,148,25621,6,0,L|217:169,3,17.5
280,224,27611,6,0,L|256:231,3,17.5
284,311,29608,6,0,L|262:306,3,17.5
98,329,31635,6,0,L|102:300,3,17.5
176,289,33627,6,0,L|166:266,3,17.5
238,227,34618,6,0,L|218:211,3,17.5
260,142,35583,6,0,L|239:139,3,17.5
471,25,37721,6,0,P|439:62|437:132,1,105,2|2,0:0|0:0,0:0:0:0:
471,25,38362,1,8,0:0:0:0:
395,208,38701,6,0,P|426:170|428:100,1,105,2|2,0:0|0:0,0:0:0:0:
395,208,39372,1,8,0:0:0:0:
214,256,39727,6,0,P|272:271|332:251,1,105,2|2,0:0|0:0,0:0:0:0:
214,256,40374,1,8,0:0:0:0:
120,153,40715,6,0,P|105:211|125:271,1,105,2|2,0:0|0:0,0:0:0:0:
120,153,41354,1,8,0:0:0:0:
207,357,41698,6,0,P|222:299|202:234,1,105,2|2,0:0|0:0,0:0:0:0:
207,357,42361,1,8,0:0:0:0:
30,295,42717,6,0,P|81:311|147:293,1,105,2|2,0:0|0:0,0:0:0:0:
30,295,43372,1,8,0:0:0:0:
288,243,43722,6,0,P|237:227|171:245,1,105,2|2,0:0|0:0,0:0:0:0:
388,249,44399,2,0,P|337:258|288:243,1,105,2|2,0:0|0:0,0:0:0:0:
277,160,45571,6,0,L|281:131,3,17.5
191,144,47593,6,0,L|179:116,3,17.5
110,178,49571,6,0,L|89:161,3,17.5
72,258,51547,6,0,L|41:253,3,17.5
277,346,53727,6,0,P|259:318|263:237,1,105,2|2,0:0|0:0,0:0:0:0:
277,346,54350,1,8,0:0:0:0:
237,150,54724,6,0,P|255:178|251:261,1,105,2|2,0:0|0:0,0:0:0:0:
237,150,55353,1,8,0:0:0:0:
229,30,55696,6,0,P|212:57|131:77,1,105,2|2,0:0|0:0,0:0:0:0:
229,30,56368,1,8,0:0:0:0:
309,104,56709,6,0,P|327:133|414:154,1,105,2|2,0:0|0:0,0:0:0:0:
309,104,57372,1,8,0:0:0:0:
256,192,57722,12,0,64438,0:0:0:0:
393,99,64928,6,8,L|405:215,1,105
327,226,65504,2,8,L|317:122,1,105
386,277,66081,1,2,0:0:0:0:
176,272,66658,6,8,L|165:167,1,105
241,145,67235,2,8,L|251:249,1,105
181,93,67812,1,2,0:0:0:0:
0,227,68389,6,8,P|30:197|100:194,1,105
266,236,68966,2,8,P|235:265|165:268,1,105
181,93,69543,1,2,0:0:0:0:
266,236,69831,5,0,0:0:0:0:
370,250,69976,1,0,0:0:0:0:
379,262,70408,5,0,0:0:0:0:
360,142,70552,1,0,0:0:0:0:
473,186,70697,5,0,0:0:0:0:
266,218,70841,1,0,0:0:0:0:
454,66,70985,5,0,0:0:0:0:
492,305,71129,1,0,0:0:0:0:
481,317,71562,5,0,0:0:0:0:
360,297,71706,1,0,0:0:0:0:
255,306,71851,6,8,L|360:297,1,105
251,214,72427,2,8,L|146:223,1,105
274,61,73004,1,2,0:0:0:0:
444,256,73293,6,0,P|449:171|436:84,1,157.500006008148,4|0,0:0|0:0,0:0:0:0:
357,192,73581,6,8,P|353:250|362:310,1,105
276,165,74158,2,8,P|279:106|270:46,1,105
92,192,74735,1,2,0:0:0:0:
222,238,75024,6,0,L|267:233,1,26.25,2|0,0:0|0:0,0:0:0:0:
201,272,75168,2,0,L|156:267,1,26.25,2|0,0:0|0:0,0:0:0:0:
212,309,75312,1,8,0:0:0:0:
451,267,75601,1,8,0:0:0:0:
329,188,75889,6,8,P|395:195|445:122,1,157.500006008148
335,35,76466,6,0,B|315:79|315:79|330:200,1,157.500006008148,2|0,0:0|0:0,0:0:0:0:
356,354,76754,1,4,0:0:0:0:
256,192,76827,12,0,78197,0:0:0:0:
364,334,78486,5,4,0:0:0:0:
256,192,78557,12,0,80793,0:0:0:0:
371,314,81658,5,0,0:0:0:0:
371,314,81802,1,0,0:0:0:0:
371,314,81947,5,8,0:0:0:0:
228,225,82235,1,8,0:0:0:0:
377,147,82524,1,8,0:0:0:0:
86,136,82812,5,8,0:0:0:0:
235,57,83101,1,8,0:0:0:0:
228,225,83389,1,8,0:0:0:0:
79,304,83677,6,0,B|154:275|154:342|254:298,1,157.5,8|0,0:0|0:0,0:0:0:0:
232,306,84254,1,8,0:0:0:0:
232,306,84399,1,0,0:0:0:0:
228,225,84543,5,8,0:0:0:0:
79,304,84831,1,8,0:0:0:0:
86,136,85120,1,8,0:0:0:0:
86,136,85264,1,0,0:0:0:0:
86,136,85408,5,8,0:0:0:0:
252,111,85697,1,8,0:0:0:0:
417,86,85985,1,8,0:0:0:0:
425,92,86274,5,8,0:0:0:0:
259,67,86563,1,8,0:0:0:0:
94,42,86851,1,8,0:0:0:0:
155,198,87139,6,0,L|151:268,1,52.5,8|0,0:0|0:0,0:0:0:0:
252,279,87427,2,0,L|248:209,1,52.5,8|0,0:0|0:0,0:0:0:0:
350,198,87716,6,0,L|346:268,1,52.5,8|0,0:0|0:0,0:0:0:0:
447,279,88004,2,0,L|443:209,1,52.5,8|0,0:0|0:0,0:0:0:0:
444,226,88293,1,8,0:0:0:0:
373,73,88581,1,8,0:0:0:0:
373,73,88726,1,0,0:0:0:0:
373,73,88870,6,0,P|305:86|214:55,1,157.5,8|0,0:0|0:0,0:0:0:0:
222,60,89447,1,8,0:0:0:0:
93,167,89735,6,0,P|161:154|252:185,1,157.5,8|0,0:0|0:0,0:0:0:0:
243,179,90312,1,8,0:0:0:0:
293,340,90601,5,8,0:0:0:0:
375,218,90889,1,8,0:0:0:0:
445,321,91177,1,8,0:0:0:0:
506,256,91466,1,8,0:0:0:0:
499,235,91754,1,8,0:0:0:0:
499,224,92043,5,8,0:0:0:0:
499,224,92187,1,0,0:0:0:0:
499,224,92331,5,8,0:0:0:0:
415,63,92620,1,8,0:0:0:0:
323,203,92908,1,8,0:0:0:0:
246,53,93197,5,8,0:0:0:0:
154,193,93485,1,8,0:0:0:0:
62,333,93774,1,8,0:0:0:0:
229,344,94062,6,0,P|289:304|372:326,1,157.5,8|0,0:0|0:0,0:0:0:0:
367,322,94639,1,8,0:0:0:0:
460,182,94927,6,0,P|406:127|409:51,1,157.5,8|0,0:0|0:0,0:0:0:0:
409,50,95504,1,8,0:0:0:0:
256,192,95793,12,4,99254,0:0:0:0:
137,245,99687,6,0,P|129:182|212:148,1,157.500006008148,8|0,0:0|0:0,0:0:0:0:
257,323,100120,1,10,0:0:0:0:
435,145,100408,1,2,0:0:0:0:
137,245,100697,1,0,0:0:0:0:
172,87,100913,5,8,0:0:0:0:
178,61,100985,2,0,B|191:27|191:27|253:139|135:154|197:300,1,315,10|8,0:0|0:0,0:0:0:0:
385,343,101706,5,0,0:0:0:0:
195,295,101851,1,10,0:0:0:0:
187,275,102139,5,8,0:0:0:0:
458,145,102427,1,10,0:0:0:0:
302,120,102644,5,8,0:0:0:0:
276,115,102716,2,0,B|224:106|224:106|265:166|345:188|345:188|277:209|275:290,1,315,10|8,0:0|0:0,0:0:0:0:
512,228,103437,5,0,0:0:0:0:
367,275,103581,1,10,0:0:0:0:
378,292,103870,5,2,0:0:0:0:
414,50,104158,1,2,0:0:0:0:
423,210,104375,5,8,0:0:0:0:
424,236,104447,2,0,B|425:261|425:261|396:189|331:197|331:197|276:228|297:302|297:302|267:273|210:284,1,315,10|8,0:0|0:0,0:0:0:0:
229,186,105168,5,0,0:0:0:0:
245,358,105312,1,10,0:0:0:0:
226,347,105601,5,10,0:0:0:0:
305,81,105889,1,10,0:0:0:0:
141,174,106033,1,0,0:0:0:0:
117,185,106105,1,8,0:0:0:0:
93,197,106177,6,0,B|68:210|68:210|111:239|219:201|204:34|60:57,1,315,14|8,0:0|0:0,0:0:0:0:
98,301,106899,5,0,0:0:0:0:
92,136,107043,1,10,0:0:0:0:
105,120,107331,5,2,0:0:0:0:
87,384,107620,1,2,0:0:0:0:
252,239,107836,5,8,0:0:0:0:
234,258,107908,2,0,B|215:278|215:278|354:198|306:358|463:282|470:215|450:157,1,315,10|8,0:0|0:0,0:0:0:0:
316,51,108629,5,0,0:0:0:0:
368,190,108774,1,10,0:0:0:0:
383,175,109062,5,10,0:0:0:0:
238,150,109206,1,8,0:0:0:0:
238,150,109278,1,8,0:0:0:0:
238,150,109351,2,0,P|196:177|180:226,1,78.7500030040742,10|0,0:0|0:0,0:0:0:0:
264,233,109567,5,8,0:0:0:0:
283,231,109639,2,0,B|320:230|320:230|316:282|223:380|211:224|114:271|79:346,1,315.000012016297,10|8,0:0|0:0,0:0:0:0:
165,360,110216,1,2,0:0:0:0:
12,140,110504,6,0,P|51:81|194:126,1,210,10|2,0:0|0:0,0:0:0:0:
226,32,110937,1,8,0:0:0:0:
105,161,111081,1,2,0:0:0:0:
124,169,111298,5,8,0:0:0:0:
147,178,111370,2,8,B|172:188|172:188|88:217|99:324|161:344,1,210,10|10,0:0|0:0,0:0:0:0:
359,288,111947,5,10,0:0:0:0:
318,283,112019,1,8,0:0:0:0:
277,278,112091,1,8,0:0:0:0:
236,273,112163,1,8,0:0:0:0:
195,269,112235,1,10,0:0:0:0:
214,88,112427,5,8,0:0:0:0:
252,66,112524,2,0,L|256:27,1,39.3750015020371,10|0,0:0|0:0,0:0:0:0:
330,113,112716,5,8,0:0:0:0:
368,91,112813,2,0,L|372:37,1,52.5,10|0,0:0|0:0,0:0:0:0:
442,140,113004,5,8,0:0:0:0:
486,50,113101,6,0,L|480:118,1,68.2499968757631,14|0,0:0|0:0,0:0:0:0:
428,340,113533,6,0,P|483:330|491:224,1,157.500006008148,8|0,0:0|0:0,0:0:0:0:
281,331,113966,1,10,0:0:0:0:
504,241,114254,1,2,0:0:0:0:
233,179,114543,1,2,0:0:0:0:
364,99,114759,5,8,0:0:0:0:
380,88,114831,2,8,B|397:77|397:77|321:218|446:218|382:369,1,315,10|8,0:0|0:0,0:0:0:0:
118,273,115552,5,0,0:0:0:0:
281,331,115697,1,10,0:0:0:0:
288,350,115985,5,10,0:0:0:0:
261,77,116274,1,10,0:0:0:0:
341,229,116490,5,8,0:0:0:0:
354,250,116562,2,8,B|366:272|366:272|282:231|300:98|452:126|426:257,1,315,10|8,0:0|0:0,0:0:0:0:
249,279,117283,5,0,0:0:0:0:
421,322,117427,1,10,0:0:0:0:
429,341,117716,5,2,0:0:0:0:
383,45,118004,1,2,0:0:0:0:
339,211,118221,5,8,0:0:0:0:
334,185,118293,2,8,B|329:159|329:159|386:178|377:248|377:248|282:195|282:293|168:204,1,315,10|8,0:0|0:0,0:0:0:0:
80,131,119014,5,0,0:0:0:0:
255,160,119158,1,10,0:0:0:0:
243,142,119447,5,10,0:0:0:0:
18,344,119735,1,10,0:0:0:0:
182,289,119879,1,0,0:0:0:0:
163,270,119952,1,8,0:0:0:0:
144,250,120024,6,8,B|124:230|124:230|147:286|119:322|119:322|228:255|226:350|330:320,1,315,14|8,0:0|0:0,0:0:0:0:
461,199,120745,5,0,0:0:0:0:
284,242,120889,1,10,0:0:0:0:
300,254,121177,5,2,0:0:0:0:
266,0,121466,1,2,0:0:0:0:
227,168,121682,5,8,0:0:0:0:
251,158,121754,2,8,B|275:147|275:147|179:108|154:232|33:167|33:167|87:165,1,315,10|0,0:0|0:0,0:0:0:0:
214,249,122476,5,0,0:0:0:0:
101,97,122620,1,10,0:0:0:0:
108,77,122908,5,10,0:0:0:0:
98,265,123052,1,8,0:0:0:0:
98,291,123125,2,0,B|99:319|99:319|168:298|199:361|199:361|270:298,1,210
308,272,123485,6,0,P|262:243|191:265,1,105,10|0,0:0|0:0,0:0:0:0:
108,77,123774,2,0,P|105:131|160:181,1,105,2|8,0:0|0:0,0:0:0:0:
320,353,124062,2,0,P|368:327|384:255,1,105,2|0,0:0|0:0,0:0:0:0:
201,49,124351,6,0,P|146:46|96:101,1,105,2|0,0:0|0:0,0:0:0:0:
213,248,124639,2,0,P|241:202|219:131,1,105,2|8,0:0|0:0,0:0:0:0:
134,262,124927,2,0,P|159:310|231:326,1,105,2|0,0:0|0:0,0:0:0:0:
279,290,125144,5,8,0:0:0:0:
301,302,125216,2,0,P|371:299|436:369,1,157.5,14|0,0:0|0:0,0:0:0:0:
488,304,125504,6,0,P|495:268|479:215,7,62.9999980773926,8|0|0|0|0|0|0|0,0:0|0:0|0:0|0:0|0:0|0:0|0:0|0:0,0:0:0:0:
412,231,126081,2,0,P|416:201|444:155,11,47.2499985580445
493,128,126947,6,0,P|472:105|446:93,1,52.5,12|0,0:0|0:0,0:0:0:0:
412,27,127235,2,0,P|381:33|358:50,1,52.5,8|0,0:0|0:0,0:0:0:0:
284,46,127524,2,0,P|274:75|277:104,1,52.5,8|0,0:0|0:0,0:0:0:0:
354,186,127812,6,0,P|363:156|360:127,1,52.5,8|0,0:0|0:0,0:0:0:0:
275,96,128101,2,0,P|254:73|228:60,1,52.5,8|0,0:0|0:0,0:0:0:0:
157,119,128389,2,0,P|126:125|103:142,1,52.5,8|0,0:0|0:0,0:0:0:0:
167,206,128677,6,0,P|194:220|212:242,1,52.5,8|0,0:0|0:0,0:0:0:0:
285,217,128966,2,0,P|286:248|276:274,1,52.5,8|2,0:0|0:0,0:0:0:0:
334,324,129254,2,0,P|307:340|279:345,1,52.5,8|2,0:0|0:0,0:0:0:0:
164,294,129543,6,0,P|191:308|209:330,1,52.5,8|0,0:0|0:0,0:0:0:0:
120,227,129831,2,0,P|146:210|174:205,1,52.5,8|0,0:0|0:0,0:0:0:0:
39,231,130120,2,0,P|37:199|47:173,1,52.5,8|0,0:0|0:0,0:0:0:0:
48,128,130408,6,0,P|49:159|39:185,1,52.5,8|0,0:0|0:0,0:0:0:0:
185,110,130697,2,0,P|163:124|138:131,1,52.5,8|2,0:0|0:0,0:0:0:0:
269,219,130985,2,0,P|245:207|227:189,1,52.5,8|2,0:0|0:0,0:0:0:0:
323,95,131274,6,0,P|311:118|293:136,1,52.5,8|0,0:0|0:0,0:0:0:0:
373,271,131562,2,0,P|399:268|424:275,1,52.5,8|2,0:0|0:0,0:0:0:0:
500,139,131851,2,0,P|485:117|478:92,1,52.5,8|0,0:0|0:0,0:0:0:0:
512,287,132139,6,0,P|485:289|460:282,1,52.5,8|0,0:0|0:0,0:0:0:0:
402,229,132427,2,0,P|390:252|372:270,1,52.5,8|2,0:0|0:0,0:0:0:0:
297,296,132716,2,0,P|311:317|318:342,1,52.5,8|2,0:0|0:0,0:0:0:0:
457,166,133004,6,0,P|435:151|410:144,1,52.5,8|0,0:0|0:0,0:0:0:0:
314,45,133293,2,0,P|311:71|318:96,1,52.5,8|2,0:0|0:0,0:0:0:0:
280,229,133581,2,0,P|303:217|321:199,1,52.5,8|0,0:0|0:0,0:0:0:0:
314,45,133870,6,0,P|266:32|221:45,1,78.7500030040742,12|0,0:0|0:0,0:0:0:0:
120,29,134158,2,0,P|84:64|73:109,1,78.7500030040742,8|0,0:0|0:0,0:0:0:0:
9,189,134447,2,0,P|21:237|55:269,1,78.7500030040742,8|2,0:0|0:0,0:0:0:0:
128,209,134735,6,0,P|163:173|174:128,1,78.7500030040742,8|0,0:0|0:0,0:0:0:0:
284,187,135024,2,0,P|271:138|237:106,1,78.7500030040742,8|0,0:0|0:0,0:0:0:0:
342,40,135312,2,0,P|293:28|248:39,1,78.7500030040742
284,187,135601,6,0,P|296:235|330:267,1,78.7500030040742,8|0,0:0|0:0,0:0:0:0:
228,336,135889,2,0,P|276:349|321:336,1,78.7500030040742,8|2,0:0|0:0,0:0:0:0:
456,187,136177,2,0,P|443:235|409:267,1,78.7500030040742,8|2,0:0|0:0,0:0:0:0:
512,336,136465,6,0,P|463:349|418:336,1,78.7500030040742,8|0,0:0|0:0,0:0:0:0:
370,192,136754,2,0,P|357:143|369:98,1,78.7500030040742,8|0,0:0|0:0,0:0:0:0:
228,336,137043,2,0,P|276:349|321:336,1,78.7500030040742,8|0,0:0|0:0,0:0:0:0:
288,170,137331,6,0,P|239:157|194:169,1,78.7500030040742,8|0,0:0|0:0,0:0:0:0:
174,37,137620,2,0,P|138:72|127:117,1,78.7500030040742,8|2,0:0|0:0,0:0:0:0:
361,116,137908,2,0,P|331:90|294:81,1,78.7500030040742,8|2,0:0|0:0,0:0:0:0:
43,174,138197,6,0,P|91:187|136:174,1,78.7500030040742,8|0,0:0|0:0,0:0:0:0:
153,296,138486,2,0,P|188:260|199:215,1,78.7500030040742,8|2,0:0|0:0,0:0:0:0:
352,205,138774,2,0,P|322:230|284:240,1,78.7500030040742,8|0,0:0|0:0,0:0:0:0:
208,151,139062,6,0,L|208:37,1,78.7500030040742,8|0,0:0|0:0,0:0:0:0:
314,124,139351,2,0,L|314:10,1,78.7500030040742,8|2,0:0|0:0,0:0:0:0:
420,97,139639,2,0,L|420:-17,1,78.7500030040742,8|2,0:0|0:0,0:0:0:0:
458,178,139927,6,0,L|458:292,1,78.7500030040742,8|2,0:0|0:0,0:0:0:0:
352,205,140216,2,0,L|352:319,1,78.7500030040742,8|2,0:0|0:0,0:0:0:0:
246,232,140504,2,0,L|246:346,1,78.7500030040742,8|0,0:0|0:0,0:0:0:0:
69,68,140793,6,0,P|153:62|162:205,1,204.749990627289,6|0,0:0|0:0,0:0:0:0:
71,196,141081,2,0,P|85:159|116:136,1,78.7500030040742,2|0,0:0|0:0,0:0:0:0:
340,30,141370,6,0,P|275:54|364:96,1,210,2|2,0:0|0:0,0:0:0:0:
69,68,141947,1,2,0:0:0:0:
351,112,142235,1,2,0:0:0:0:
9,268,142524,1,2,0:0:0:0:
255,230,142812,6,0,P|278:272|244:252,1,105,2|0,0:0|0:0,0:0:0:0:
349,191,143101,2,0,P|367:242|347:314,1,105,2|0,0:0|0:0,0:0:0:0:
172,291,143389,6,0,P|171:249|184:220,1,52.5,2|0,0:0|0:0,0:0:0:0:
201,170,143533,2,0,P|200:128|213:99,1,52.5
277,5,143677,2,0,P|288:106|262:179,1,146.999995513916,2|2,0:0|0:0,0:0:0:0:
367,354,144254,6,0,B|323:270|368:178|368:178|417:214|412:260|412:260|448:244|477:257|477:257|437:269|422:312,1,420,2|2,0:0|0:0,0:0:0:0:
428,37,145120,5,2,0:0:0:0:
499,332,145408,1,0,0:0:0:0:
143,182,145697,1,2,0:0:0:0:
466,244,145985,6,0,P|383:264|325:183,1,157.5,2|0,0:0|0:0,0:0:0:0:
327,145,146274,6,0,P|370:153|404:192,1,84,2|0,0:0|0:0,0:0:0:0:
414,267,146562,2,0,P|389:303|393:355,1,68.2499968757631,2|0,0:0|0:0,0:0:0:0:
352,338,146851,2,0,P|368:362|366:397,1,52.5,2|0,0:0|0:0,0:0:0:0:
164,267,147139,6,0,P|223:240|315:290,1,157.500006008148
67,39,147716,6,0,B|55:87|85:122|85:122|66:130|66:130|69:168|45:191|45:191|59:209|59:209|53:239|68:262|68:262|57:282|65:302|65:302|65:352,1,315.000012016297,6|2,0:0|0:0,0:0:0:0:
233,172,148149,5,0,0:0:0:0:
135,178,148293,2,0,B|233:131|233:217|342:168,1,188.999994232178,2|0,0:0|0:0,0:0:0:0:
345,154,148581,2,0,B|282:184|321:277|399:266|418:209|406:180|406:180|454:180|475:138|475:138|463:211|522:269,1,420,2|2,0:0|0:0,0:0:0:0:
389,60,149447,6,0,P|432:21|398:94,1,236.250009012223
203,115,150024,2,0,P|269:99|332:121,1,118.125004506111
314,91,150312,2,0,B|332:48|278:30|278:30|237:60|224:120|294:169,1,210,2|2,0:0|0:0,0:0:0:0:
405,335,150889,6,0,L|376:256,1,78.75,2|0,0:0|0:0,0:0:0:0:
419,301,151177,2,0,L|338:233,1,94.499997116089,2|0,0:0|0:0,0:0:0:0:
416,265,151466,2,0,L|292:243,1,110.249996635437,2|0,0:0|0:0,0:0:0:0:
397,234,151754,2,0,L|251:287,1,126,2|0,0:0|0:0,0:0:0:0:
245,288,152043,6,0,P|196:231|160:142,1,141.749995674133,2|0,0:0|0:0,0:0:0:0:
210,287,152331,2,0,P|190:206|208:101,1,157.5,2|0,0:0|0:0,0:0:0:0:
178,275,152620,2,0,P|205:180|259:115,1,173.250005287171,2|0,0:0|0:0,0:0:0:0:
323,106,152908,6,0,P|320:149|215:188,1,136.499993751526,2|0,0:0|0:0,0:0:0:0:
59,85,153197,2,0,P|107:82|152:116,1,68.2499968757631
250,122,153341,2,0,B|177:118|119:177|99:266|171:319|266:378|290:331|308:257|363:165|434:257|457:369|539:289|547:269|547:269|514:286|468:274,1,661.499979812623
336,65,154639,6,0,P|398:42|453:159,1,204.749990627289,6|0,0:0|0:0,0:0:0:0:
361,189,154927,2,0,P|366:150|389:119,1,78.7500030040742,2|0,0:0|0:0,0:0:0:0:
501,278,155216,6,0,P|431:251|495:321,1,210,2|2,0:0|0:0,0:0:0:0:
137,179,155793,1,2,0:0:0:0:
501,278,156081,1,2,0:0:0:0:
222,325,156370,1,2,0:0:0:0:
326,122,156658,6,0,P|359:97|346:157,1,105,2|0,0:0|0:0,0:0:0:0:
281,195,156947,2,0,P|323:222|380:224,1,105,2|0,0:0|0:0,0:0:0:0:
274,48,157235,6,0,P|244:79|234:118,1,52.5,2|0,0:0|0:0,0:0:0:0:
161,94,157379,2,0,P|172:135|201:163,1,52.5
166,254,157524,2,0,P|234:237|253:169,1,146.999995513916,2|2,0:0|0:0,0:0:0:0:
449,343,158101,6,0,B|381:297|371:211|412:159|412:159|492:178|491:280|491:280|475:240|440:235,1,420,2|2,0:0|0:0,0:0:0:0:
73,322,158966,5,2,0:0:0:0:
396,276,159254,1,0,0:0:0:0:
121,33,159543,1,2,0:0:0:0:
472,258,159831,6,0,B|447:259|395:278|395:278|382:212|329:199,1,157.5,2|0,0:0|0:0,0:0:0:0:
292,177,160120,6,0,P|314:151|368:137,1,84,2|0,0:0|0:0,0:0:0:0:
394,53,160408,2,0,P|421:72|477:71,1,68.2499968757631,2|0,0:0|0:0,0:0:0:0:
462,115,160697,2,0,P|487:110|526:128,1,52.5,2|0,0:0|0:0,0:0:0:0:
430,320,160985,6,0,P|363:286|357:211,1,157.500006008148,2|2,0:0|0:0,0:0:0:0:
193,35,161562,6,0,B|192:84|154:110|154:110|170:123|170:123|157:159|174:187|174:187|156:201|156:201|154:231|134:250|134:250|139:272|126:289|126:289|113:337,1,315.000012016297,4|2,0:0|0:0,0:0:0:0:
281,200,161995,5,0,0:0:0:0:
326,271,162139,2,0,P|301:231|254:329,1,188.999994232178,2|8,0:0|0:0,0:0:0:0:
245,321,162427,6,0,P|228:266|172:246,1,105,10|0,0:0|0:0,0:0:0:0:
134,381,162716,2,0,P|172:339|162:280,1,84,2|8,0:0|0:0,0:0:0:0:
46,318,163004,2,0,P|84:326|116:300,1,62.9999980773926,10|8,0:0|0:0,0:0:0:0:
173,47,163293,6,0,B|173:96|211:122|211:122|195:135|195:135|208:171|191:199|191:199|209:213|209:213|211:243|231:262|231:262|226:284|239:301|239:301|252:349,1,315.000012016297,14|2,0:0|0:0,0:0:0:0:
301,152,163726,1,0,0:0:0:0:
383,173,163870,2,0,P|336:163|412:85,1,188.999994232178,2|8,0:0|0:0,0:0:0:0:
439,38,164158,6,0,P|389:50|360:92,1,105,10|0,0:0|0:0,0:0:0:0:
503,136,164447,2,0,P|471:110|430:108,1,84
464,235,164735,2,0,P|461:204|445:178,1,62.9999980773926,10|0,0:0|0:0,0:0:0:0:
281,258,165024,6,0,P|329:220|389:229,1,125.999996154785,14|2,0:0|0:0,0:0:0:0:
347,297,165456,1,8,0:0:0:0:
332,318,165745,5,0,0:0:0:0:
251,334,165889,2,0,B|187:353|187:300|125:334,1,125.999996154785,10|2,0:0|0:0,0:0:0:0:
55,362,166322,5,8,0:0:0:0:
102,182,166466,1,10,0:0:0:0:
129,331,166610,1,8,0:0:0:0:
129,331,166682,1,8,0:0:0:0:
129,331,166754,2,0,P|137:269|210:242,1,125.999996154785,10|2,0:0|0:0,0:0:0:0:
208,255,167331,5,10,0:0:0:0:
102,182,167476,1,8,0:0:0:0:
259,193,167620,2,0,B|295:217|291:262|291:262|327:215|376:223|376:223|411:269|473:262|473:262|444:260|406:227,1,336,10|2,0:0|0:0,0:0:0:0:
479,182,168341,1,0,0:0:0:0:
299,62,168485,6,0,P|372:46|397:167,1,210,6|2,0:0|0:0,0:0:0:0:
154,96,168918,2,0,B|208:86|252:123|252:123|310:154|349:114,1,210,8|0,0:0|0:0,0:0:0:0:
385,252,169351,2,0,P|358:215|290:242,1,105,10|0,0:0|0:0,0:0:0:0:
459,327,169639,6,0,B|510:199|434:199|471:75,1,210,10|2,0:0|0:0,0:0:0:0:
435,43,170072,1,8,0:0:0:0:
450,40,170144,1,8,0:0:0:0:
465,37,170216,2,0,B|362:6|362:104|231:29,1,210,10|2,0:0|0:0,0:0:0:0:
182,71,170649,5,8,0:0:0:0:
167,64,170721,1,8,0:0:0:0:
151,60,170793,2,0,P|181:72|183:164,1,105,10|0,0:0|0:0,0:0:0:0:
286,273,171081,2,0,P|272:222|294:142,1,105,10|0,0:0|0:0,0:0:0:0:
369,147,171370,6,0,P|420:157|358:185,1,157.5,10|0,0:0|0:0,0:0:0:0:
348,216,171658,2,0,P|400:231|464:209,1,105,10|0,0:0|0:0,0:0:0:0:
512,70,171947,6,0,P|382:32|223:87,1,272.999987503052,14|2,0:0|0:0,0:0:0:0:
348,216,172379,1,8,0:0:0:0:
339,202,172452,1,8,0:0:0:0:
330,188,172524,2,0,B|338:246|338:246|326:287|326:287|340:338|340:338|336:376|336:376|315:345,1,210,10|2,0:0|0:0,0:0:0:0:
431,288,172956,5,0,0:0:0:0:
239,216,173101,2,8,P|200:211|165:220,3,70,10|8|8|10,0:0|0:0|0:0|0:0,0:0:0:0:
208,298,173533,1,8,0:0:0:0:
59,107,173677,6,0,P|188:133|289:48,1,272.999987503052,10|2,0:0|0:0,0:0:0:0:
214,15,174110,1,0,0:0:0:0:
158,238,174254,6,0,B|191:253|209:298|209:298|214:213|279:172|279:172|319:229|308:257|308:257|324:217|374:203,1,367.5,2|0,0:0|0:0,0:0:0:0:
380,285,174831,2,0,B|438:225|397:158|352:150|352:150|383:107|369:68|369:68|371:26,1,275.62501051426,10|0,0:0|0:0,0:0:0:0:
483,25,175408,6,0,P|459:63|389:81,1,105,14|0,0:0|0:0,0:0:0:0:
413,178,175697,6,0,P|368:176|317:124,1,89.2500017023087,10|0,0:0|0:0,0:0:0:0:
259,189,175937,6,0,P|247:166|258:127,1,62.9999980773926,8|0,0:0|0:0,0:0:0:0:
191,95,176177,6,0,P|204:73|244:63,1,52.5,8|0,0:0|0:0,0:0:0:0:
277,0,176418,6,8,P|291:13|300:31,2,39.3750015020371,8|8|10,0:0|0:0|0:0,0:0:0:0:
312,55,176634,1,8,0:0:0:0:
320,81,176706,5,8,0:0:0:0:
308,106,176778,1,8,0:0:0:0:
296,131,176851,1,10,0:0:0:0:
222,278,176995,5,8,0:0:0:0:
234,253,177067,1,8,0:0:0:0:
248,231,177139,2,0,B|171:255|108:224|108:224|145:233|183:211,1,210,10|2,0:0|0:0,0:0:0:0:
126,329,177572,1,8,0:0:0:0:
132,144,177716,1,10,0:0:0:0:
123,124,178004,5,10,0:0:0:0:
222,278,178149,1,8,0:0:0:0:
32,156,178293,2,0,B|80:175|133:144|133:144|173:199|247:188,1,210,10|10,0:0|0:0,0:0:0:0:
258,186,178653,1,8,0:0:0:0:
293,173,178726,1,8,0:0:0:0:
322,151,178798,1,8,0:0:0:0:
341,78,178870,6,0,B|361:153|324:207|324:207|336:290|336:290|329:375,1,272.999987503052,14|2,0:0|0:0,0:0:0:0:
448,271,179302,1,8,0:0:0:0:
458,261,179375,1,8,0:0:0:0:
468,252,179447,2,0,B|386:236|386:236|330:252|330:252|214:244,1,210,10|2,0:0|0:0,0:0:0:0:
331,344,179879,5,0,0:0:0:0:
451,141,180024,2,0,P|406:123|314:185,1,157.5,10|0,0:0|0:0,0:0:0:0:
331,196,180312,2,0,P|336:157|320:97,1,78.7500030040742,10|0,0:0|0:0,0:0:0:0:
132,64,180601,6,0,P|206:79|330:26,1,188.999994232178,10|0,0:0|0:0,0:0:0:0:
492,69,180889,6,8,L|391:42,1,105,10|8,0:0|0:0,0:0:0:0:
310,42,181105,1,8,0:0:0:0:
284,35,181177,2,0,L|182:62,1,105,10|0,0:0|0:0,0:0:0:0:
33,176,181466,6,8,P|111:162|172:193,1,105,10|8,0:0|0:0,0:0:0:0:
197,220,181682,1,8,0:0:0:0:
216,237,181754,2,0,P|294:251|355:220,1,105,10|0,0:0|0:0,0:0:0:0:
512,126,182043,5,10,0:0:0:0:
476,117,182115,1,8,0:0:0:0:
440,123,182187,1,8,0:0:0:0:
410,144,182259,1,8,0:0:0:0:
387,211,182331,6,0,B|383:164|411:143|411:143|301:201|221:137,1,272.999987503052,14|2,0:0|0:0,0:0:0:0:
163,73,182764,1,8,0:0:0:0:
155,61,182836,1,8,0:0:0:0:
147,49,182908,2,0,B|162:111|140:153|140:153|159:206|146:266,1,210,10|10,0:0|0:0,0:0:0:0:
48,154,183341,5,0,0:0:0:0:
250,248,183485,2,0,P|326:258|387:211,1,157.5,10|0,0:0|0:0,0:0:0:0:
376,194,183774,2,0,P|359:235|365:277,1,78.7500030040742,10|0,0:0|0:0,0:0:0:0:
510,366,184062,6,0,P|466:335|348:390,1,188.999994232178,10|0,0:0|0:0,0:0:0:0:
177,324,184351,6,8,L|292:342,1,105,10|0,0:0|0:0,0:0:0:0:
351,381,184567,1,8,0:0:0:0:
367,360,184639,2,0,L|482:342,1,105,10|0,0:0|0:0,0:0:0:0:
508,208,184927,6,8,P|452:219|391:197,1,105,10|8,0:0|0:0,0:0:0:0:
348,149,185144,1,8,0:0:0:0:
325,162,185216,2,0,P|269:151|208:173,1,105,10|0,0:0|0:0,0:0:0:0:
47,203,185504,5,10,0:0:0:0:
81,192,185576,1,8,0:0:0:0:
118,195,185648,1,8,0:0:0:0:
150,212,185720,1,8,0:0:0:0:
185,275,185793,6,0,B|174:237|150:212|150:212|174:161|225:164|225:164|178:120|197:26,1,272.999987503052,14|2,0:0|0:0,0:0:0:0:
312,76,186226,5,8,0:0:0:0:
300,82,186298,1,8,0:0:0:0:
288,88,186370,2,0,B|324:109|357:93|357:93|312:168|375:237,1,210,10|2,0:0|0:0,0:0:0:0:
439,154,186802,5,8,0:0:0:0:
185,275,186947,2,0,P|236:307|346:270,1,157.5,10|0,0:0|0:0,0:0:0:0:
320,270,187235,2,0,P|300:300|300:353,1,78.7500030040742,10|0,0:0|0:0,0:0:0:0:
489,341,187524,6,0,B|499:303|468:265|451:250|423:238|423:238|476:241|523:199,1,188.999994232178,10|0,0:0|0:0,0:0:0:0:
512,96,187812,6,8,P|468:111|439:154,1,105,10|8,0:0|0:0,0:0:0:0:
424,238,188028,1,8,0:0:0:0:
433,262,188101,2,0,P|387:238|336:247,1,105,10|0,0:0|0:0,0:0:0:0:
171,162,188389,6,8,L|307:177,1,105,10|8,0:0|0:0,0:0:0:0:
344,125,188605,1,8,0:0:0:0:
365,139,188677,2,0,L|419:11,1,105,10|0,0:0|0:0,0:0:0:0:
489,14,188966,5,8,0:0:0:0:
258,43,189110,1,8,0:0:0:0:
232,47,189182,1,8,0:0:0:0:
206,51,189254,2,0,B|179:55|179:55|229:84|229:143|229:143|194:182|208:246,1,210,10|2,0:0|0:0,0:0:0:0:
145,301,189687,5,0,0:0:0:0:
307,233,189831,1,10,0:0:0:0:
320,248,190120,5,10,0:0:0:0:
204,212,190264,1,8,0:0:0:0:
431,189,190408,2,0,P|373:184|448:127,1,210,10|2,0:0|0:0,0:0:0:0:
379,307,190841,5,8,0:0:0:0:
435,111,190985,2,0,P|366:60|365:145,1,210,10|2,0:0|0:0,0:0:0:0:
512,31,191418,5,8,0:0:0:0:
365,145,191562,2,0,P|291:101|369:67,1,210,10|2,0:0|0:0,0:0:0:0:
365,145,191923,5,8,0:0:0:0:
349,183,191995,1,8,0:0:0:0:
351,224,192067,1,8,0:0:0:0:
373,259,192139,2,8,P|377:295|365:319,4,52.5,10|8|8|8|10,0:0|0:0|0:0|0:0|0:0,0:0:0:0:
81,311,192716,6,0,B|181:247|181:362|310:289,1,210,6|2,0:0|0:0,0:0:0:0:
138,382,193149,1,8,0:0:0:0:
230,214,193293,1,10,0:0:0:0:
224,193,193581,5,10,0:0:0:0:
111,133,193726,1,8,0:0:0:0:
386,102,193870,2,0,B|443:69|482:109|482:109|468:162|402:163,1,210,10|2,0:0|0:0,0:0:0:0:
224,193,194302,5,8,0:0:0:0:
402,163,194447,2,0,B|400:228|347:242|347:242|308:204|340:146,1,210,10|2,0:0|0:0,0:0:0:0:
236,19,194879,5,8,0:0:0:0:
341,148,195024,2,0,B|284:114|299:61|299:61|352:46|386:102,1,210,10|2,0:0|0:0,0:0:0:0:
256,192,195330,12,0,195889,0:0:0:0:
336,322,196177,5,12,0:0:0:0:
336,322,196466,2,8,L|316:200,1,105
253,127,197043,5,8,0:0:0:0:
253,127,197332,2,8,L|233:249,1,105
159,196,197908,6,0,L|141:169,12,26.25,8|0|0|0|8|0|0|0|8|0|0|0|8,0:0|0:0|0:0|0:0|0:0|0:0|0:0|0:0|0:0|0:0|0:0|0:0|0:0,0:0:0:0:
244,43,199351,1,8,0:0:0:0:
267,57,199567,5,0,0:0:0:0:
267,57,199639,2,0,L|288:226,1,157.5,8|0,0:0|0:0,0:0:0:0:
286,213,200216,1,8,0:0:0:0:
356,326,200504,5,8,0:0:0:0:
356,326,200793,2,8,L|370:207,1,105
376,128,201370,6,0,L|394:101,12,26.25,8|0|0|0|8|0|0|0|8|0|0|0|8,0:0|0:0|0:0|0:0|0:0|0:0|0:0|0:0|0:0|0:0|0:0|0:0|0:0,0:0:0:0:
203,150,202812,2,0,L|136:140,1,52.5,8|0,0:0|0:0,0:0:0:0:
134,121,203101,6,0,P|173:91|150:155,1,157.5,8|0,0:0|0:0,0:0:0:0:
170,160,203677,1,8,0:0:0:0:
78,233,203966,6,8,L|95:343,2,105
213,308,204831,6,0,P|252:338|229:274,1,157.5,8|0,0:0|0:0,0:0:0:0:
249,268,205407,1,8,0:0:0:0:
355,353,205697,6,8,L|375:243,2,105
475,229,206562,6,0,P|451:170|512:190,1,157.5,8|0,0:0|0:0,0:0:0:0:
512,190,207139,1,8,0:0:0:0:
414,72,207427,6,8,P|474:88|524:66,2,105
292,110,208293,6,0,L|262:124,11,26.25,8|0|0|0|8|0|0|0|8|0|0|0,0:0|0:0|0:0|0:0|0:0|0:0|0:0|0:0|0:0|0:0|0:0|0:0,0:0:0:0:
247,105,209158,2,0,L|229:131,11,26.25,8|0|0|0|8|0|0|0|8|0|0|0,0:0|0:0|0:0|0:0|0:0|0:0|0:0|0:0|0:0|0:0|0:0|0:0,0:0:0:0:
205,123,210024,6,0,B|247:203|163:203|217:294,1,157.5,12|0,0:0|0:0,0:0:0:0:
206,274,210601,1,8,0:0:0:0:
309,333,210889,6,8,B|347:355|392:339|392:339|376:356,2,105
356,246,211754,6,0,L|368:209,16,26.25,8|0|0|0|8|0|0|0|8|0|0|0|8|0|0|0|8,0:0|0:0|0:0|0:0|0:0|0:0|0:0|0:0|0:0|0:0|0:0|0:0|0:0|0:0|0:0|0:0|0:0,0:0:0:0:
467,160,213197,2,0,L|460:98,1,52.5,8|0,0:0|0:0,0:0:0:0:
439,92,213485,6,0,P|397:122|461:111,1,157.5,8|0,0:0|0:0,0:0:0:0:
462,132,214062,1,8,0:0:0:0:
320,42,214351,6,0,P|273:43|239:77,1,78.75,8|0,0:0|0:0,0:0:0:0:
236,55,214639,2,0,P|213:96|225:142,1,78.75,8|0,0:0|0:0,0:0:0:0:
205,134,214927,2,0,P|229:174|275:186,1,78.75,8|0,0:0|0:0,0:0:0:0:
257,200,215216,6,0,L|285:203,7,26.25,8|0|0|0|8|0|0|0,0:0|0:0|0:0|0:0|0:0|0:0|0:0|0:0,0:0:0:0:
292,212,215793,2,8,P|229:219|206:260,1,105
53,259,216658,2,0,L|119:247,1,52.5,8|0,0:0|0:0,0:0:0:0:
120,228,216947,6,0,P|85:240|126:202,1,157.5,8|0,0:0|0:0,0:0:0:0:
115,183,217524,1,8,0:0:0:0:
219,104,217812,6,0,P|244:148|238:182,1,78.75,8|0,0:0|0:0,0:0:0:0:
254,173,218101,2,0,P|253:223|231:250,1,78.75,8|0,0:0|0:0,0:0:0:0:
249,250,218389,2,0,P|223:293|190:305,1,78.75,8|0,0:0|0:0,0:0:0:0:
181,324,218677,6,0,L|149:332,7,26.25,8|0|0|0|8|0|0|0,0:0|0:0|0:0|0:0|0:0|0:0|0:0|0:0,0:0:0:0:
166,346,219254,6,0,P|214:336|257:357,1,78.75,8|0,0:0|0:0,0:0:0:0:
253,350,219543,2,0,P|295:360|347:346,1,78.75,8|0,0:0|0:0,0:0:0:0:
341,349,219831,2,0,P|382:326|407:288,1,78.75,8|0,0:0|0:0,0:0:0:0:
409,291,220120,2,0,P|424:251|415:200,1,78.75,8|0,0:0|0:0,0:0:0:0:
419,202,220408,6,0,L|425:177,11,26.25,8|0|0|0|8|0|0|0|8|0|0|0,0:0|0:0|0:0|0:0|0:0|0:0|0:0|0:0|0:0|0:0|0:0|0:0,0:0:0:0:
437,171,221274,5,8,0:0:0:0:
419,151,221346,1,8,0:0:0:0:
395,140,221418,1,8,0:0:0:0:
369,138,221490,1,8,0:0:0:0:
344,145,221562,6,8,P|288:161|231:143,1,105
87,235,222139,2,0,B|242:189|242:303|382:229,1,288.75,8|0,0:0|0:0,0:0:0:0:
362,257,223004,6,0,P|341:233|335:174,1,78.75,8|0,0:0|0:0,0:0:0:0:
281,225,223293,2,0,P|305:196|312:128,1,94.499997116089,8|0,0:0|0:0,0:0:0:0:
322,125,223581,2,0,L|322:7,1,110.249996635437,8|0,0:0|0:0,0:0:0:0:
405,0,223870,6,0,L|393:47,23,42,0|0|0|0|8|0|0|0|8|0|0|0|8|0|0|0|8|0|0|0|8|0|0|0,0:0|0:0|0:0|0:0|0:0|0:0|0:0|0:0|0:0|0:0|0:0|0:0|0:0|0:0|0:0|0:0|0:0|0:0|0:0|0:0|0:0|0:0|0:0|0:0,0:0:0:0:
470,66,225601,6,0,L|482:113,11,42,8|0|0|0|8|0|0|0|8|0|0|0,0:0|0:0|0:0|0:0|0:0|0:0|0:0|0:0|0:0|0:0|0:0|0:0,0:0:0:0:
404,132,226466,5,8,0:0:0:0:
375,162,226538,1,0,0:0:0:0:
334,172,226610,1,0,0:0:0:0:
292,168,226682,1,0,0:0:0:0:
257,144,226754,1,0,0:0:0:0:
237,106,226827,1,0,0:0:0:0:
220,64,226899,1,0,0:0:0:0:
185,43,226971,1,0,0:0:0:0:
143,36,227043,1,0,0:0:0:0:
102,45,227115,1,0,0:0:0:0:
70,72,227187,1,0,0:0:0:0:
50,109,227259,1,8,0:0:0:0:
57,150,227331,6,0,B|98:240|26:240|63:322|63:322|83:276,1,210,14|2,0:0|0:0,0:0:0:0:
220,242,227764,1,8,0:0:0:0:
254,228,227836,1,0,0:0:0:0:
288,214,227908,2,0,B|322:200|322:200|254:184|256:297,1,157.5,2|0,0:0|0:0,0:0:0:0:
242,317,228197,6,0,P|199:317|143:235,1,125.999996154785,2|0,0:0|0:0,0:0:0:0:
177,96,228485,2,0,B|112:83|152:-8|234:20|241:58|200:114|156:158|186:214,1,251.999992309571,2|2,0:0|0:0,0:0:0:0:
306,293,228918,5,0,0:0:0:0:
303,314,228990,1,8,0:0:0:0:
300,335,229062,2,0,B|299:356|299:356|355:251|261:251|315:44|315:44|328:113|374:149,1,440.999986541749,10|0,0:0|0:0,0:0:0:0:
177,96,229783,5,0,0:0:0:0:
412,67,229927,1,10,0:0:0:0:
425,93,230216,5,10,0:0:0:0:
93,43,230504,1,10,0:0:0:0:
184,235,230721,5,8,0:0:0:0:
194,256,230793,2,0,B|203:278|203:278|158:208|243:64|470:143|383:372|286:342|201:313,1,440.999986541749,10|0,0:0|0:0,0:0:0:0:
102,200,231514,5,0,0:0:0:0:
273,247,231658,1,10,0:0:0:0:
298,232,231947,5,2,0:0:0:0:
28,353,232235,1,2,0:0:0:0:
215,342,232452,5,8,0:0:0:0:
236,343,232524,2,0,B|257:343|257:343|225:319|225:280|225:280|128:270|162:139|281:164|299:233|299:233|361:209|332:117,1,440.999986541749,10|0,0:0|0:0,0:0:0:0:
287,87,233245,5,0,0:0:0:0:
389,266,233389,1,10,0:0:0:0:
380,294,233677,5,10,0:0:0:0:
479,14,233894,1,8,0:0:0:0:
479,14,233966,1,10,0:0:0:0:
484,212,234182,5,8,0:0:0:0:
485,235,234254,2,0,B|486:257|486:257|463:188|436:143|355:153|317:215|317:215|279:171|226:206|226:206|228:285|343:338|422:213,1,587.999982055665,14|2,0:0|0:0,0:0:0:0:
152,184,234976,5,0,0:0:0:0:
94,112,235120,2,0,B|171:71|224:127|224:127|272:96|313:105|313:105|373:67|352:7|352:7|295:35|298:83|298:83|338:178|313:220,1,587.999982055665,2|2,0:0|0:0,0:0:0:0:
462,300,235913,5,8,0:0:0:0:
481,309,235985,2,0,B|500:318|500:318|407:193|312:371|177:378|159:249|159:249|270:211|286:346,1,587.999982055665,10|2,0:0|0:0,0:0:0:0:
73,349,236851,5,2,0:0:0:0:
89,325,237139,5,10,0:0:0:0:
247,255,237283,1,8,0:0:0:0:
247,255,237355,1,8,0:0:0:0:
247,255,237427,6,0,P|290:271|330:266,1,73.4999977569581,10|0,0:0|0:0,0:0:0:0:
350,347,237572,2,8,P|385:317|401:280,1,73.4999977569581
505,200,237716,2,0,B|344:77|344:248|204:151|204:151|269:204|236:304,1,440.999986541749,10|8,0:0|0:0,0:0:0:0:
350,347,238293,5,2,0:0:0:0:
387,60,238509,1,8,0:0:0:0:
393,38,238581,2,0,B|399:18|399:18|413:302,1,293.999991027832,10|2,0:0|0:0,0:0:0:0:
494,325,239014,5,8,0:0:0:0:
342,244,239158,2,0,P|406:207|484:248,1,146.999995513916,2|8,0:0|0:0,0:0:0:0:
454,245,239375,1,8,0:0:0:0:
438,260,239447,2,0,B|421:275|421:275|453:170|348:120|277:131|238:215|286:262|135:265|164:141|-13:244,1,514.499984298707,10|0,0:0|0:0,0:0:0:0:
4,112,240024,6,8,P|19:80|47:61,4,70,10|8|8|8|8,0:0|0:0|0:0|0:0|0:0,0:0:0:0:
138,21,240312,6,0,B|203:35|274:86|255:185|189:248|189:248|428:76|428:76|427:223|427:223|326:104,1,840,2|2,0:0|0:0,0:0:0:0:
309,62,240961,5,0,0:0:0:0:
337,30,241033,1,0,0:0:0:0:
376,16,241105,1,8,0:0:0:0:
417,19,241177,6,0,P|455:38|405:196,1,210,14|2,0:0|0:0,0:0:0:0:
329,143,241610,1,8,0:0:0:0:
364,131,241682,1,0,0:0:0:0:
390,106,241754,2,0,P|352:191|399:264,1,157.5,2|0,0:0|0:0,0:0:0:0:
453,258,242043,6,0,P|425:307|318:299,1,125.999996154785,2|0,0:0|0:0,0:0:0:0:
190,247,242331,2,0,P|281:266|179:302,1,251.999992309571,2|2,0:0|0:0,0:0:0:0:
91,144,242764,5,0,0:0:0:0:
109,131,242836,1,0,0:0:0:0:
130,126,242908,2,0,B|151:129|151:129|61:165|32:80|32:80|122:0|209:34|276:118|201:194,1,440.999986541749,2|0,0:0|0:0,0:0:0:0:
86,237,243629,5,0,0:0:0:0:
307,166,243774,1,10,0:0:0:0:
321,191,244062,5,10,0:0:0:0:
47,38,244351,1,10,0:0:0:0:
246,62,244567,5,8,0:0:0:0:
268,65,244639,2,0,B|290:69|290:69|223:73|170:135|182:228|264:258|264:258|209:262|209:262|255:303|244:363,1,440.999986541749,10|0,0:0|0:0,0:0:0:0:
354,272,245360,5,0,0:0:0:0:
160,336,245504,1,10,0:0:0:0:
145,361,245793,5,2,0:0:0:0:
290,69,246081,1,2,0:0:0:0:
354,272,246298,5,8,0:0:0:0:
361,294,246370,2,0,B|368:315|368:315|275:234|379:128|379:128|516:218|419:325,1,440.999986541749,10|0,0:0|0:0,0:0:0:0:
218,187,247091,5,0,0:0:0:0:
379,129,247235,1,10,0:0:0:0:
405,141,247524,5,10,0:0:0:0:
122,36,247740,1,8,0:0:0:0:
122,36,247812,1,10,0:0:0:0:
157,251,248028,5,8,0:0:0:0:
161,274,248101,2,0,B|167:298|167:298|204:263|239:244|234:182|214:84|130:106|75:78|-22:57|-55:362|46:274|91:276|110:309|125:340|121:407,1,587.999982055665,14|2,0:0|0:0,0:0:0:0:
123,219,248822,5,0,0:0:0:0:
270,362,248966,2,0,B|395:225|258:189|408:49|408:49|468:245|320:205|419:322,1,587.999982055665,2|2,0:0|0:0,0:0:0:0:
246,85,249759,5,8,0:0:0:0:
239,63,249831,2,0,B|232:40|232:40|318:115|255:249|101:271|0:149|100:46|100:46|168:104|134:197,1,587.999982055665,10|2,0:0|0:0,0:0:0:0:
112,338,250697,5,2,0:0:0:0:
96,313,250985,5,10,0:0:0:0:
304,333,251129,1,8,0:0:0:0:
304,333,251202,1,8,0:0:0:0:
304,333,251274,6,0,L|417:324,1,73.4999977569581,10|0,0:0|0:0,0:0:0:0:
432,268,251418,2,8,L|545:259,1,73.4999977569581
510,137,251562,2,0,B|531:72|463:65|450:8|450:8|372:73|404:154|447:197|447:197|414:233|445:312,1,440.999986541749,14|0,0:0|0:0,0:0:0:0:
319,234,252139,1,10,0:0:0:0:
342,252,252427,6,0,B|172:202|219:317|84:306|84:306|203:162|41:196|126:22,1,504,14|0,0:0|0:0,0:0:0:0:
271,42,253004,1,10,0:0:0:0:
248,60,253293,6,0,B|353:98|363:-6|432:40|432:40|292:150|483:202|368:298|368:298|386:245|348:197,1,566.999982696534,14|0,0:0|0:0,0:0:0:0:
84,306,253870,1,10,0:0:0:0:
56,315,254158,6,0,B|241:198|241:375|466:316|466:316|381:265|365:164|365:164|250:234|316:369,1,840,14|2,0:0|0:0,0:0:0:0:
226,115,255007,1,10,0:0:0:0:
283,108,262270,6,0,P|250:111|209:103,1,52.5,2|2,0:0|0:0,0:0:0:0:
348,166,262585,1,6,0:0:0:0:
318,224,269849,6,0,P|314:193|321:166,1,52.5,2|2,0:0|0:0,0:0:0:0:
273,295,270164,1,6,0:0:0:0:
133,186,277428,6,0,P|137:211|133:237,1,52.5,2|2,0:0|0:0,0:0:0:0:
181,115,277743,1,6,0:0:0:0:
306,108,285322,6,0,L|287:230,2,105,4|0|0,0:0|0:0|0:0,0:0:0:0:
359,256,286270,1,0,0:0:0:0:
204,282,286585,6,0,P|155:249|87:254,1,105,8|0,0:0|0:0,0:0:0:0:
266,219,287217,2,0,P|304:174|371:161,1,105,8|0,0:0|0:0,0:0:0:0:
472,93,287730,5,8,0:0:0:0:
487,87,287849,2,0,P|431:97|371:71,1,105,8|0,0:0|0:0,0:0:0:0:
231,108,288480,1,8,0:0:0:0:
401,305,288796,6,0,L|388:232,1,52.5,8|0,0:0|0:0,0:0:0:0:
386,82,289112,2,0,L|364:205,1,105,8|0,0:0|0:0,0:0:0:0:
228,259,289743,6,0,L|215:186,1,52.5
277,153,290059,2,0,P|222:130|163:153,1,105,0|8,0:0|0:0,0:0:0:0:
35,205,290691,2,0,P|90:228|149:205,1,105,0|8,0:0|0:0,0:0:0:0:
80,68,291322,5,0,0:0:0:0:
80,68,291480,2,0,L|72:142,1,52.5
155,256,291954,6,0,L|166:362,1,105,0|8,0:0|0:0,0:0:0:0:
238,328,292428,1,8,0:0:0:0:
309,360,292585,6,0,L|317:292,1,52.5,8|8,0:0|0:0,0:0:0:0:
392,289,292901,2,0,P|369:250|297:232,1,105,12|0,0:0|0:0,0:0:0:0:
180,147,293533,2,0,P|198:115|256:101,1,78.75
269,78,293849,6,0,P|229:100|158:79,1,105,0|8,0:0|0:0,0:0:0:0:
47,187,294480,2,0,P|73:171|122:185,1,78.75
156,169,294796,6,0,P|117:183|79:251,1,105,8|0,0:0|0:0,0:0:0:0:
218,311,295428,2,0,L|183:271,1,52.5
254,237,295743,2,0,P|285:262|294:343,2,105,0|8|0,0:0|0:0|0:0,0:0:0:0:
274,160,296533,1,0,0:0:0:0:
331,105,296691,6,0,P|368:119|442:86,1,105,8|0,0:0|0:0,0:0:0:0:
290,26,297322,2,0,P|253:57|244:120,1,105
363,211,297954,6,0,P|397:184|410:140,1,78.75,8|0,0:0|0:0,0:0:0:0:
428,186,298270,2,0,P|421:143|390:109,1,78.75
438,117,298585,2,0,P|397:101|353:111,1,78.75
156,134,298901,6,0,P|212:156|273:141,1,118.125004506111,8|0,0:0|0:0,0:0:0:0:
222,185,299217,2,0,P|269:147|287:86,1,118.125004506111
299,153,299533,2,0,P|290:93|246:47,1,118.125004506111
74,118,299849,6,0,P|85:194|141:253,1,157.5,8|0,0:0|0:0,0:0:0:0:
65,222,300164,2,0,P|136:250|216:231,1,157.5,8|0,0:0|0:0,0:0:0:0:
281,191,300480,6,0,P|352:162|432:181,1,157.5,12|0,0:0|0:0,0:0:0:0:
486,235,300796,2,0,P|514:306|495:386,1,157.5
440,326,301112,2,0,P|411:254|430:174,1,157.5
281,191,301428,6,0,P|352:162|432:181,1,157.5
486,235,301744,2,0,P|514:306|495:386,1,157.5,8|0,0:0|0:0,0:0:0:0:
440,326,302060,2,0,P|411:254|430:174,1,157.5
464,108,302375,6,0,P|476:56|375:21,1,157.5
327,47,302691,2,0,P|275:62|175:26,1,157.5
100,35,303007,2,0,P|55:77|65:197,1,157.5
89,235,303322,6,0,P|143:262|253:212,1,157.5
310,254,303638,2,0,P|306:192|208:123,1,157.5,8|0,0:0|0:0,0:0:0:0:
220,51,303954,6,0,P|241:37|284:28,1,52.5,8|0,0:0|0:0,0:0:0:0:
329,78,304112,2,0,P|354:76|395:90,1,52.5,8|0,0:0|0:0,0:0:0:0:
409,155,304270,6,0,P|451:185|461:303,1,157.5,8|0,0:0|0:0,0:0:0:0:
445,359,304585,2,0,P|402:329|288:360,1,157.5
251,284,304901,2,0,P|255:207|311:154,1,157.5
318,75,305217,6,0,P|313:151|257:204,1,157.5
178,213,305533,2,0,P|120:161|43:164,1,157.5,8|0,0:0|0:0,0:0:0:0:
68,240,305849,2,0,P|72:316|128:369,1,157.5
198,332,306164,1,0,0:0:0:0:
212,346,306480,6,0,P|219:275|323:236,1,157.5
207,237,306796,2,0,P|271:207|357:278,1,157.5,8|0,0:0|0:0,0:0:0:0:
298,178,307112,2,0,P|355:219|337:329,1,157.5
207,237,307428,6,0,P|271:207|357:278,1,157.5,8|0,0:0|0:0,0:0:0:0:
235,295,307743,6,0,P|147:210|268:219,1,315,8|0,0:0|0:0,0:0:0:0:
346,228,308059,6,0,B|354:278|328:347|256:374,1,157.5,12|0,0:0|0:0,0:0:0:0:
322,163,308375,2,0,B|370:181|417:238|404:314,1,157.5
253,151,308691,2,0,B|292:118|365:106|424:155,1,157.5
470,100,309007,6,0,B|430:132|357:144|298:95,1,157.5
256,67,309322,2,0,B|216:34|143:22|84:71,1,157.5,8|0,0:0|0:0,0:0:0:0:
43,103,309638,2,0,B|10:142|-1:215|47:274,1,157.5
89,305,309954,6,0,B|128:337|201:349|260:300,1,157.5,8|0,0:0|0:0,0:0:0:0:
303,271,310270,2,0,B|335:231|347:158|298:99,1,157.5
355,55,310585,2,0,B|322:94|310:167|359:226,1,157.5
421,213,310901,6,0,P|378:275|302:270,1,157.5
233,230,311217,2,0,P|168:206|70:252,1,157.5
149,283,311533,2,0,P|155:191|81:153,1,157.5,8|0,0:0|0:0,0:0:0:0:
93,77,311849,6,0,L|290:124,1,157.5,8|0,0:0|0:0,0:0:0:0:
278,185,312164,2,0,L|81:232,1,157.5,8|0,0:0|0:0,0:0:0:0:
125,358,312480,6,0,B|-21:168|226:9|226:9|200:31|202:65|202:65|202:281|202:281|184:228|124:221|124:221|246:205|280:111|280:111|280:308|280:308|280:201|292:153|359:121|421:131,1,1470,8|0,0:0|0:0,0:0:0:0:
416,69,315665,6,0,P|397:104|405:191,1,105
474,250,317480,2,0,P|441:239|369:254,1,105
213,323,319363,6,0,P|265:304|327:322,1,105
255,222,321256,2,0,P|271:188|251:109,1,105
142,51,323134,6,0,P|124:90|132:158,1,105
34,236,325024,2,0,P|85:219|143:245,1,105
229,233,326996,6,0,P|180:250|131:234,1,105
181,134,328878,6,0,L|196:120,15,19.6875007510186
225,129,329951,2,0,L|257:118,15,19.6875007510186
256,192,330950,12,0,333811,0:0:0:0:
219,173,334421,6,0,B|263:167|313:232|313:232|284:90|387:147|391:29|391:29|446:108|354:135|441:231|441:231|410:194|357:208,1,630.000024032594,6|2,0:0|0:0,0:0:0:0:
210,82,335214,5,8,0:0:0:0:
241,78,335286,2,0,B|273:73|273:73|157:22|55:148|137:255,1,315.000012016297,10|2,0:0|0:0,0:0:0:0:
312,230,335719,6,0,L|200:245,1,78.7500030040742,8|0,0:0|0:0,0:0:0:0:
165,278,335863,2,0,L|277:293,1,78.7500030040742,2|0,0:0|0:0,0:0:0:0:
312,326,336007,2,0,L|200:341,1,78.7500030040742
272,178,336151,6,0,P|354:180|249:211,1,315.000012016297,10|2,0:0|0:0,0:0:0:0:
227,117,336584,1,8,0:0:0:0:
269,95,336656,1,8,0:0:0:0:
315,88,336728,2,0,B|387:84|492:158|472:273|420:326,1,315.000012016297,10|2,0:0|0:0,0:0:0:0:
134,107,337305,6,0,P|150:38|177:137,1,236.250009012223,10|0,0:0|0:0,0:0:0:0:
173,184,337594,2,0,P|171:235|208:170,1,157.500006008148,2|0,0:0|0:0,0:0:0:0:
448,234,337810,5,8,0:0:0:0:
459,205,337882,2,0,B|522:132|460:-12|250:56|304:196|366:224|366:224|401:154|401:154|382:80|382:80|410:33|393:-46,1,630.000024032594,10|2,0:0|0:0,0:0:0:0:
288,332,338675,5,8,0:0:0:0:
275,352,338747,2,0,B|262:372|262:372|317:339|364:364|364:364|328:256|328:256|173:330|173:330|173:184|173:184|278:268,1,630.000024032594,10|2,0:0|0:0,0:0:0:0:
380,140,339541,5,8,0:0:0:0:
400,154,339613,2,0,B|419:170|419:170|287:204|234:124|234:124|198:90|113:77|82:149|85:193|85:193|74:42|225:39,1,630.000024032594,10|2,0:0|0:0,0:0:0:0:
466,257,340406,1,8,0:0:0:0:
486,271,340478,6,0,P|404:256|499:306,1,315.000012016297,2|10,0:0|0:0,0:0:0:0:
380,140,340983,1,8,0:0:0:0:
370,118,341055,2,0,B|361:95|361:95|403:113|419:172|357:215|301:240|306:96|207:205,1,236.250009012223,10|8,0:0|0:0,0:0:0:0:
265,245,341344,6,0,P|334:210|210:218,1,420,14|2,0:0|0:0,0:0:0:0:
354,335,341776,1,8,0:0:0:0:
395,340,341848,1,8,0:0:0:0:
436,330,341921,2,0,B|390:299|283:279|283:400|101:323,1,315,10|2,0:0|0:0,0:0:0:0:
71,382,342209,6,0,P|74:284|205:360,1,315,2|0,0:0|0:0,0:0:0:0:
206,356,342497,1,2,0:0:0:0:
125,183,342642,6,0,P|177:186|247:232,1,105
172,130,342786,2,0,P|206:168|223:250,1,105,2|0,0:0|0:0,0:0:0:0:
391,231,343002,5,8,0:0:0:0:
431,240,343074,2,0,B|472:248|472:248|357:275|305:174|352:81|439:97|439:97|455:163|403:193,1,420,10|2,0:0|0:0,0:0:0:0:
462,376,343507,5,8,0:0:0:0:
205,355,343651,2,0,B|276:241|325:343|391:230|391:230|359:343|467:378,1,420,2|2,0:0|0:0,0:0:0:0:
475,223,344084,5,0,0:0:0:0:
433,227,344156,1,0,0:0:0:0:
391,231,344228,1,2,0:0:0:0:
349,235,344300,1,0,0:0:0:0:
307,239,344372,1,0,0:0:0:0:
264,243,344445,1,0,0:0:0:0:
222,247,344517,2,0,B|212:232|212:232|259:236|259:236|492:213,1,210,10|0,0:0|0:0,0:0:0:0:
401,159,344733,5,8,0:0:0:0:
442,154,344805,2,0,B|484:149|484:149|363:210|276:159|311:29|99:123|28:150|67:360|101:398|220:392|329:389|343:318|344:229|232:168|191:293,1,840,14|2,0:0|0:0,0:0:0:0:
100,105,345598,5,8,0:0:0:0:
58,116,345671,2,0,B|16:125|16:125|-7:93|60:6|153:14|153:329|444:124|458:47|458:47|400:-2|335:13|335:13|298:80|368:140,1,840,14|2,0:0|0:0,0:0:0:0:
292,298,346464,5,8,0:0:0:0:
268,332,346536,2,0,P|255:56|248:333,1,840,14|2,0:0|0:0,0:0:0:0:
256,16,347401,5,14,0:0:0:0:
256,192,347473,12,0,351728,0:0:0:0:
239,211,352178,6,0,L|235:234,3,17.5
320,202,354224,6,0,L|328:225,3,17.5
396,172,356236,6,0,L|417:189,3,17.5
453,113,358208,6,0,L|482:118,3,17.5
480,34,360188,6,0,L|505:24,3,17.5
277,63,362254,6,0,L|252:55,3,17.5
231,130,364194,6,0,L|207:135,3,17.5
219,211,365213,6,0,L|199:228,3,17.5
246,288,366133,6,0,L|236:316,3,17.5
314,334,368299,6,0,P|376:331|421:302,1,105,2|2,0:0|0:0,0:0:0:0:
314,334,368946,1,8,0:0:0:0:
510,286,369309,6,0,P|447:289|402:318,1,105,2|2,0:0|0:0,0:0:0:0:
510,286,369936,1,8,0:0:0:0:
359,206,370274,6,0,P|338:156|359:89,1,105,2|2,0:0|0:0,0:0:0:0:
359,206,370942,1,8,0:0:0:0:
235,30,371292,6,0,P|256:80|237:149,1,105,2|2,0:0|0:0,0:0:0:0:
235,30,371935,1,8,0:0:0:0:
69,150,372305,6,0,P|123:147|182:190,1,105,2|2,0:0|0:0,0:0:0:0:
69,150,373022,1,8,0:0:0:0:
149,272,373436,6,0,P|205:279|269:249,1,105,2|2,0:0|0:0,0:0:0:0:
149,272,374745,1,8,0:0:0:0:
149,272,375701,1,8,0:0:0:0:
