osu file format v14

[General]
AudioFilename: audio.mp3
AudioLeadIn: 0
PreviewTime: 70589
Countdown: 1
SampleSet: Soft
StackLeniency: 0.7
Mode: 0
LetterboxInBreaks: 0
WidescreenStoryboard: 1

[Editor]
Bookmarks: 2642,15703,19286,36564,50690,63888,71032
DistanceSpacing: 1.2
BeatDivisor: 4
GridSize: 32
TimelineZoom: 3.499998

[Metadata]
Title:Utau Oka~Harmonics FRELIA~
TitleUnicode:謳う丘~Harmonics FRELIA~
Artist:Shikata Akiko
ArtistUnicode:志方あきこ
Creator:Mir
Version:Normal
Source:アルトネリコ2 ~世界に響く少女たちの創造詩~
Tags:Shurelia Ar Tonelico II Sekai ni Hibiku Shoujo-tachi no Metafalica Melody of Cloche Leythal Pastalia Luca Trulyworth Frelia Jacqli Hymn Visual Novel Gust NIS RPG Daisuke Achiwa best game opening
BeatmapID:1462871
BeatmapSetID:691226

[Difficulty]
HPDrainRate:2
CircleSize:3
OverallDifficulty:4
ApproachRate:4
SliderMultiplier:1.7
SliderTickRate:1

[Events]
//Background and Video events
0,0,"artonelico2.jpg",0,0
//Break Periods
2,64087,69145
2,109997,114932
//Storyboard Layer 0 (Background)
//Storyboard Layer 1 (Fail)
//Storyboard Layer 2 (Pass)
//Storyboard Layer 3 (Foreground)
//Storyboard Sound Samples

[TimingPoints]
2642,1304.34782608696,4,2,1,30,1,0
7859,1224.48979591837,4,2,1,32,1,0
12012,1250,4,2,1,30,1,0
12637,975.609756097561,4,2,1,35,1,0
14588,1428.57142857143,4,2,1,54,1,0
15302,952.380952380952,4,2,1,57,1,0
15302,-100,4,2,1,57,0,0
15540,652.173913043478,4,2,1,57,1,0
15703,-100,4,2,99,100,0,0
19286,674.157303370787,7,2,1,30,1,0
19286,-100,7,2,1,30,0,0
20297,584.225900681597,7,2,1,30,1,0
20297,-100,7,2,1,30,0,0
20881,638.297872340426,7,2,1,30,1,0
23754,638.297872340426,6,2,1,30,1,0
23754,-100,7,2,1,30,0,0
25668,697.674418604652,6,2,1,30,1,0
25668,-100,7,2,1,30,0,0
27063,638.297872340426,6,2,1,30,1,0
27063,-100,7,2,1,30,0,0
27701,649.350649350649,6,2,1,30,1,0
27701,-100,7,2,1,30,0,0
31605,625,4,2,1,30,1,0
36564,586.682311528307,3,2,1,47,1,0
36564,-100,3,2,1,47,0,0
37444,-100,3,2,1,19,0,0
37590,-100,3,2,1,47,0,0
39204,-100,3,2,1,19,0,0
39350,-100,3,2,1,47,0,0
40964,-100,3,2,1,19,0,0
41110,-100,3,2,1,47,0,0
42724,-100,3,2,1,19,0,0
42870,-100,3,2,1,47,0,0
44484,-100,3,2,1,19,0,0
44630,-100,3,2,1,47,0,0
50057,711.997152011392,3,2,1,47,1,0
50414,550.45871559633,3,2,1,47,1,0
50690,586.682311528307,3,2,2,52,1,0
53916,586.682311528307,3,2,2,52,1,0
57142,586.682311528307,3,2,2,52,1,0
60368,586.682311528307,3,2,2,48,1,0
62714,-100,3,2,2,52,0,0
63008,-100,3,2,2,56,0,0
63301,-100,3,2,2,60,0,0
63594,-100,3,2,2,64,0,0
63888,899.550224887556,4,2,2,30,1,0
63888,-100,4,2,2,30,0,0
68048,600,4,2,1,30,1,0
68348,-100,4,2,1,30,0,0
70148,743.494423791822,4,2,1,30,1,0
70706,606.060606060606,4,2,1,30,1,0
70857,697.674418604651,4,2,1,30,1,0
71032,586.682311528307,3,2,2,43,1,0
71032,-100,3,2,2,43,0,0
74258,586.682311528307,3,2,2,43,1,0
74258,-100,3,2,2,43,0,0
77484,586.682311528307,3,2,2,43,1,0
77484,-100,3,2,2,43,0,0
80710,586.682311528307,3,2,2,43,1,0
80710,-100,3,2,2,43,0,0
82470,612.244897959184,3,2,2,46,1,0
82470,-100,3,2,2,46,0,0
82777,526.315789473684,3,2,1,30,1,0
83040,645.161290322581,3,2,1,30,1,0
83040,-100,3,2,1,30,0,0
83362,571.428571428571,3,2,2,47,1,0
83362,-100,3,2,2,47,0,0
83933,586.854460093897,3,2,2,50,1,0
87160,586.854460093897,3,2,2,50,1,0
90387,586.854460093897,3,2,98,22,1,0
90533,-100,3,2,2,50,0,0
93614,586.854460093897,3,2,2,46,1,0
95961,629.987400251995,3,2,2,30,1,0
96275,575.594781273983,3,2,1,70,1,0
96418,415.973377703827,3,2,2,30,1,0
96625,549.249359209081,3,2,1,46,1,0
96899,604.59492140266,3,2,2,37,1,0
96899,-100,3,2,2,37,0,0
97352,494.886176179479,3,2,2,37,1,0
97475,586.854460093897,3,2,2,37,1,0
97475,-100,3,2,2,37,0,0
100116,586.854460093897,3,2,2,37,1,0
100116,-100,3,2,2,37,0,0
103343,586.854460093897,3,2,2,46,1,0
103343,-100,3,2,2,46,0,0
106570,586.854460093897,3,2,2,46,1,0
109797,586.854460093897,3,2,2,30,1,0
111264,586.854460093897,3,2,1,30,1,0
112731,586.854460093897,3,2,1,30,1,0
116252,-100,3,2,98,45,0,0
116398,-100,3,2,2,45,0,0
119816,586.854460093897,3,2,98,45,1,0
120109,-100,3,2,1,45,0,0
123337,-100,3,2,2,52,0,1
136561,636.672325976231,3,2,2,52,1,1
136879,575.594781273983,3,2,2,52,1,1
137165,591.715976331361,3,2,1,52,1,1
137460,-100,3,2,2,61,0,0
139531,-100,3,2,2,20,0,0
139827,586.854460093897,3,2,1,20,1,0

[Colours]
Combo1 : 221,202,202
Combo2 : 189,245,175
Combo3 : 202,249,226
Combo4 : 247,224,155

[HitObjects]
69,187,19286,6,0,P|128:177|261:189,1,170,0|0,0:0|0:0,0:0:0:0:
307,252,20297,2,0,P|333:192|276:95,1,170,0|0,0:0|0:0,0:0:0:0:
193,96,21200,2,0,L|196:0,1,85,0|0,0:0|0:0,0:0:0:0:
102,17,21838,2,0,L|99:101,1,85,0|0,0:0|0:0,0:0:0:0:
96,194,22476,2,0,L|93:278,1,85
88,366,23115,1,0,0:0:0:0:
274,314,23754,6,0,P|351:304|461:323,1,170,0|0,0:0|0:0,0:0:0:0:
504,140,25030,2,0,L|500:46,1,85,0|0,0:0|0:0,0:0:0:0:
411,25,25668,2,0,P|356:54|236:35,1,170,0|0,0:0|0:0,0:0:0:0:
166,5,26714,1,0,0:0:0:0:
84,67,27063,2,0,L|72:170,1,85,0|0,0:0|0:0,0:0:0:0:
56,241,27701,6,0,B|147:264|220:240|220:240|296:212|425:260,1,340,0|0,0:0|0:0,0:0:0:0:
455,315,29324,1,0,0:0:0:0:
483,225,29649,2,0,B|509:152|473:-1|361:-4|319:89|361:145,1,340,0|0,0:0|0:0,0:0:0:0:
256,192,31605,12,0,36564,0:0:0:0:
326,78,37737,5,0,0:0:0:0:
135,150,38324,2,0,L|141:270,1,85,2|0,0:0|0:0,0:0:0:0:
90,324,38910,2,0,P|152:334|239:267,1,170,0|0,0:0|0:0,0:0:0:0:
300,196,39790,1,0,0:0:0:0:
368,271,40084,6,0,L|473:268,1,85,2|0,0:0|0:0,0:0:0:0:
493,175,40670,2,0,P|510:107|469:7,1,170,0|0,0:0|0:0,0:0:0:0:
294,109,41844,1,2,0:0:0:0:
209,52,42137,2,0,L|107:50,1,85,0|0,0:0|0:0,0:0:0:0:
38,106,42724,2,0,P|41:172|46:208,1,85,2|0,0:0|0:0,0:0:0:0:
50,292,43310,1,0,0:0:0:0:
136,236,43604,6,0,P|207:213|324:227,1,170,10|8,0:0|0:0,0:0:0:0:
390,267,44484,1,10,0:0:0:0:
480,314,44777,2,0,L|494:131,1,170,0|8,0:0|0:0,0:0:0:0:
311,50,45950,2,0,B|216:71|219:8|123:52,1,170,8|0,0:0|0:0,0:0:0:0:
50,83,46830,1,0,0:0:0:0:
48,185,47124,1,2,0:0:0:0:
203,316,47710,2,0,L|225:212,2,85,0|0|0,0:0|0:0|0:0,0:0:0:0:
1,349,48884,6,0,P|-6:274|32:178,1,170,0|0,0:0|0:0,0:0:0:0:
183,56,50057,1,0,0:0:0:0:
402,70,50690,6,0,L|385:242,1,170,10|0,0:0|0:0,0:0:0:0:
351,335,51570,2,0,P|416:335|454:321,2,85,8|0|0,0:0|0:0|0:0,0:0:0:0:
275,265,52450,2,0,P|201:258|104:308,1,170,10|0,0:0|0:0,0:0:0:0:
29,351,53330,1,8,0:0:0:0:
29,249,53623,1,8,0:0:0:0:
30,147,53916,6,0,B|114:129|112:188|236:140,1,170,10|8,0:0|0:0,0:0:0:0:
256,69,54796,2,0,P|287:108|255:242,1,170,8|0,0:0|0:0,0:0:0:0:
199,289,55676,2,0,L|397:276,1,170,10|0,0:0|0:0,0:0:0:0:
456,329,56556,1,8,0:0:0:0:
456,227,56849,1,8,0:0:0:0:
453,125,57142,6,0,B|395:82|395:82|276:86,1,170,10|0,0:0|0:0,0:0:0:0:
197,105,58022,2,0,L|187:16,2,85,8|0|8,0:0|0:0|0:0,0:0:0:0:
138,189,58902,2,0,P|44:189|-27:124,2,170,10|8|0,0:0|0:0|0:0,0:0:0:0:
197,105,60368,1,10,0:0:0:0:
501,136,61248,2,0,P|504:223|486:320,1,170,10|0,0:0|0:0,0:0:0:0:
396,343,62128,6,0,L|293:331,1,85,10|0,0:0|0:0,0:0:0:0:
211,315,62714,1,2,0:0:0:0:
109,301,63008,2,0,L|108:207,1,85,2|2,0:0|0:0,0:0:0:0:
108,114,63594,6,0,L|108:44,2,42.5,10|2|10,0:0|0:0|0:0,0:0:0:0:
183,147,70705,5,0,0:0:0:0:
88,84,71032,2,0,P|68:147|119:244,1,170,4|0,0:0|0:0,0:0:0:0:
201,282,71912,2,0,L|187:370,2,85,0|0|0,0:0|0:0|0:0,0:0:0:0:
279,216,72792,2,0,P|376:202|445:238,1,170,4|0,0:0|0:0,0:0:0:0:
503,310,73672,1,0,0:0:0:0:
426,377,73965,1,0,0:0:0:0:
328,345,74258,6,0,L|150:349,1,170,4|0,0:0|0:0,0:0:0:0:
73,291,75138,2,0,P|57:348|66:380,2,85,0|0|0,0:0|0:0|0:0,0:0:0:0:
137,211,76018,2,0,P|153:144|120:38,1,170,4|0,0:0|0:0,0:0:0:0:
266,197,77191,1,0,0:0:0:0:
322,111,77484,6,0,P|414:109|461:122,1,127.5,4|0,0:0|0:0,0:0:0:0:
460,166,78070,2,0,L|471:264,1,85,0|4,0:0|0:0,0:0:0:0:
449,350,78657,1,0,0:0:0:0:
352,318,78950,1,0,0:0:0:0:
254,349,79244,2,0,B|209:330|195:364|112:337,1,127.5,0|0,0:0|0:0,0:0:0:0:
88,309,79830,1,4,0:0:0:0:
128,108,80417,1,4,0:0:0:0:
215,160,80710,6,0,L|314:160,2,85,4|0|0,0:0|0:0|0:0,0:0:0:0:
127,212,81590,2,0,L|42:212,2,85,4|0|4,0:0|0:0|0:0,0:0:0:0:
202,274,82470,2,0,B|285:270|285:270|322:277|322:277|463:270,1,247.5,4|0,0:0|0:0,0:0:0:0:
498,181,83647,1,8,0:0:0:0:
460,89,83933,6,0,P|378:71|284:92,1,170,12|4,0:0|0:0,0:0:0:0:
195,113,84813,2,0,P|196:60|217:17,2,85,8|0|4,0:0|0:0|0:0,0:0:0:0:
272,179,85693,2,0,B|291:240|291:240|271:361,1,170,8|0,0:0|0:0,0:0:0:0:
172,359,86573,1,8,0:0:0:0:
100,285,86867,1,4,0:0:0:0:
36,364,87160,6,0,L|40:185,1,170,4|4,0:0|0:0,0:0:0:0:
81,99,88040,2,0,P|23:92|-9:104,2,85,8|0|4,0:0|0:0|0:0,0:0:0:0:
159,164,88920,2,0,P|255:174|353:142,1,170,8|4,0:0|0:0,0:0:0:0:
360,60,89800,1,8,0:0:0:0:
431,132,90094,1,0,0:0:0:0:
495,210,90387,6,0,B|497:282|497:282|470:380,1,170,4|4,0:0|0:0,0:0:0:0:
370,356,91267,1,8,0:0:0:0:
278,312,91560,2,0,L|212:325,2,42.5,4|4|8,0:0|0:0|0:0,0:0:0:0:
327,222,92147,2,0,P|333:142|300:71,1,127.5,0|0,0:0|0:0,0:0:0:0:
271,77,92734,2,0,L|266:11,2,42.5,6|2|10,0:0|0:0|0:0,0:0:0:0:
188,137,93321,6,0,L|121:134,1,42.5,10|0,0:0|0:0,0:0:0:0:
95,144,93614,2,0,P|80:96|93:46,2,85,4|0|4,0:0|0:0|0:0,0:0:0:0:
136,237,94494,2,0,P|140:278|126:318,2,85,8|0|4,0:0|0:0|0:0,0:0:0:0:
233,268,95374,6,0,P|352:272|311:155,1,261,8|4,0:0|0:0,0:0:0:0:
166,35,96899,6,0,L|321:33,1,127.5,0|0,0:0|0:0,0:0:0:0:
321,65,97475,1,0,0:0:0:0:
421,79,97768,2,0,P|416:36|389:-7,2,85,8|0|0,0:0|0:0|0:0,0:0:0:0:
356,158,98648,1,4,0:0:0:0:
430,212,98942,2,0,P|454:275|406:377,1,170,0|8,0:0|0:0,0:0:0:0:
318,347,99822,1,0,0:0:0:0:
223,308,100115,6,0,L|29:310,2,170,4|4|0,0:0|0:0|0:0,0:0:0:0:
254,210,101583,1,8,0:0:0:0:
197,125,101876,1,4,0:0:0:0:
263,47,102169,2,0,P|346:35|447:37,1,170,0|8,0:0|0:0,0:0:0:0:
469,130,103050,1,8,0:0:0:0:
447,332,103636,6,0,P|397:336|334:329,1,85,0|0,0:0|0:0,0:0:0:0:
312,244,104223,2,0,P|252:228|128:239,1,170,8|0,0:0|0:0,0:0:0:0:
112,330,105103,1,6,0:0:0:0:
12,329,105396,2,0,P|20:287|44:253,1,85,0|0,0:0|0:0,0:0:0:0:
145,233,105983,2,0,L|132:41,1,170,8|6,0:0|0:0,0:0:0:0:
234,47,106863,6,0,L|347:39,1,85,0|0,0:0|0:0,0:0:0:0:
406,92,107450,2,0,L|490:98,2,85,8|0|0,0:0|0:0|0:0,0:0:0:0:
256,192,108330,12,6,109797,0:0:0:0:
259,192,116252,5,4,0:0:0:0:
259,192,119186,2,0,P|249:101|250:97,1,85,0|0,0:0|0:0,0:0:0:0:
324,20,119816,6,0,P|267:52|152:23,1,170,4|0,0:0|0:0,0:0:0:0:
69,6,120696,2,0,L|61:109,1,85,0|0,0:0|0:0,0:0:0:0:
146,148,121283,1,0,0:0:0:0:
68,213,121576,2,0,P|48:282|74:381,2,170,0|0|0,0:0|3:0|0:0,0:0:0:0:
146,148,123043,1,0,0:0:0:0:
230,206,123337,6,0,P|321:214|421:176,1,170,6|4,0:0|0:0,0:0:0:0:
476,129,124217,2,0,P|497:184|444:283,1,170,10|4,0:0|0:0,0:0:0:0:
362,330,125097,2,0,L|226:325,1,127.5,6|8,0:0|0:0,0:0:0:0:
190,299,125684,2,0,L|185:239,1,42.5,0|0,0:0|0:0,0:0:0:0:
183,205,125977,1,10,0:0:0:0:
82,27,126564,1,4,0:0:0:0:
172,74,126858,6,0,P|261:88|322:73,1,127.5,6|0,0:0|0:0,0:0:0:0:
341,56,127445,1,8,0:0:0:0:
428,107,127738,2,0,P|438:32|433:12,2,85,4|8|8,0:0|0:0|0:0,0:0:0:0:
346,168,128618,2,0,P|339:252|383:344,1,170,6|8,0:0|0:0,0:0:0:0:
277,371,129499,2,0,P|228:373|177:361,1,85,6|0,0:0|0:0,0:0:0:0:
111,305,130085,1,0,0:0:0:0:
187,237,130379,6,0,P|237:140|229:64,1,170,14|4,0:0|0:0,0:0:0:0:
159,12,131259,2,0,P|261:54|343:29,1,170,10|8,0:0|0:0,0:0:0:0:
415,16,132139,2,0,P|417:92|419:167,1,127.5,10|0,0:0|0:0,0:0:0:0:
419,194,132726,2,0,P|418:223|420:267,1,42.5,4|0,0:0|0:0,0:0:0:0:
421,287,133020,1,10,0:0:0:0:
232,364,133607,1,8,0:0:0:0:
171,281,133900,6,0,P|99:271|58:274,2,85,14|0|0,0:0|0:0|0:0,0:0:0:0:
268,249,134780,1,10,0:0:0:0:
265,146,135074,2,0,P|269:90|273:46,1,85,8|8,0:0|0:0,0:0:0:0:
363,15,135661,6,0,P|435:5|476:8,2,85,14|0|0,0:0|0:0|0:0,0:0:0:0:
271,61,136561,2,0,P|224:68|153:58,1,85,10|4,0:0|0:0,0:0:0:0:
96,38,137165,1,8,0:0:0:0:
40,121,137460,1,8,0:0:0:0:
81,251,139827,6,0,P|179:270|262:240,1,170,0|0,0:0|0:0,0:0:0:0:
312,174,140707,1,0,0:0:0:0:
510,222,141294,2,0,L|502:313,2,85,0|0|0,0:0|0:0|0:0,0:0:0:0:
443,144,142174,1,0,0:0:0:0:
483,50,142467,1,0,0:0:0:0:
