osu file format v14

[General]
AudioFilename: audio.mp3
AudioLeadIn: 0
PreviewTime: 70589
Countdown: 1
SampleSet: Soft
StackLeniency: 0.7
Mode: 0
LetterboxInBreaks: 0
WidescreenStoryboard: 1

[Editor]
Bookmarks: 2642,15703,19286,36564,50690,63888,71032
DistanceSpacing: 0.5
BeatDivisor: 8
GridSize: 32
TimelineZoom: 3.499998

[Metadata]
Title:Utau Oka~Harmonics FRELIA~
TitleUnicode:謳う丘~Harmonics FRELIA~
Artist:Shikata Akiko
ArtistUnicode:志方あきこ
Creator:Mir
Version:Easy
Source:アルトネリコ2 ~世界に響く少女たちの創造詩~
Tags:Shurelia Ar Tonelico II Sekai ni Hibiku Shoujo-tachi no Metafalica Melody of Cloche Leythal Pastalia Luca Trulyworth Frelia Jacqli Hymn Visual Novel Gust NIS RPG Daisuke Achiwa best game opening
BeatmapID:1462870
BeatmapSetID:691226

[Difficulty]
HPDrainRate:2
CircleSize:2.5
OverallDifficulty:2
ApproachRate:2
SliderMultiplier:1.2
SliderTickRate:1

[Events]
//Background and Video events
0,0,"artonelico2.jpg",0,0
//Break Periods
2,64088,69472
2,109997,114692
//Storyboard Layer 0 (Background)
//Storyboard Layer 1 (Fail)
//Storyboard Layer 2 (Pass)
//Storyboard Layer 3 (Foreground)
//Storyboard Sound Samples

[TimingPoints]
2642,1304.34782608696,4,2,1,30,1,0
7859,1224.48979591837,4,2,1,32,1,0
12012,1250,4,2,1,30,1,0
12637,975.609756097561,4,2,1,35,1,0
14588,1428.57142857143,4,2,1,54,1,0
15302,952.380952380952,4,2,1,57,1,0
15302,-100,4,2,1,57,0,0
15540,652.173913043478,4,2,1,57,1,0
15703,-100,4,2,99,100,0,0
19286,674.157303370787,7,2,1,30,1,0
19286,-100,7,2,1,30,0,0
20297,584.225900681597,7,2,1,30,1,0
20297,-100,7,2,1,30,0,0
20881,638.297872340426,7,2,1,30,1,0
23754,638.297872340426,6,2,1,30,1,0
23754,-100,7,2,1,30,0,0
25668,697.674418604652,6,2,1,30,1,0
25668,-100,7,2,1,30,0,0
27063,638.297872340426,6,2,1,30,1,0
27063,-100,7,2,1,30,0,0
27701,649.350649350649,6,2,1,30,1,0
27701,-100,7,2,1,30,0,0
31605,625,4,2,1,30,1,0
36564,586.682311528307,3,2,1,47,1,0
36564,-100,3,2,1,47,0,0
37444,-100,3,2,1,19,0,0
37590,-100,3,2,1,47,0,0
39204,-100,3,2,1,19,0,0
39350,-100,3,2,1,47,0,0
40964,-100,3,2,1,19,0,0
41110,-100,3,2,1,47,0,0
42724,-100,3,2,1,19,0,0
42870,-100,3,2,1,47,0,0
44484,-100,3,2,1,19,0,0
44630,-100,3,2,1,47,0,0
50057,711.997152011392,3,2,1,47,1,0
50414,550.45871559633,3,2,1,47,1,0
50690,586.682311528307,3,2,2,52,1,0
53916,586.682311528307,3,2,2,52,1,0
57142,586.682311528307,3,2,2,52,1,0
60368,586.682311528307,3,2,2,48,1,0
62714,-100,3,2,2,52,0,0
63008,-100,3,2,2,56,0,0
63301,-100,3,2,2,60,0,0
63594,-100,3,2,2,64,0,0
63888,899.550224887556,4,2,2,30,1,0
63888,-100,4,2,2,30,0,0
68048,600,4,2,1,30,1,0
68348,-100,4,2,1,30,0,0
70148,743.494423791822,4,2,1,30,1,0
70706,606.060606060606,4,2,1,30,1,0
70857,697.674418604651,4,2,1,30,1,0
71032,586.682311528307,3,2,2,43,1,0
71032,-100,3,2,2,43,0,0
74258,586.682311528307,3,2,2,43,1,0
74258,-100,3,2,2,43,0,0
77484,586.682311528307,3,2,2,43,1,0
77484,-100,3,2,2,43,0,0
80710,586.682311528307,3,2,2,43,1,0
80710,-100,3,2,2,43,0,0
82470,612.244897959184,3,2,2,46,1,0
82470,-100,3,2,2,46,0,0
82777,526.315789473684,3,2,1,30,1,0
83040,645.161290322581,3,2,1,30,1,0
83040,-100,3,2,1,30,0,0
83362,571.428571428571,3,2,2,47,1,0
83362,-100,3,2,2,47,0,0
83933,586.854460093897,3,2,2,50,1,0
87160,586.854460093897,3,2,2,50,1,0
90387,586.854460093897,3,2,98,22,1,0
90533,-100,3,2,2,50,0,0
93614,586.854460093897,3,2,2,46,1,0
95961,629.987400251995,3,2,2,30,1,0
96275,575.594781273983,3,2,1,70,1,0
96418,415.973377703827,3,2,2,30,1,0
96625,549.249359209081,3,2,1,46,1,0
96899,604.59492140266,3,2,2,37,1,0
96899,-100,3,2,2,37,0,0
97352,494.886176179479,3,2,2,37,1,0
97475,586.854460093897,3,2,2,37,1,0
97475,-100,3,2,2,37,0,0
100116,586.854460093897,3,2,2,37,1,0
100116,-100,3,2,2,37,0,0
103343,586.854460093897,3,2,2,46,1,0
103343,-100,3,2,2,46,0,0
106570,586.854460093897,3,2,2,46,1,0
109797,586.854460093897,3,2,2,30,1,0
111264,586.854460093897,3,2,1,30,1,0
112731,586.854460093897,3,2,1,30,1,0
116252,-100,3,2,98,45,0,0
116398,-100,3,2,2,45,0,0
119816,586.854460093897,3,2,98,45,1,0
120109,-100,3,2,1,45,0,0
123337,-100,3,2,2,52,0,1
136561,636.672325976231,3,2,2,52,1,1
136879,575.594781273983,3,2,2,52,1,1
137165,591.715976331361,3,2,1,52,1,1
137460,-100,3,2,2,61,0,0
139531,-100,3,2,2,20,0,0
139827,586.854460093897,3,2,1,20,1,0

[Colours]
Combo1 : 221,202,202
Combo2 : 189,245,175
Combo3 : 202,249,226
Combo4 : 247,224,155

[HitObjects]
17,114,19286,6,0,P|85:108|114:109,1,89.9999999999999,0|0,0:0|0:0,0:0:0:0:
199,155,20297,2,0,L|296:154,1,89.9999999999999,0|0,0:0|0:0,0:0:0:0:
376,96,21200,6,0,P|387:137|371:221,2,120,0|0|0,0:0|0:0|0:0,0:0:0:0:
255,16,23115,1,0,0:0:0:0:
117,57,23754,2,0,L|112:185,1,120,0|0,0:0|0:0,0:0:0:0:
47,303,25030,1,0,0:0:0:0:
166,359,25668,2,0,P|252:358|298:346,1,120,0|0,0:0|0:0,0:0:0:0:
418,266,27063,1,0,0:0:0:0:
412,124,27701,6,0,B|292:87|303:167|165:125,1,240,0|0,0:0|0:0,0:0:0:0:
60,42,29649,2,0,P|58:147|56:288,1,240,0|0,0:0|0:0,0:0:0:0:
256,192,31605,12,0,36637,0:0:0:0:
431,88,38324,5,2,0:0:0:0:
320,41,38910,2,0,P|262:36|192:40,1,120,0|0,0:0|0:0,0:0:0:0:
84,70,40084,2,0,L|94:199,1,120,2|0,0:0|0:0,0:0:0:0:
28,290,41257,1,0,0:0:0:0:
130,352,41844,6,0,P|227:342|271:340,1,120,2|0,0:0|0:0,0:0:0:0:
332,253,43017,1,0,0:0:0:0:
452,256,43604,2,0,P|466:313|459:380,2,120,10|8|0,0:0|0:0|0:0,0:0:0:0:
402,146,45364,1,8,0:0:0:0:
293,196,45950,6,0,P|194:210|161:199,1,120,8|0,0:0|0:0,0:0:0:0:
120,98,47124,2,0,P|21:84|-12:95,1,120,2|0,0:0|0:0,0:0:0:0:
7,208,48297,2,0,L|18:336,1,120,0|0,0:0|0:0,0:0:0:0:
128,373,49471,1,0,0:0:0:0:
215,291,50057,1,0,0:0:0:0:
337,334,50690,6,0,P|421:323|469:298,1,120,10|0,0:0|0:0,0:0:0:0:
502,199,51863,1,0,0:0:0:0:
420,110,52450,2,0,L|181:114,1,240,10|8,0:0|0:0,0:0:0:0:
128,83,53916,6,0,P|145:163|129:224,1,120,10|8,0:0|0:0,0:0:0:0:
77,303,55089,1,0,0:0:0:0:
14,200,55676,2,0,P|8:140|24:83,2,120,10|0|8,0:0|0:0|0:0,0:0:0:0:
73,208,57142,6,0,L|264:203,1,180,10|8,0:0|0:0,0:0:0:0:
339,120,58608,1,8,0:0:0:0:
375,167,58902,2,0,L|366:291,2,120,10|8|0,0:0|0:0|0:0,0:0:0:0:
397,49,60661,5,8,0:0:0:0:
279,75,61248,2,0,P|220:77|152:45,1,120,10|0,0:0|0:0,0:0:0:0:
107,74,62128,2,0,P|88:135|104:206,1,120,10|2,0:0|0:0,0:0:0:0:
119,244,63008,1,2,0:0:0:0:
224,193,63888,5,10,0:0:0:0:
84,93,71032,6,0,P|156:71|219:83,1,120,4|0,0:0|0:0,0:0:0:0:
245,115,71912,1,0,0:0:0:0:
419,70,72792,2,0,L|416:263,1,180,4|0,0:0|0:0,0:0:0:0:
351,350,74258,6,0,P|281:345|216:311,1,120,4|0,0:0|0:0,0:0:0:0:
197,278,75138,1,0,0:0:0:0:
72,297,75724,1,0,0:0:0:0:
27,256,76018,2,0,L|32:120,1,120,4|0,0:0|0:0,0:0:0:0:
56,81,76898,1,0,0:0:0:0:
171,112,77484,6,0,P|271:124|314:114,1,120,4|0,0:0|0:0,0:0:0:0:
339,89,78364,1,4,0:0:0:0:
458,80,78950,1,0,0:0:0:0:
496,126,79244,2,0,P|506:177|491:261,1,120,0|4,0:0|0:0,0:0:0:0:
334,321,80710,6,0,L|206:318,1,120,4|0,0:0|0:0,0:0:0:0:
154,322,81590,2,0,P|148:264|147:190,1,120,4|4,0:0|0:0,0:0:0:0:
181,156,82470,1,4,0:0:0:0:
55,60,83362,1,0,0:0:0:0:
166,25,83933,6,0,L|307:24,1,120,12|4,0:0|0:0,0:0:0:0:
346,24,84813,1,8,0:0:0:0:
486,136,85693,2,0,P|488:200|480:268,1,120,8|0,0:0|0:0,0:0:0:0:
457,310,86573,1,8,0:0:0:0:
345,264,87160,6,0,P|255:254|211:267,1,120,4|4,0:0|0:0,0:0:0:0:
182,300,88040,1,8,0:0:0:0:
12,361,88920,2,0,L|10:228,1,120,8|4,0:0|0:0,0:0:0:0:
45,192,89800,1,8,0:0:0:0:
159,154,90387,6,0,P|237:155|298:135,1,120,4|4,0:0|0:0,0:0:0:0:
327,111,91267,1,8,0:0:0:0:
431,52,91854,1,8,0:0:0:0:
382,16,92147,2,0,L|195:15,1,180,0|10,0:0|0:0,0:0:0:0:
94,34,93614,6,0,P|50:94|46:148,1,120,4|4,0:0|0:0,0:0:0:0:
78,187,94494,2,0,L|66:312,1,120,8|4,0:0|0:0,0:0:0:0:
23,348,95374,1,8,0:0:0:0:
325,353,96899,6,0,L|337:221,1,114.5,0|0,0:0|0:0,0:0:0:0:
318,181,97768,1,8,0:0:0:0:
419,32,98648,2,0,L|229:32,1,180,4|8,0:0|0:0,0:0:0:0:
152,115,100116,6,0,B|135:59|135:59|143:-13,2,120,4|4|0,0:0|0:0|0:0,0:0:0:0:
210,219,101876,1,4,0:0:0:0:
263,246,102169,2,0,P|321:256|381:251,1,120,0|8,0:0|0:0,0:0:0:0:
441,355,103343,6,0,L|236:360,2,180,6|8|6,0:0|0:0|0:0,0:0:0:0:
509,188,105983,2,0,P|496:145|432:80,1,120,8|6,0:0|0:0,0:0:0:0:
268,107,107450,2,0,P|185:125|140:118,1,120,8|0,0:0|0:0,0:0:0:0:
115,72,108330,2,0,L|123:266,1,180,6|4,0:0|0:0,0:0:0:0:
132,371,109797,5,6,0:0:0:0:
255,192,116252,5,4,0:0:0:0:
256,192,119773,12,0,122163,0:0:0:0:
422,103,123337,6,0,P|349:90|286:102,1,120,6|4,0:0|0:0,0:0:0:0:
248,119,124217,2,0,L|117:115,1,120,10|4,0:0|0:0,0:0:0:0:
82,76,125097,1,6,0:0:0:0:
49,191,125684,2,0,L|35:269,2,60,0|10|8,0:0|0:0|0:0,0:0:0:0:
154,249,126858,6,0,L|285:245,1,120,6|8,0:0|0:0,0:0:0:0:
323,278,127738,1,4,0:0:0:0:
493,334,128618,2,0,P|506:255|490:197,1,120,6|8,0:0|0:0,0:0:0:0:
486,157,129499,1,6,0:0:0:0:
445,44,130085,1,0,0:0:0:0:
395,77,130379,6,0,P|306:102|260:96,1,120,14|4,0:0|0:0,0:0:0:0:
233,61,131259,2,0,L|106:62,1,120,10|8,0:0|0:0,0:0:0:0:
58,88,132139,1,10,0:0:0:0:
126,186,132726,2,0,L|196:187,2,60,4|10|8,0:0|0:0|0:0,0:0:0:0:
75,295,133900,6,0,P|205:317|214:315,1,120,14|0,0:0|0:0,0:0:0:0:
245,295,134780,1,10,0:0:0:0:
417,243,135661,2,0,L|425:309,2,60,14|0|0,0:0|0:0|0:0,0:0:0:0:
446,191,136561,1,10,0:0:0:0:
397,78,137165,6,0,L|319:72,1,60,8|8,0:0|0:0,0:0:0:0:
106,117,139827,6,0,P|204:102|239:103,1,120,0|0,0:0|0:0,0:0:0:0:
275,133,140707,1,0,0:0:0:0:
411,161,141294,2,0,L|422:81,2,60,0|0|0,0:0|0:0|0:0,0:0:0:0:
448,208,142174,2,0,L|456:267,1,60,0|0,0:0|0:0,0:0:0:0:
