osu file format v14

[General]
AudioFilename: audio.mp3
AudioLeadIn: 0
PreviewTime: 70589
Countdown: 1
SampleSet: Soft
StackLeniency: 0.6
Mode: 0
LetterboxInBreaks: 0
WidescreenStoryboard: 1

[Editor]
Bookmarks: 2642,15703,19286,36564,50690,63888,71032,93027
DistanceSpacing: 1.3
BeatDivisor: 4
GridSize: 32
TimelineZoom: 2.4

[Metadata]
Title:Utau Oka~Harmonics FRELIA~
TitleUnicode:謳う丘~Harmonics FRELIA~
Artist:Shikata Akiko
ArtistUnicode:志方あきこ
Creator:Mir
Version:Shurelia's Hard
Source:アルトネリコ2 ~世界に響く少女たちの創造詩~
Tags:Shurelia Ar Tonelico II Sekai ni Hibiku Shoujo-tachi no Metafalica Melody of Cloche Leythal Pastalia Luca Trulyworth Frelia Jacqli Hymn Visual Novel Gust NIS RPG Daisuke Achiwa best game opening
BeatmapID:1464722
BeatmapSetID:691226

[Difficulty]
HPDrainRate:4
CircleSize:4
OverallDifficulty:5
ApproachRate:8
SliderMultiplier:2.1
SliderTickRate:1

[Events]
//Background and Video events
0,0,"artonelico2.jpg",0,0
//Break Periods
2,109997,115502
//Storyboard Layer 0 (Background)
//Storyboard Layer 1 (Fail)
//Storyboard Layer 2 (Pass)
//Storyboard Layer 3 (Foreground)
//Storyboard Sound Samples

[TimingPoints]
2642,1304.34782608696,4,2,1,30,1,0
7859,1224.48979591837,4,2,1,32,1,0
12012,1250,4,2,1,30,1,0
12637,975.609756097561,4,2,1,35,1,0
14588,1428.57142857143,4,2,1,54,1,0
15302,952.380952380952,4,2,1,57,1,0
15302,-66.6666666666667,4,2,1,57,0,0
15540,652.173913043478,4,2,1,57,1,0
15703,-100,4,2,99,100,0,0
19286,674.157303370787,7,2,1,30,1,0
19286,-200,7,2,1,30,0,0
20297,584.225900681597,7,2,1,30,1,0
20297,-200,7,2,1,30,0,0
20881,638.297872340426,7,2,1,30,1,0
20881,-200,7,2,1,30,0,0
23754,638.297872340426,6,2,1,30,1,0
23754,-200,7,2,1,30,0,0
25668,697.674418604652,6,2,1,30,1,0
25668,-200,7,2,1,30,0,0
27063,638.297872340426,6,2,1,30,1,0
27063,-200,7,2,1,30,0,0
27701,649.350649350649,6,2,1,30,1,0
27701,-200,7,2,1,30,0,0
31605,625,4,2,1,30,1,0
36564,586.682311528307,3,2,1,47,1,0
36564,-90.9090909090909,3,2,1,47,0,0
37444,-90.9090909090909,3,2,1,19,0,0
37590,-90.9090909090909,3,2,1,47,0,0
39204,-90.9090909090909,3,2,1,19,0,0
39350,-90.9090909090909,3,2,1,47,0,0
40964,-90.9090909090909,3,2,1,19,0,0
41110,-90.9090909090909,3,2,1,47,0,0
42724,-90.9090909090909,3,2,1,19,0,0
42870,-90.9090909090909,3,2,1,47,0,0
44484,-90.9090909090909,3,2,1,19,0,0
44630,-90.9090909090909,3,2,1,47,0,0
50057,711.997152011392,3,2,1,47,1,0
50414,550.45871559633,3,2,1,47,1,0
50690,586.682311528307,3,2,2,52,1,0
53916,586.682311528307,3,2,2,52,1,0
57142,586.682311528307,3,2,2,52,1,0
60368,586.682311528307,3,2,2,48,1,0
62714,-100,3,2,2,52,0,0
63008,-100,3,2,2,56,0,0
63301,-100,3,2,2,60,0,0
63594,-100,3,2,2,64,0,0
63888,899.550224887556,4,2,2,30,1,0
63888,-133.333333333333,4,2,2,30,0,0
68048,600,4,2,1,30,1,0
68048,-200,4,2,1,30,0,0
68348,-200,4,2,1,30,0,0
70148,743.494423791822,4,2,1,30,1,0
70706,606.060606060606,4,2,1,30,1,0
70857,697.674418604651,4,2,1,30,1,0
71032,586.682311528307,3,2,2,43,1,0
71032,-133.333333333333,3,2,2,43,0,0
74258,586.682311528307,3,2,2,43,1,0
74258,-133.333333333333,3,2,2,43,0,0
77484,586.682311528307,3,2,2,43,1,0
77484,-133.333333333333,3,2,2,43,0,0
80710,586.682311528307,3,2,2,43,1,0
80710,-133.333333333333,3,2,2,43,0,0
82470,612.244897959184,3,2,2,46,1,0
82470,-133.333333333333,3,2,2,46,0,0
82777,526.315789473684,3,2,1,30,1,0
83040,645.161290322581,3,2,1,30,1,0
83040,-133.333333333333,3,2,1,30,0,0
83362,571.428571428571,3,2,2,47,1,0
83362,-133.333333333333,3,2,2,47,0,0
83933,586.854460093897,3,2,2,50,1,0
87160,586.854460093897,3,2,2,50,1,0
90387,586.854460093897,3,2,98,22,1,0
90533,-100,3,2,2,50,0,0
93614,586.854460093897,3,2,2,46,1,0
95961,629.987400251995,3,2,2,30,1,0
96275,575.594781273983,3,2,1,100,1,0
96275,-55.5555555555556,3,2,1,70,0,0
96418,415.973377703827,3,2,2,30,1,0
96625,549.249359209081,3,2,1,46,1,0
96899,604.59492140266,3,2,2,37,1,0
96899,-133.333333333333,3,2,2,37,0,0
97352,494.886176179479,3,2,2,37,1,0
97475,586.854460093897,3,2,2,37,1,0
97475,-133.333333333333,3,2,2,37,0,0
100116,586.854460093897,3,2,2,37,1,0
100116,-133.333333333333,3,2,2,37,0,0
103343,586.854460093897,3,2,2,46,1,0
103343,-133.333333333333,3,2,2,46,0,0
106570,586.854460093897,3,2,2,46,1,0
109797,586.854460093897,3,2,2,30,1,0
111264,586.854460093897,3,2,1,30,1,0
112731,586.854460093897,3,2,1,30,1,0
116252,-100,3,2,98,45,0,0
116398,-100,3,2,2,45,0,0
119816,586.854460093897,3,2,98,45,1,0
120109,-100,3,2,1,45,0,0
122163,-76.9230769230769,3,2,1,45,0,0
123337,-83.3333333333333,3,2,2,52,0,1
136561,636.672325976231,3,2,2,52,1,1
136879,575.594781273983,3,2,2,52,1,1
137165,591.715976331361,3,2,1,52,1,1
137460,-100,3,2,2,61,0,0
139531,-100,3,2,2,20,0,0
139827,586.854460093897,3,2,1,20,1,0
139827,-166.666666666667,3,2,1,20,0,0

[Colours]
Combo1 : 247,224,155
Combo2 : 189,245,175
Combo3 : 202,249,226

[HitObjects]
190,185,2642,6,0,P|255:117|317:187,1,210,0|0,0:0|0:0,0:0:0:0:
317,303,4598,2,0,P|254:373|190:304,1,210,0|0,0:0|0:0,0:0:0:0:
190,185,6555,2,0,B|256:102|256:102|319:183,1,210,0|0,0:0|0:0,0:0:0:0:
319,184,8165,5,0,0:0:0:0:
190,185,8471,1,0,0:0:0:0:
256,32,8777,1,0,0:0:0:0:
256,326,9083,2,0,L|256:379,1,52.5,0|0,0:0|0:0,0:0:0:0:
160,285,9695,6,0,B|125:246|122:196|122:196|157:180|178:138|178:138|161:101|168:77|168:77|139:95|99:85,1,315,0|0,0:0|0:0,0:0:0:0:
99,84,12012,2,0,P|73:84|49:95,1,52.5,0|0,0:0|0:0,0:0:0:0:
20,201,12637,2,0,B|73:259|137:242|137:242|235:201|313:249,1,315,0|0,0:0|0:0,0:0:0:0:
313,249,14588,5,0,0:0:0:0:
450,189,14826,1,0,0:0:0:0:
313,128,15064,1,0,0:0:0:0:
425,70,15302,2,0,B|411:31|411:31|389:1,1,78.7500030040742
403,267,15703,5,6,0:0:0:0:
370,185,19286,6,0,P|324:207|272:205,1,105,0|0,0:0|0:0,0:0:0:0:
194,97,20297,2,0,L|203:148,1,52.5
173,228,20881,1,0,0:0:0:0:
245,343,21200,6,0,L|236:291,1,52.5
332,247,21838,2,0,L|340:298,1,52.5
245,343,22476,2,0,L|236:291,1,52.5
332,247,23114,2,0,L|340:298,1,52.5
213,361,23753,2,0,L|161:369,2,52.5
212,255,24711,1,0,0:0:0:0:
115,208,25030,6,0,P|117:181|112:156,1,52.5,0|0,0:0|0:0,0:0:0:0:
63,94,25668,2,0,P|112:113|162:100,1,105,0|0,0:0|0:0,0:0:0:0:
120,6,26714,1,0,0:0:0:0:
194,92,27063,2,0,P|219:87|245:90,1,52.5,0|0,0:0|0:0,0:0:0:0:
318,159,27701,6,0,P|294:81|363:123,1,210,0|0,0:0|0:0,0:0:0:0:
280,285,29649,2,0,B|273:282|240:320|240:320|325:331|384:275,1,210,0|0,0:0|0:0,0:0:0:0:
256,192,31605,12,0,35980,0:0:0:0:
274,45,36564,6,0,P|330:59|386:44,1,115.50000352478,6|0,0:0|0:0,0:0:0:0:
511,127,37150,2,0,L|506:242,1,115.50000352478,0|2,0:0|0:0,0:0:0:0:
425,370,37737,2,0,L|404:315,2,57.7500017623902,0|0|0,0:0|0:0|0:0,0:0:0:0:
461,213,38324,6,0,P|406:200|349:208,1,115.50000352478,2|0,0:0|0:0,0:0:0:0:
168,300,38910,2,0,P|223:313|280:305,1,115.50000352478,0|2,0:0|0:0,0:0:0:0:
225,186,39497,1,0,0:0:0:0:
159,148,39644,1,0,0:0:0:0:
124,81,39790,2,0,P|118:52|119:24,1,57.7500017623902
205,81,40084,6,0,P|261:70|317:84,1,115.50000352478,2|0,0:0|0:0,0:0:0:0:
469,172,40670,2,0,P|412:182|356:168,1,115.50000352478,0|2,0:0|0:0,0:0:0:0:
448,290,41257,2,0,P|449:318|442:346,2,57.7500017623902,0|0|0,0:0|0:0|0:0,0:0:0:0:
262,313,41844,6,0,P|206:327|151:313,1,115.50000352478,2|0,0:0|0:0,0:0:0:0:
0,227,42430,2,0,P|55:212|110:226,1,115.50000352478,0|2,0:0|0:0,0:0:0:0:
307,225,43017,2,0,P|335:220|363:225,1,57.7500017623902,0|0,0:0|0:0,0:0:0:0:
380,299,43310,1,0,0:0:0:0:
449,327,43457,1,0,0:0:0:0:
437,248,43604,6,0,P|439:219|436:190,1,57.7500017623902,10|8,0:0|0:0,0:0:0:0:
423,116,43897,1,8,0:0:0:0:
298,29,44190,2,0,P|270:28|241:32,2,57.7500017623902,8|8|10,0:0|0:0|0:0,0:0:0:0:
422,115,44777,2,0,P|367:134|310:133,1,115.50000352478,0|8,0:0|0:0,0:0:0:0:
117,108,45364,6,0,L|174:121,1,57.7500017623902,8|0,0:0|0:0,0:0:0:0:
238,158,45657,1,8,0:0:0:0:
369,229,45950,2,0,B|391:288|353:334|353:334|367:358|367:358|345:384,1,173.250005287171,8|0,0:0|0:0,0:0:0:0:
276,353,46537,1,0,0:0:0:0:
152,268,46830,1,0,0:0:0:0:
172,340,46977,1,0,0:0:0:0:
230,280,47124,6,0,P|227:252|218:224,1,57.7500017623902,2|0,0:0|0:0,0:0:0:0:
150,192,47417,1,0,0:0:0:0:
8,242,47710,2,0,P|11:270|20:298,2,57.7500017623902,0|0|0,0:0|0:0|0:0,0:0:0:0:
88,115,48297,1,0,0:0:0:0:
159,90,48444,1,0,0:0:0:0:
224,125,48590,2,0,L|280:127,1,57.7500017623902,0|0,0:0|0:0,0:0:0:0:
375,120,48884,6,0,P|327:146|320:201,1,115.50000352478,0|8,0:0|0:0,0:0:0:0:
345,284,49324,1,8,0:0:0:0:
433,301,49471,2,0,B|380:331|324:312|324:312|263:289|210:320,1,231.000007049561,0|0,0:0|0:0,0:0:0:0:
210,320,50414,1,0,0:0:0:0:
130,370,50551,1,0,0:0:0:0:
42,345,50690,6,0,P|63:269|43:194,1,157.5,10|0,0:0|0:0,0:0:0:0:
0,130,51276,1,0,0:0:0:0:
120,28,51570,1,8,0:0:0:0:
43,194,51863,1,0,0:0:0:0:
0,16,52156,1,0,0:0:0:0:
158,145,52450,2,0,L|315:148,1,157.5,10|0,0:0|0:0,0:0:0:0:
367,206,53036,2,0,P|355:257|363:308,1,105,0|8,0:0|0:0,0:0:0:0:
432,166,53623,1,8,0:0:0:0:
339,335,53916,6,0,P|263:351|188:331,1,157.5,10|0,0:0|0:0,0:0:0:0:
124,287,54502,1,8,0:0:0:0:
0,357,54796,1,8,0:0:0:0:
188,331,55089,1,0,0:0:0:0:
36,282,55382,2,0,P|21:262|11:237,1,52.5,0|0,0:0|0:0,0:0:0:0:
5,128,55676,6,0,B|63:107|105:134|105:134|158:169|204:139,1,210,10|0,0:0|0:0,0:0:0:0:
358,104,56556,1,8,0:0:0:0:
358,104,56849,2,0,L|343:53,1,52.5,8|0,0:0|0:0,0:0:0:0:
228,34,57142,6,0,P|151:19|77:42,1,157.5,10|0,0:0|0:0,0:0:0:0:
20,96,57728,1,0,0:0:0:0:
132,206,58022,1,8,0:0:0:0:
77,42,58315,1,0,0:0:0:0:
29,192,58608,1,8,0:0:0:0:
205,132,58902,2,0,L|353:80,1,157.5,10|0,0:0|0:0,0:0:0:0:
405,21,59488,2,0,B|378:89|378:89|391:172,1,157.5,8|0,0:0|0:0,0:0:0:0:
421,245,60075,2,0,L|411:296,1,52.5,0|0,0:0|0:0,0:0:0:0:
379,368,60368,5,10,0:0:0:0:
242,290,60661,1,8,0:0:0:0:
97,352,60954,1,8,0:0:0:0:
117,195,61248,5,10,0:0:0:0:
254,117,61541,1,0,0:0:0:0:
399,179,61834,1,0,0:0:0:0:
271,317,62128,6,0,L|275:264,1,52.5,10|0,0:0|0:0,0:0:0:0:
321,200,62421,2,0,L|316:147,1,52.5,0|0,0:0|0:0,0:0:0:0:
173,37,62714,2,0,L|177:89,1,52.5,2|0,0:0|0:0,0:0:0:0:
223,154,63007,2,0,L|218:206,1,52.5,2|0,0:0|0:0,0:0:0:0:
81,325,63301,2,0,L|85:273,1,52.5,2|2,0:0|0:0,0:0:0:0:
131,208,63594,2,0,L|126:156,1,52.5,10|2,0:0|0:0,0:0:0:0:
94,45,63888,6,0,B|137:29|185:63|185:63|218:16|218:16|252:56|325:53|325:53|298:96|298:96|343:125|394:127|394:127|367:149|367:149|365:162,1,472.500018024445,10|0,0:0|0:0,0:0:0:0:
346,282,67036,2,0,B|374:308|374:308|413:321,1,78.7500030040742
220,258,68048,6,0,P|193:255|168:258,1,52.5
84,211,68648,2,0,P|71:260|88:309,2,105
168,113,70148,1,0,0:0:0:0:
300,154,70706,5,0,0:0:0:0:
356,99,70857,1,0,0:0:0:0:
425,139,71032,6,0,P|411:197|426:253,1,118.125004506111,4|0,0:0|0:0,0:0:0:0:
470,318,71618,1,0,0:0:0:0:
425,139,71912,1,0,0:0:0:0:
337,270,72205,1,0,0:0:0:0:
320,170,72498,1,0,0:0:0:0:
197,40,72792,6,0,P|138:34|83:53,1,118.125004506111,4|0,0:0|0:0,0:0:0:0:
15,92,73378,1,0,0:0:0:0:
38,221,73623,1,0,0:0:0:0:
38,221,73965,1,0,0:0:0:0:
112,245,74112,1,0,0:0:0:0:
185,267,74258,6,0,P|224:275|263:270,1,78.7500030040742,4|0,0:0|0:0,0:0:0:0:
409,212,74844,1,0,0:0:0:0:
228,139,75138,1,0,0:0:0:0:
365,303,75431,1,0,0:0:0:0:
333,137,75724,1,0,0:0:0:0:
452,4,76018,6,0,P|464:61|437:113,1,118.125004506111,4|0,0:0|0:0,0:0:0:0:
333,137,76604,1,0,0:0:0:0:
246,5,76898,1,0,0:0:0:0:
246,5,77191,1,0,0:0:0:0:
172,33,77338,1,0,0:0:0:0:
96,10,77484,6,0,L|79:87,1,78.7500030040742,4|0,0:0|0:0,0:0:0:0:
64,165,77924,1,0,0:0:0:0:
64,165,78070,1,0,0:0:0:0:
172,33,78364,1,4,0:0:0:0:
210,185,78657,1,0,0:0:0:0:
139,149,78804,1,0,0:0:0:0:
139,227,78950,1,0,0:0:0:0:
29,362,79244,6,0,P|81:336|140:334,1,118.125004506111,0|0,0:0|0:0,0:0:0:0:
198,281,79830,1,4,0:0:0:0:
198,281,80417,1,4,0:0:0:0:
264,323,80564,1,0,0:0:0:0:
309,259,80710,6,0,L|386:244,1,78.7500030040742,4|0,0:0|0:0,0:0:0:0:
264,323,81296,1,0,0:0:0:0:
329,172,81590,1,4,0:0:0:0:
237,208,81883,1,0,0:0:0:0:
198,281,82176,1,4,0:0:0:0:
155,383,82470,6,0,B|196:290|93:238|135:155,1,229.5,4|0,0:0|0:0,0:0:0:0:
131,162,83647,1,8,0:0:0:0:
189,100,83790,1,0,0:0:0:0:
140,22,83933,6,0,P|199:68|273:49,1,157.5,12|0,0:0|0:0,0:0:0:0:
338,6,84519,1,4,0:0:0:0:
189,100,84813,1,8,0:0:0:0:
338,154,85106,1,0,0:0:0:0:
480,86,85400,1,4,0:0:0:0:
425,280,85693,6,0,B|349:261|349:261|275:290,1,157.5,8|0,0:0|0:0,0:0:0:0:
207,331,86280,1,0,0:0:0:0:
348,225,86573,1,8,0:0:0:0:
348,225,86867,1,4,0:0:0:0:
342,146,87013,1,8,0:0:0:0:
420,81,87160,6,0,P|345:107|278:71,1,157.5,4|0,0:0|0:0,0:0:0:0:
225,15,87746,1,4,0:0:0:0:
342,146,88040,1,8,0:0:0:0:
197,88,88333,1,0,0:0:0:0:
115,225,88627,1,4,0:0:0:0:
41,21,88920,6,0,P|73:91|59:167,1,157.5,8|0,0:0|0:0,0:0:0:0:
35,243,89507,2,0,P|26:293|42:343,1,105,4|8,0:0|0:0,0:0:0:0:
42,343,90094,1,0,0:0:0:0:
118,326,90240,1,8,0:0:0:0:
195,340,90387,6,0,B|270:352|270:352|349:332,1,157.5,4|0,0:0|0:0,0:0:0:0:
422,305,90973,1,4,0:0:0:0:
261,252,91267,1,8,0:0:0:0:
261,252,91560,1,4,0:0:0:0:
325,206,91707,1,4,0:0:0:0:
400,231,91854,1,8,0:0:0:0:
210,195,92147,6,0,B|132:185|132:185|56:206,1,157.5,0|0,0:0|0:0,0:0:0:0:
20,277,92734,2,0,P|10:300|7:326,1,52.5,6|2,0:0|0:0,0:0:0:0:
78,361,93027,2,0,P|88:337|91:311,1,52.5,10|0,0:0|0:0,0:0:0:0:
56,206,93321,1,10,0:0:0:0:
33,131,93467,1,0,0:0:0:0:
58,56,93614,5,4,0:0:0:0:
267,71,93907,1,0,0:0:0:0:
33,131,94200,1,4,0:0:0:0:
296,144,94494,5,8,0:0:0:0:
168,209,94787,1,0,0:0:0:0:
193,118,95080,1,4,0:0:0:0:
372,211,95374,6,0,P|304:186|269:249,1,157.5,8|0,0:0|0:0,0:0:0:0:
343,290,95961,1,4,0:0:0:0:
234,341,96275,6,0,B|210:344|210:344|197:339|197:339|182:346|182:346|167:340|167:340|152:348|152:348|145:348,1,94.499997116089,4|4,0:0|0:0,0:0:0:0:
15,367,96625,5,0,0:0:0:0:
66,307,96762,1,0,0:0:0:0:
9,250,96899,2,0,P|-1:212|4:173,1,78.7500030040742,0|0,0:0|0:0,0:0:0:0:
21,98,97352,1,0,0:0:0:0:
21,98,97475,1,0,0:0:0:0:
119,33,97768,2,0,P|156:21|195:19,2,78.7500030040742,8|0|0,0:0|0:0|0:0,0:0:0:0:
21,98,98648,1,4,0:0:0:0:
172,109,98942,2,0,P|211:107|248:95,1,78.7500030040742,0|0,0:0|0:0,0:0:0:0:
476,68,99528,5,8,0:0:0:0:
359,55,99822,1,0,0:0:0:0:
359,55,99969,1,0,0:0:0:0:
336,158,100115,2,0,P|338:197|350:234,1,78.7500030040742,4|0,0:0|0:0,0:0:0:0:
431,320,100702,1,4,0:0:0:0:
249,283,100996,2,0,P|211:276|172:283,1,78.7500030040742,8|0,0:0|0:0,0:0:0:0:
62,326,101582,1,8,0:0:0:0:
62,326,101729,1,0,0:0:0:0:
62,326,101876,5,4,0:0:0:0:
54,179,102169,2,0,P|92:170|126:151,1,78.7500030040742,0|0,0:0|0:0,0:0:0:0:
224,83,102756,1,8,0:0:0:0:
307,166,103050,1,8,0:0:0:0:
322,380,103343,5,6,0:0:0:0:
193,359,103636,1,0,0:0:0:0:
432,305,103929,1,0,0:0:0:0:
192,193,104223,2,0,P|245:168|303:163,1,118.125004506111,8|0,0:0|0:0,0:0:0:0:
386,169,104810,1,0,0:0:0:0:
190,82,105103,5,6,0:0:0:0:
263,254,105396,1,0,0:0:0:0:
357,22,105690,1,0,0:0:0:0:
192,193,105983,2,0,B|137:207|137:207|77:191,1,118.125004506111,8|0,0:0|0:0,0:0:0:0:
26,120,106570,5,6,0:0:0:0:
171,60,106863,1,0,0:0:0:0:
304,143,107157,1,0,0:0:0:0:
175,290,107451,2,0,B|124:301|124:301|74:286,2,105,8|0|0,0:0|0:0|0:0,0:0:0:0:
308,124,108330,6,0,L|464:140,1,157.5,6|4,0:0|0:0,0:0:0:0:
473,230,108917,1,4,0:0:0:0:
418,305,109210,1,4,0:0:0:0:
318,339,109504,1,0,0:0:0:0:
219,374,109797,5,6,0:0:0:0:
256,192,116252,5,4,0:0:0:0:
256,192,116398,12,0,119186,0:0:0:0:
439,370,119816,6,0,B|445:316|445:316|436:266,1,105,4|0,0:0|0:0,0:0:0:0:
335,178,120402,1,0,0:0:0:0:
399,57,120696,2,0,L|503:52,2,105,0|0|0,0:0|0:0|0:0,0:0:0:0:
212,121,121576,2,0,L|55:111,1,157.5,0|0,0:0|0:0,0:0:0:0:
19,207,122163,6,0,L|223:222,1,204.749990627289,0|0,3:0|3:0,0:0:0:0:
325,229,122750,1,0,0:0:0:0:
131,296,123043,1,0,0:0:0:0:
8,156,123337,6,0,B|-12:90|-12:90|0:34,1,125.999996154785,6|0,0:0|0:0,0:0:0:0:
147,7,123923,1,4,0:0:0:0:
297,25,124217,2,0,B|318:91|318:91|305:146,1,125.999996154785,10|0,0:0|0:0,0:0:0:0:
159,187,124804,1,4,0:0:0:0:
293,339,125097,6,0,B|355:344|355:344|414:322,1,125.999996154785,6|0,0:0|0:0,0:0:0:0:
458,295,125537,1,8,0:0:0:0:
475,247,125684,1,0,0:0:0:0:
461,198,125831,1,0,0:0:0:0:
429,159,125977,2,0,P|399:104|400:41,1,125.999996154785,10|8,0:0|0:0,0:0:0:0:
368,220,126564,1,4,0:0:0:0:
228,88,126858,6,0,L|102:79,1,125.999996154785,6|8,0:0|0:0,0:0:0:0:
51,77,127298,1,0,0:0:0:0:
51,77,127445,1,8,0:0:0:0:
188,257,127738,1,4,0:0:0:0:
27,182,128031,1,8,0:0:0:0:
160,130,128325,1,8,0:0:0:0:
62,317,128618,6,0,P|123:329|158:380,1,125.999996154785,6|0,0:0|0:0,0:0:0:0:
256,265,129205,1,8,0:0:0:0:
449,317,129499,2,0,P|388:329|353:380,1,125.999996154785,6|0,0:0|0:0,0:0:0:0:
256,265,130085,1,0,0:0:0:0:
453,287,130379,6,0,P|423:232|430:170,1,125.999996154785,14|0,0:0|0:0,0:0:0:0:
508,41,130966,1,4,0:0:0:0:
362,28,131259,2,0,L|236:35,1,125.999996154785,10|0,0:0|0:0,0:0:0:0:
85,53,131846,1,8,0:0:0:0:
176,193,132139,6,0,L|203:315,1,125.999996154785,10|0,0:0|0:0,0:0:0:0:
218,364,132580,1,0,0:0:0:0:
268,364,132726,1,4,0:0:0:0:
318,364,132873,1,0,0:0:0:0:
368,364,133020,2,0,P|347:305|362:244,1,125.999996154785,10|8,0:0|0:0,0:0:0:0:
461,130,133607,1,8,0:0:0:0:
267,10,133900,6,0,P|246:68|261:129,2,125.999996154785,14|0|0,0:0|0:0|0:0,0:0:0:0:
138,157,134780,2,0,L|260:128,1,125.999996154785,10|8,0:0|0:0,0:0:0:0:
260,127,135220,1,8,0:0:0:0:
260,128,135367,1,8,0:0:0:0:
240,304,135661,5,14,0:0:0:0:
9,248,135954,1,0,0:0:0:0:
138,157,136247,1,0,0:0:0:0:
99,351,136561,5,10,0:0:0:0:
187,377,136879,1,4,0:0:0:0:
289,383,137165,1,8,0:0:0:0:
366,384,137460,1,8,0:0:0:0:
257,322,139531,6,0,L|309:320,1,52.5,0|0,0:0|0:0,0:0:0:0:
366,384,139827,2,0,P|354:322|372:262,1,125.999996154785,0|0,0:0|0:0,0:0:0:0:
419,153,140707,2,0,P|436:93|425:31,1,125.999996154785,0|0,0:0|0:0,0:0:0:0:
285,83,141587,6,0,L|347:85,2,62.9999980773926,0|0|0,0:0|0:0|0:0,0:0:0:0:
122,79,142467,1,0,0:0:0:0:
