osu file format v14

[General]
AudioFilename: audio.mp3
AudioLeadIn: 0
PreviewTime: 13751
Countdown: 1
SampleSet: Soft
StackLeniency: 0.3
Mode: 0
LetterboxInBreaks: 0
WidescreenStoryboard: 1

[Editor]
Bookmarks: 13819,25274,41638,53638,54729,79274,84183,87456
DistanceSpacing: 0.8
BeatDivisor: 4
GridSize: 16
TimelineZoom: 2.5

[Metadata]
Title:Umineko no Naku Koro ni
TitleUnicode:うみねこのなく頃に
Artist:Shikata Akiko
ArtistUnicode:志方あきこ
Creator:ScubDomino
Version:Sephiroth
Source:うみねこのなく頃に
Tags:opening when they cry anime girl 07th Expansion lewski cococolaco icekalt short ver. version loli catgirl
BeatmapID:1657926
BeatmapSetID:790050

[Difficulty]
HPDrainRate:6
CircleSize:3
OverallDifficulty:8.6
ApproachRate:9.3
SliderMultiplier:2.5
SliderTickRate:1

[Events]
//Background and Video events
0,0,"60f308d4b644014775fb8bae5d841fb37ff1ea7d_s2_n2.jpg",0,0
//Break Periods
//Storyboard Layer 0 (Background)
//Storyboard Layer 1 (Fail)
//Storyboard Layer 2 (Pass)
//Storyboard Layer 3 (Foreground)
//Storyboard Sound Samples

[TimingPoints]
729,272.727272727273,6,2,1,75,1,0
1138,-133.333333333333,6,2,1,75,0,0
1547,-222.222222222221,6,2,1,75,0,0
4001,-153.846153846153,6,2,1,75,0,0
4410,-181.818181818181,6,2,1,75,0,0
4819,-222.222222222221,6,2,1,75,0,0
7274,-181.818181818181,6,2,1,75,0,0
8092,-222.222222222221,6,2,1,75,0,0
8910,-285.714285714284,6,2,1,75,0,0
10547,-181.818181818181,6,2,1,75,0,0
11365,-222.222222222221,6,2,1,75,0,0
12183,-285.714285714284,6,2,1,75,0,0
13001,-200,6,2,1,75,0,0
13819,-100,6,2,1,75,0,0
15456,-133.333333333333,6,2,1,75,0,0
15865,-83.3333333333333,6,2,1,75,0,0
16819,-133.333333333333,6,2,1,75,0,0
18729,-100,6,2,1,75,0,0
20365,-100,6,2,1,75,0,0
22001,-133.333333333333,6,2,1,75,0,0
22411,-83.3333333333333,6,2,1,75,0,0
23092,-100,6,2,1,75,0,0
23365,-133.333333333333,6,2,1,75,0,0
23910,-100,6,2,1,75,0,0
24865,-133.333333333333,6,2,1,75,0,0
25274,-181.818181818181,6,2,1,50,0,0
26229,-285.714285714284,6,2,1,50,0,0
26910,-181.818181818181,6,2,1,50,0,0
27865,-285.714285714284,6,2,1,50,0,0
28547,-181.818181818181,6,2,1,50,0,0
53910,-100,6,2,1,67,0,0
54729,-133.333333333333,6,2,1,80,0,1
55274,-181.818181818181,6,2,1,80,0,1
55547,-100,6,2,1,80,0,1
56365,-117.647058823529,6,2,1,80,0,1
56910,-222.222222222221,6,2,1,80,0,1
57183,-100,6,2,1,80,0,1
58819,-133.333333333333,6,2,1,80,0,1
59638,-66.6666666666667,6,2,1,80,0,1
60047,-100,6,2,1,80,0,1
61274,-133.333333333333,6,2,1,80,0,1
61819,-153.846153846153,6,2,1,80,0,1
62092,-100,6,2,1,80,0,1
62638,-222.222222222221,6,2,1,80,0,1
62910,-117.647058823529,6,2,1,80,0,1
63455,-222.222222222221,6,2,1,80,0,1
63729,-100,6,2,1,80,0,1
65364,-133.333333333333,6,2,1,80,0,1
65910,-222.222222222221,6,2,1,80,0,1
66183,-100,6,2,1,80,0,1
66184,-100,6,2,1,80,0,1
66592,-100,6,2,1,80,0,1
67001,-100,6,2,1,80,0,0
67819,-133.333333333333,6,2,1,80,0,1
68364,-181.818181818181,6,2,1,80,0,1
68637,-100,6,2,1,80,0,1
69456,-100,6,2,1,80,0,1
70000,-222.222222222221,6,2,1,80,0,1
70274,-100,6,2,1,80,0,1
71909,-100,6,2,1,80,0,1
72728,-66.6666666666667,6,2,1,80,0,1
73137,-100,6,2,1,80,0,1
74092,-100,6,2,1,80,0,1
74364,-133.333333333333,6,2,1,80,0,1
74909,-222.222222222221,6,2,1,80,0,1
75182,-100,6,2,1,80,0,1
76000,-117.647058823529,6,2,1,80,0,1
76545,-222.222222222221,6,2,1,80,0,1
76819,-100,6,2,1,75,0,1
79274,-100,6,2,1,75,0,0
79682,-83.3333333333333,6,2,1,75,0,0
80092,-133.333333333333,6,2,1,75,0,0
80195,-133.333333333333,6,2,1,75,0,0
80910,-100,6,2,1,75,0,0
81319,-83.3333333333333,6,2,1,75,0,0
81729,-133.333333333333,6,2,1,75,0,0
84183,-400,6,2,1,75,0,0
84217,-400,6,2,1,5,0,0
87388,-400,6,2,99,5,0,0

[Colours]
Combo1 : 222,217,182
Combo2 : 175,167,56
Combo3 : 196,202,81
Combo4 : 232,235,126

[HitObjects]
43,240,729,6,0,P|89:286|230:300,1,187.5,6|0,3:3|2:2,0:0:0:0:
232,300,1001,1,0,3:2:0:0:
46,230,1138,6,0,P|47:302|86:367,1,140.625005364418,2|0,3:2|2:2,0:0:0:0:
94,379,1410,1,0,3:2:0:0:
54,228,1547,6,0,P|3:305|1:340,2,112.499996566773,2|2|2,3:2|3:2|3:2,0:0:0:0:
95,117,2365,6,0,P|109:46|85:0,1,112.499996566773,2|0,3:2|3:2,0:0:0:0:
79,7,2774,2,0,P|133:55|184:57,1,112.499996566773,2|0,3:2|3:2,0:0:0:0:
183,49,3183,2,0,P|114:71|86:115,2,112.499996566773,2|2|2,3:2|3:2|3:2,0:0:0:0:
366,147,4001,6,0,P|452:181|513:171,1,121.874994421006,6|0,3:3|2:2,0:0:0:0:
499,175,4274,1,0,3:2:0:0:
391,135,4410,6,0,P|330:182|311:231,1,103.125003147125,2|0,3:2|2:2,0:0:0:0:
314,221,4683,1,0,3:2:0:0:
392,164,4819,6,0,P|380:80|348:46,2,112.499996566773,2|2|2,3:2|3:2|3:2,0:0:0:0:
314,221,5501,1,2,3:2:0:0:
417,267,5638,6,0,P|402:337|426:383,1,112.499996566773,2|0,3:2|3:2,0:0:0:0:
433,377,6047,2,0,P|378:328|327:326,1,112.499996566773,2|0,3:2|3:2,0:0:0:0:
329,335,6456,2,0,P|397:312|425:268,2,112.499996566773,2|2|2,3:2|3:2|3:2,0:0:0:0:
92,243,7274,6,0,P|27:334|139:332,1,275.000008392334,6|0,3:3|3:2,0:0:0:0:
188,249,7956,1,2,3:2:0:0:
198,91,8092,6,0,P|107:82|154:160,1,224.999993133545,4|0,3:3|3:2,0:0:0:0:
250,172,8774,1,2,3:2:0:0:
380,101,8910,6,0,P|350:36|316:98,1,174.999994659424,6|0,3:3|3:2,0:0:0:0:
345,183,9592,1,2,3:2:0:0:
441,174,9729,2,0,P|504:224|510:239,2,87.499997329712,4|2|0,3:3|3:2|3:2,0:0:0:0:
268,258,10547,6,0,P|332:349|220:347,1,275.000008392334,6|0,3:3|3:2,0:0:0:0:
172,264,11229,1,2,3:2:0:0:
162,106,11365,6,0,P|252:97|205:175,1,224.999993133545,4|0,3:3|3:2,0:0:0:0:
110,187,12047,1,2,3:2:0:0:
51,112,12183,6,0,P|55:77|65:53,1,43.749998664856,2|0,3:2|2:2,0:0:0:0:
204,174,12456,2,0,P|231:195|248:215,1,43.749998664856,2|0,3:2|2:2,0:0:0:0:
73,275,12729,2,0,P|40:288|14:292,1,43.749998664856,2|0,3:2|2:2,0:0:0:0:
399,14,13001,6,0,P|445:23|475:48,1,62.5,2|0,3:3|2:2,0:0:0:0:
354,139,13274,2,0,P|376:179|385:225,1,62.5,2|0,3:3|2:2,0:0:0:0:
152,183,13547,1,0,3:2:0:0:
138,280,13683,1,2,3:3:0:0:
1,89,13819,6,0,P|107:147|222:108,1,250,6|0,3:3|3:2,0:0:0:0:
136,41,14229,1,2,3:2:0:0:
106,165,14365,2,0,P|199:192|229:110,1,187.5,2|0,3:3|2:2,0:0:0:0:
334,62,14638,6,0,P|418:72|467:159,1,187.5,10|0,3:2|2:2,0:0:0:0:
469,170,14910,2,0,P|436:91|486:6,1,187.5,2|0,3:2|2:2,0:0:0:0:
496,0,15183,2,0,P|445:67|345:66,1,187.5,2|0,3:2|2:2,0:0:0:0:
145,38,15456,6,0,P|146:100|267:98,1,187.500007152558,2|0,3:3|2:2,0:0:0:0:
242,16,15865,1,2,3:2:0:0:
154,167,16001,5,0,3:2:0:0:
231,231,16138,1,0,3:2:0:0:
373,151,16274,2,0,P|497:220|433:294,1,224.999993133545,10|0,3:2|2:2,0:0:0:0:
402,332,16547,5,2,3:2:0:0:
323,288,16683,1,2,3:3:0:0:
138,339,16819,6,0,L|156:229,1,93.7500035762788,2|0,3:2|3:2,0:0:0:0:
16,159,17092,1,2,3:3:0:0:
16,159,17365,6,0,P|104:150|130:76,1,140.625005364418,2|0,3:2|2:2,0:0:0:0:
132,102,17638,2,0,P|98:119|79:203,1,93.7500035762788,2|0,3:2|3:2,0:0:0:0:
246,186,17910,6,0,P|178:127|187:29,1,187.500007152558,10|0,3:2|3:2,0:0:0:0:
323,15,18319,1,2,3:2:0:0:
428,128,18456,2,0,L|310:118,1,93.7500035762788,0|0,3:2|3:2,0:0:0:0:
355,302,18729,6,0,P|413:283|445:231,1,125,2|0,3:3|2:2,0:0:0:0:
428,128,19001,1,0,3:2:0:0:
336,288,19138,6,0,P|390:315|450:300,1,125,2|0,3:3|2:2,0:0:0:0:
511,215,19410,1,0,3:2:0:0:
292,200,19547,6,0,P|241:247|239:312,1,125,10|0,3:2|2:2,0:0:0:0:
62,120,19819,2,0,P|128:140|185:109,1,125,2|0,3:3|3:2,0:0:0:0:
108,359,20092,2,0,P|92:291|37:257,1,125,2|0,3:3|3:2,0:0:0:0:
39,107,20365,6,0,P|133:148|201:13,1,250,6|0,3:3|3:2,0:0:0:0:
105,4,20774,1,2,3:2:0:0:
38,99,20910,2,0,P|28:179|70:252,1,125,0|0,3:2|3:2,0:0:0:0:
176,322,21183,6,0,P|92:312|43:225,1,187.5,10|0,3:2|2:2,0:0:0:0:
41,214,21455,2,0,P|74:293|24:378,1,187.5,2|0,3:2|2:2,0:0:0:0:
14,384,21729,2,0,P|65:317|165:318,1,187.5,2|0,3:2|2:2,0:0:0:0:
277,348,22001,6,0,P|369:372|410:290,1,187.5,2|0,3:3|3:2,0:0:0:0:
323,257,22410,1,2,3:2:0:0:
422,380,22547,5,0,3:2:0:0:
511,324,22683,1,0,3:2:0:0:
382,182,22819,6,0,P|456:130|457:242,1,224.999993133545,10|0,3:2|2:2,0:0:0:0:
371,191,23092,2,0,P|360:124|413:68,1,125,2|0,3:2|3:2,0:0:0:0:
482,40,23365,5,2,3:2:0:0:
472,139,23501,1,0,3:2:0:0:
305,17,23638,5,2,3:3:0:0:
305,17,23910,2,0,P|260:84|289:194,1,187.5,2|0,3:2|2:2,0:0:0:0:
375,309,24183,2,0,P|329:270|272:316,1,125,2|0,3:2|3:2,0:0:0:0:
1,298,24456,6,0,P|106:325|202:227,1,250,10|0,3:2|3:2,0:0:0:0:
75,162,24865,1,2,3:2:0:0:
6,291,25001,2,0,L|20:415,1,93.7500035762788,0|0,3:2|3:2,0:0:0:0:
122,133,25274,6,0,P|4:117|-14:86,1,137.500004196167,6|0,0:2|0:0,0:0:0:0:
300,25,25683,2,0,P|182:41|164:72,1,137.500004196167,2|0,0:2|0:0,0:0:0:0:
355,110,26092,1,2,0:2:0:0:
355,110,26365,6,0,L|349:166,1,43.749998664856,2|0,0:2|0:2,0:0:0:0:
438,0,26638,2,0,L|432:56,1,43.749998664856,2|0,0:2|0:3,0:0:0:0:
390,251,26910,6,0,P|508:267|526:298,1,137.500004196167,6|0,0:3|0:0,0:0:0:0:
212,359,27319,2,0,P|330:343|348:312,1,137.500004196167,2|0,0:0|0:0,0:0:0:0:
156,273,27728,1,2,0:2:0:0:
269,222,28001,6,0,L|265:266,1,43.749998664856,2|0,0:2|0:2,0:0:0:0:
0,384,28274,2,0,L|6:328,1,43.749998664856,2|0,0:2|0:2,0:0:0:0:
0,118,28547,6,0,L|17:257,1,137.500004196167,2|0,0:0|0:0,0:0:0:0:
108,132,28956,1,2,0:0:0:0:
63,33,29092,2,0,P|18:12|-31:16,1,68.7500020980836,0|0,0:0|0:0,0:0:0:0:
105,144,29365,6,0,L|256:128,1,137.500004196167,2|0,0:0|0:0,0:0:0:0:
218,232,29773,5,2,0:0:0:0:
154,308,29910,2,0,L|56:320,1,68.7500020980836
313,264,30183,6,0,P|352:291|363:326,1,68.7500020980836,2|0,0:0|0:0,0:0:0:0:
395,141,30456,2,0,P|352:161|316:153,1,68.7500020980836,2|0,0:0|0:0,0:0:0:0:
463,283,30729,5,0,0:0:0:0:
477,198,30866,1,2,0:0:0:0:
334,166,31001,6,0,L|359:304,2,137.500004196167,2|0|2,0:0|0:0|0:0,0:0:0:0:
18,322,31819,6,0,P|89:318|143:357,1,137.500004196167,2|0,0:0|0:0,0:0:0:0:
242,377,32229,1,2,0:0:0:0:
207,281,32365,2,0,L|224:186,1,68.7500020980836,0|0,0:0|0:0,0:0:0:0:
344,242,32638,6,0,P|296:201|226:206,1,137.500004196167,2|2,0:0|0:0,0:0:0:0:
290,333,33047,1,0,0:0:0:0:
348,233,33183,2,0,L|340:156,1,68.7500020980836,0|0,0:0|0:0,0:0:0:0:
368,65,33456,6,0,P|456:72|490:103,2,137.500004196167,2|2|2,0:0|0:0|0:0,0:0:0:0:
229,204,34274,5,0,0:0:0:0:
460,263,34547,2,0,L|450:170,1,68.7500020980836,2|0,0:0|0:0,0:0:0:0:
361,71,34819,2,0,L|369:140,1,68.7500020980836,2|0,0:0|0:0,0:0:0:0:
391,352,35092,6,0,P|329:306|246:322,1,137.500004196167,2|0,0:0|0:0,0:0:0:0:
200,377,35501,1,2,0:0:0:0:
174,279,35638,2,0,L|183:185,1,68.7500020980836,0|0,0:0|0:0,0:0:0:0:
265,69,35910,6,0,L|281:219,2,137.500004196167,2|2|2,0:0|0:0|0:0,0:0:0:0:
177,16,36729,1,2,0:0:0:0:
176,15,37001,6,0,P|142:16|111:3,1,68.7500020980836,2|0,0:0|0:0,0:0:0:0:
0,114,37274,2,0,P|28:95|64:89,1,68.7500020980836,2|0,0:0|0:0,0:0:0:0:
213,197,37547,1,2,0:0:0:0:
108,168,37819,6,0,L|113:236,1,68.7500020980836,2|0,0:0|0:0,0:0:0:0:
0,114,38092,2,0,L|6:191,1,68.7500020980836,2|0,0:0|0:0,0:0:0:0:
195,376,38365,6,0,P|148:326|143:298,1,68.7500020980836,2|0,0:0|0:0,0:0:0:0:
0,384,38638,2,0,P|66:368|93:378,1,68.7500020980836,2|0,0:0|0:0,0:0:0:0:
93,209,38911,2,0,P|73:274|51:292,1,68.7500020980836,2|0,0:0|0:0,0:0:0:0:
208,86,39183,6,0,P|162:20|85:3,2,137.500004196167,2|2|0,0:0|0:0|0:0,0:0:0:0:
213,197,40001,2,0,P|298:198|351:140,1,137.500004196167,2|0,0:0|0:0,0:0:0:0:
404,100,40410,5,2,0:0:0:0:
311,73,40547,1,0,0:0:0:0:
512,0,40819,5,2,0:0:0:0:
492,189,41092,2,0,L|501:104,1,68.7500020980836,2|0,0:0|0:0,0:0:0:0:
472,378,41365,2,0,L|481:293,1,68.7500020980836,2|0,0:0|0:0,0:0:0:0:
384,235,41638,5,6,0:3:0:0:
384,235,42456,2,0,P|364:185|367:150,1,68.7500020980836,2|0,0:2|0:2,0:0:0:0:
303,59,42729,2,0,P|356:66|385:86,1,68.7500020980836,2|0,0:2|0:2,0:0:0:0:
118,325,43274,5,4,0:3:0:0:
118,325,44092,2,0,P|138:275|135:240,1,68.7500020980836,2|0,0:0|0:0,0:0:0:0:
7,167,44366,2,0,P|40:209|72:224,1,68.7500020980836,2|0,0:0|0:0,0:0:0:0:
199,149,44638,2,0,P|145:156|116:176,1,68.7500020980836,2|0,0:0|0:0,0:0:0:0:
348,367,44910,6,0,P|357:289|399:229,2,137.500004196167,2|2|0,0:2|0:0|0:0,0:0:0:0:
199,149,45729,6,0,P|190:71|148:11,2,137.500004196167,2|2|0,0:0|0:0|0:0,0:0:0:0:
387,240,46547,1,0,0:0:0:0:
387,240,46819,5,0,0:0:0:0:
294,204,46955,1,2,0:0:0:0:
234,282,47092,1,0,0:0:0:0:
234,282,47365,6,0,P|253:332|279:355,1,68.7500020980836,2|0,0:0|0:0,0:0:0:0:
114,153,47638,2,0,P|60:144|27:155,1,68.7500020980836,2|0,0:0|0:0,0:0:0:0:
285,113,47910,2,0,P|318:71|326:36,1,68.7500020980836,2|0,0:0|0:0,0:0:0:0:
172,0,48183,6,0,P|235:59|245:258,1,275.000008392334,4|0,0:3|0:0,0:0:0:0:
254,238,49001,2,0,L|210:242,1,34.3750010490418,2|0,0:0|0:0,0:0:0:0:
426,191,49274,2,0,L|391:187,1,34.3750010490418,2|0,0:0|0:0,0:0:0:0:
211,381,49819,6,0,P|207:246|293:142,1,275.000008392334,6|0,0:3|0:0,0:0:0:0:
293,142,50638,2,0,L|295:179,1,34.3750010490418,2|0,0:0|0:0,0:0:0:0:
222,48,50910,2,0,L|188:31,1,34.3750010490418,2|0,0:0|0:0,0:0:0:0:
338,33,51183,2,0,L|369:12,1,34.3750010490418,2|0,0:0|0:0,0:0:0:0:
168,157,51456,6,0,L|28:140,2,137.500004196167,2|2|0,0:3|0:0|0:3,0:0:0:0:
344,101,52274,2,0,L|484:84,2,137.500004196167,2|2|0,0:3|0:0|0:3,0:0:0:0:
355,271,53092,5,2,0:3:0:0:
284,344,53365,2,0,L|183:333,1,68.7500020980836,2|0,0:2|0:0,0:0:0:0:
444,210,53638,2,0,L|544:208,1,68.7500020980836,2|0,0:3|0:0,0:0:0:0:
355,271,53910,6,0,P|396:303|420:381,1,125,10|0,0:2|0:0,0:0:0:0:
317,162,54183,5,2,0:3:0:0:
334,76,54319,1,10,0:2:0:0:
173,159,54456,5,0,0:0:0:0:
190,245,54592,1,2,0:0:0:0:
13,90,54729,6,0,P|118:57|133:11,1,140.625005364418,6|0,3:3|0:0,0:0:0:0:
129,24,55001,1,0,2:2:0:0:
33,192,55138,1,2,3:2:0:0:
233,148,55274,6,0,L|227:51,1,68.7500020980836,2|0,3:3|0:0,0:0:0:0:
126,233,55547,6,0,P|226:304|345:290,1,187.5,10|0,3:2|2:2,0:0:0:0:
124,216,55819,2,0,P|184:201|226:157,1,125,2|0,3:2|0:0,0:0:0:0:
120,198,56092,5,2,3:2:0:0:
144,85,56228,1,0,0:0:0:0:
347,156,56365,6,0,P|245:119|307:70,1,212.500004053116,2|0,3:3|2:2,0:0:0:0:
427,100,56774,1,2,3:2:0:0:
446,340,56910,5,0,3:2:0:0:
291,303,57047,1,0,3:2:0:0:
382,247,57183,6,0,P|259:282|189:214,1,187.5,10|0,3:2|2:2,0:0:0:0:
389,232,57456,2,0,P|298:192|284:158,1,125,2|0,3:2|3:3,0:0:0:0:
359,15,57729,2,0,P|395:97|372:142,1,125,2|0,3:2|3:2,0:0:0:0:
164,135,58001,1,2,3:3:0:0:
164,135,58274,6,0,P|83:115|107:24,1,187.5,2|0,3:2|2:2,0:0:0:0:
0,290,58547,2,0,P|82:271|82:225,1,125,2|0,3:2|3:2,0:0:0:0:
196,384,58819,6,0,L|187:229,1,140.624995708466,10|0,3:2|0:0,0:0:0:0:
187,230,59092,5,0,3:2:0:0:
393,277,59229,1,2,3:2:0:0:
480,85,59365,2,0,L|486:-15,1,93.7500035762788,0|0,3:2|3:2,0:0:0:0:
372,160,59638,6,0,P|270:200|161:149,1,187.500007152558,2|0,3:3|2:2,0:0:0:0:
115,111,59910,1,0,3:2:0:0:
379,150,60047,6,0,P|305:128|248:56,1,125,2|0,3:3|3:2,0:0:0:0:
232,3,60319,1,0,3:2:0:0:
386,137,60456,6,0,P|446:77|510:77,1,125,10|0,3:2|2:2,0:0:0:0:
414,343,60729,5,2,3:3:0:0:
317,289,60865,1,8,3:2:0:0:
497,177,61001,5,2,3:3:0:0:
508,278,61138,1,0,3:2:0:0:
286,187,61274,6,0,P|216:172|231:284,1,187.500007152558,6|0,3:3|2:2,0:0:0:0:
337,69,61683,1,2,3:2:0:0:
497,177,61819,6,0,L|393:169,1,81.2499962806703,0|0,3:2|3:2,0:0:0:0:
225,57,62092,6,0,P|256:155|236:251,1,187.5,10|0,3:2|2:2,0:0:0:0:
59,245,62365,5,2,3:2:0:0:
146,199,62501,1,0,0:0:0:0:
139,342,62638,6,0,L|72:340,1,56.2499982833863,2|0,3:2|0:0,0:0:0:0:
350,242,62910,6,0,P|373:299|490:277,1,159.375003039837,2|0,3:3|0:0,0:0:0:0:
470,300,63183,1,0,3:2:0:0:
372,130,63319,1,2,3:2:0:0:
294,248,63456,6,0,L|375:238,1,56.2499982833863,0|0,3:2|3:2,0:0:0:0:
174,182,63729,6,0,P|89:229|-31:184,1,187.5,10|0,3:2|2:2,0:0:0:0:
228,77,64001,2,0,P|171:53|137:2,1,125,2|0,3:2|3:2,0:0:0:0:
333,101,64274,5,2,3:2:0:0:
325,9,64410,1,0,3:2:0:0:
411,47,64547,1,2,3:3:0:0:
411,47,64819,6,0,P|416:147|306:132,1,187.5,2|0,3:2|2:2,0:0:0:0:
259,234,65092,2,0,P|279:282|359:284,1,125,2|0,3:2|3:2,0:0:0:0:
456,384,65365,6,0,L|443:233,1,140.625005364418,10|0,3:2|0:0,0:0:0:0:
443,234,65638,5,0,3:2:0:0:
259,234,65774,1,2,3:2:0:0:
170,55,65910,2,0,L|187:-39,1,56.2499982833863,0|0,3:2|3:2,0:0:0:0:
358,120,66183,5,6,3:3:0:0:
490,0,66319,1,0,0:0:0:0:
303,70,66456,6,0,P|396:50|409:-10,1,125,2|0,3:0|0:0,0:0:0:0:
227,9,66729,5,8,3:2:0:0:
210,102,66865,1,0,3:3:0:0:
78,184,67001,5,2,3:3:0:0:
62,75,67138,1,8,3:2:0:0:
246,68,67274,5,2,3:3:0:0:
155,118,67410,1,2,3:3:0:0:
334,231,67547,5,8,3:2:0:0:
247,165,67683,1,2,3:3:0:0:
264,308,67819,6,0,P|351:357|396:310,1,140.625005364418,6|0,3:3|2:0,3:0:0:0:
379,335,68092,1,0,3:2:0:0:
272,220,68229,1,2,3:2:0:0:
161,316,68365,6,0,L|156:397,1,68.7500020980836,2|0,3:3|0:0,0:0:0:0:
54,199,68638,6,0,P|8:285|72:367,1,187.5,10|0,3:2|2:2,0:0:0:0:
73,217,68910,5,2,3:2:0:0:
0,88,69046,1,0,0:0:0:0:
45,224,69183,6,0,P|129:215|162:155,1,125,2|0,3:2|0:0,0:0:0:0:
254,123,69456,6,0,P|270:209|151:173,1,250,2|0,3:3|2:2,0:0:0:0:
160,88,69865,1,2,3:2:0:0:
215,288,70001,5,0,3:2:0:0:
139,362,70138,1,0,3:2:0:0:
216,174,70274,6,0,P|283:156|376:205,1,125,10|0,3:2|0:0,0:0:0:0:
351,330,70547,2,0,P|299:261|360:175,1,187.5,2|0,3:2|0:0,0:0:0:0:
453,131,70819,5,2,3:2:0:0:
512,230,70956,1,0,3:2:0:0:
348,191,71092,1,2,3:3:0:0:
347,190,71365,6,0,P|265:256|247:358,1,187.5,2|0,3:2|2:2,0:0:0:0:
232,384,71638,2,0,P|255:322|208:274,1,125,2|0,3:2|3:2,0:0:0:0:
1,327,71910,6,0,P|110:350|237:250,1,250,10|0,3:2|3:2,0:0:0:0:
98,123,72319,1,2,3:2:0:0:
0,187,72456,2,0,P|43:235|114:231,1,125,0|0,3:2|3:2,0:0:0:0:
250,59,72729,6,0,P|146:94|68:65,1,187.500007152558,2|0,3:3|2:2,0:0:0:0:
0,0,73001,1,0,3:2:0:0:
237,47,73138,6,0,P|219:116|171:165,1,125,2|0,3:3|3:2,0:0:0:0:
78,187,73410,1,0,3:2:0:0:
221,49,73547,2,0,P|298:88|320:140,1,125,10|0,3:2|2:2,0:0:0:0:
324,304,73819,5,2,3:3:0:0:
275,225,73956,1,8,3:2:0:0:
460,186,74092,6,0,L|444:327,1,125,2|0,3:3|3:2,0:0:0:0:
365,75,74365,2,0,P|471:64|514:-30,1,187.500007152558,6|0,3:3|2:2,0:0:0:0:
269,17,74774,1,2,3:2:0:0:
410,185,74910,6,0,L|490:194,1,56.2499982833863,0|0,3:2|3:2,0:0:0:0:
178,174,75183,6,0,P|278:163|343:57,1,187.5,10|0,3:2|2:2,0:0:0:0:
329,86,75456,1,2,3:2:0:0:
277,206,75592,1,0,3:0:0:0:
197,21,75729,2,0,P|128:52|121:111,1,125,0|0,3:0|0:0,0:0:0:0:
39,275,76001,6,0,P|-16:228|87:218,1,212.500004053116,2|0,3:3|3:2,0:0:0:0:
142,257,76410,1,2,3:2:0:0:
57,367,76547,2,0,L|-17:360,1,56.2499982833863,0|0,3:2|3:2,0:0:0:0:
265,224,76819,6,0,P|317:290|279:379,1,187.5,10|0,3:2|2:2,0:0:0:0:
253,249,77092,2,0,P|330:223|411:267,1,125,2|0,3:2|3:2,0:0:0:0:
234,246,77365,5,2,3:2:0:0:
300,104,77501,1,0,3:2:0:0:
188,38,77638,6,0,P|114:111|149:205,1,187.5,6|0,3:3|2:2,0:0:0:0:
136,171,77910,2,0,P|108:70|10:53,1,187.5,2|0,3:2|2:2,0:0:0:0:
46,60,78183,2,0,P|147:87|210:10,1,187.5,2|0,3:3|2:3,0:0:0:0:
462,143,78456,6,0,P|361:170|298:93,1,187.5,6|0,3:3|2:2,0:0:0:0:
320,120,78728,2,0,P|393:193|358:287,1,187.5,2|0,3:2|2:2,0:0:0:0:
372,254,79001,1,2,3:3:0:0:
462,143,79137,1,0,3:2:0:0:
351,373,79274,6,0,P|265:378|188:292,1,187.5,6|0,3:3|3:2,0:0:0:0:
191,292,79547,1,0,3:2:0:0:
364,276,79683,6,0,P|299:238|307:164,1,149.999995422363,2|0,3:3|3:2,0:0:0:0:
364,104,79956,1,0,3:2:0:0:
241,39,80092,6,0,P|331:55|392:124,2,187.500007152558,2|2|2,3:3|3:2|3:3,0:0:0:0:
56,231,80910,2,0,P|148:222|183:137,1,187.5,2|0,3:3|3:2,0:0:0:0:
177,131,81183,1,0,3:2:0:0:
21,331,81319,2,0,P|112:364|170:347,1,149.999995422363,2|0,3:3|3:2,0:0:0:0:
245,267,81592,1,0,3:2:0:0:
378,380,81729,6,0,P|332:282|236:253,2,187.500007152558,2|2|0,3:3|3:2|3:2,0:0:0:0:
21,222,82547,5,6,3:3:0:0:
147,252,82683,1,0,3:2:0:0:
236,157,82819,1,0,3:2:0:0:
110,127,82956,2,0,P|122:191|176:224,1,93.7500035762788,2|0,3:3|3:2,0:0:0:0:
335,71,83229,5,0,3:2:0:0:
215,48,83365,2,0,P|151:78|46:44,1,140.625005364418,2|0,3:3|2:2,0:0:0:0:
288,195,83638,2,0,P|294:124|375:50,1,140.625005364418,2|0,3:2|2:2,0:0:0:0:
123,183,83910,2,0,P|180:223|204:331,1,140.625005364418,2|0,3:2|2:2,0:0:0:0:
93,352,84183,6,0,B|125:303|187:270|306:283|360:352|206:381|367:481|549:443|614:199|437:110|336:125|283:200,1,734.375,6|0,3:2|0:0,0:0:0:0:
