osu file format v14

[General]
AudioFilename: audio.mp3
AudioLeadIn: 0
PreviewTime: 13751
Countdown: 1
SampleSet: Soft
StackLeniency: 0.4
Mode: 0
LetterboxInBreaks: 0
WidescreenStoryboard: 1

[Editor]
Bookmarks: 13819,25274,41638,53638,54729,79274,84183,87456
DistanceSpacing: 1
BeatDivisor: 4
GridSize: 16
TimelineZoom: 2.5

[Metadata]
Title:Umineko no Naku Koro ni
TitleUnicode:うみねこのなく頃に
Artist:Shikata Akiko
ArtistUnicode:志方あきこ
Creator:ScubDomino
Version:Advanced
Source:うみねこのなく頃に
Tags:opening when they cry anime girl 07th Expansion lewski cococolaco icekalt short ver. version loli catgirl
BeatmapID:1657923
BeatmapSetID:790050

[Difficulty]
HPDrainRate:5
CircleSize:3.2
OverallDifficulty:6
ApproachRate:7
SliderMultiplier:0.999999999999999
SliderTickRate:1

[Events]
//Background and Video events
0,0,"60f308d4b644014775fb8bae5d841fb37ff1ea7d_s2_n2.jpg",0,0
//Break Periods
//Storyboard Layer 0 (Background)
//Storyboard Layer 1 (Fail)
//Storyboard Layer 2 (Pass)
//Storyboard Layer 3 (Foreground)
//Storyboard Sound Samples

[TimingPoints]
729,272.727272727273,6,2,1,75,1,0
25274,-100,6,2,1,50,0,0
25956,-111.111111111111,6,2,1,50,0,0
27729,-125,6,2,1,50,0,0
28547,-133.333333333333,6,2,1,50,0,0
53910,-133.333333333333,6,2,1,67,0,0
54183,-100,6,2,1,67,0,0
54729,-100,6,2,1,80,0,1
67001,-100,6,2,1,80,0,0
67819,-100,6,2,1,80,0,1
76819,-100,6,2,1,75,0,1
79274,-100,6,2,1,75,0,0
84183,-163.398692810458,6,2,1,75,0,0
84217,-163.398692810458,6,2,1,5,0,0
87388,-163.398692810458,6,2,99,5,0,0

[Colours]
Combo1 : 222,217,182
Combo2 : 175,167,56
Combo3 : 196,202,81
Combo4 : 225,228,86

[HitObjects]
10,308,729,6,0,L|124:302,1,99.9999999999999,6|0,3:3|3:2,0:0:0:0:
149,333,1138,2,0,L|267:343,1,99.9999999999999,2|0,3:2|3:2,0:0:0:0:
294,362,1547,2,0,P|332:348|361:287,2,99.9999999999999,2|2|2,3:2|3:2|3:2,0:0:0:0:
277,263,2365,6,0,L|294:155,1,99.9999999999999,2|0,3:2|3:2,0:0:0:0:
333,135,2774,2,0,L|320:28,1,99.9999999999999,2|0,3:2|3:2,0:0:0:0:
275,15,3183,2,0,P|238:14|177:66,1,99.9999999999999,2|2,3:2|3:2,0:0:0:0:
191,147,3729,1,2,3:2:0:0:
292,164,4001,6,0,L|399:152,1,99.9999999999999,6|0,3:3|3:2,0:0:0:0:
431,183,4410,2,0,L|416:303,1,99.9999999999999,2|0,3:2|3:2,0:0:0:0:
386,320,4819,2,0,P|423:337|461:402,2,99.9999999999999,2|2|2,3:2|3:2|3:2,0:0:0:0:
292,355,5638,6,0,L|185:358,1,99.9999999999999,2|0,3:2|3:2,0:0:0:0:
141,361,6047,2,0,L|158:243,1,99.9999999999999,2|0,3:2|3:2,0:0:0:0:
119,226,6456,2,0,L|106:113,2,99.9999999999999,2|2|2,3:2|3:2|3:2,0:0:0:0:
210,184,7274,6,0,B|258:158|312:174|337:224|337:224|399:260|437:193,1,250,6|2,3:3|3:2,0:0:0:0:
428,160,8092,2,0,L|417:57,2,99.9999999999999,4|0|0,3:3|3:0|3:2,0:0:0:0:
362,235,8910,6,0,B|314:209|259:224|234:274|234:274|172:310|134:244,1,250,6|2,3:3|3:2,0:0:0:0:
145,210,9728,2,0,L|156:107,2,99.9999999999999,4|2|0,3:3|3:2|3:2,0:0:0:0:
210,285,10547,6,0,B|257:259|312:274|337:324|337:324|399:360|437:294,1,250,6|2,3:3|3:2,0:0:0:0:
428,260,11365,2,0,L|417:157,2,99.9999999999999,4|0|0,3:3|3:0|3:2,0:0:0:0:
328,273,12183,6,0,L|317:170,1,99.9999999999999,2|2,3:2|3:2,0:0:0:0:
305,73,12729,1,2,3:2:0:0:
218,22,13001,2,0,P|159:24|121:56,2,99.9999999999999,2|2|0,3:3|3:3|3:2,0:0:0:0:
305,73,13819,6,0,P|401:126|480:84,1,200,6|2,3:3|3:3,0:0:0:0:
415,8,14638,2,0,L|302:12,1,99.9999999999999,10|2,3:2|3:2,0:0:0:0:
220,45,15183,1,2,3:2:0:0:
123,20,15456,6,0,P|97:117|128:175,1,150,2|2,3:3|3:2,0:0:0:0:
163,171,16001,2,0,L|228:171,1,50,0|0,3:2|3:2,0:0:0:0:
263,168,16274,2,0,L|255:276,2,99.9999999999999,10|2|2,3:2|3:2|3:2,0:0:0:0:
274,68,17092,5,2,3:3:0:0:
274,68,17365,2,0,P|328:58|386:78,1,99.9999999999999,2|2,3:2|3:2,0:0:0:0:
432,147,17910,2,0,P|376:222|378:292,1,150,10|2,3:2|3:2,0:0:0:0:
396,320,18456,1,0,3:2:0:0:
302,357,18729,2,0,P|245:358|194:348,1,99.9999999999999,2|0,0:0|0:0,0:0:0:0:
120,292,19274,1,2,2:2:0:0:
106,192,19547,2,0,P|130:134|170:107,2,99.9999999999999,10|2|2,3:2|3:3|3:3,0:0:0:0:
35,262,20365,6,0,P|75:329|159:354,1,150,6|2,3:3|3:2,0:0:0:0:
185,335,20910,2,0,L|248:331,1,50,0|0,3:2|3:2,0:0:0:0:
284,325,21183,1,10,3:2:0:0:
356,256,21456,2,0,L|368:138,1,99.9999999999999,2|2,3:2|3:2,0:0:0:0:
397,61,22001,6,0,P|316:46|240:82,1,150,2|2,3:3|3:2,0:0:0:0:
224,109,22547,2,0,L|153:103,1,50,0|0,3:2|3:2,0:0:0:0:
124,101,22819,2,0,L|138:212,2,99.9999999999999,10|2|2,3:2|3:2|3:2,0:0:0:0:
102,2,23638,6,0,P|38:38|17:81,1,99.9999999999999,2|2,3:3|3:2,0:0:0:0:
15,158,24183,1,2,3:2:0:0:
106,199,24456,6,0,P|170:235|191:278,1,99.9999999999999,10|0,3:2|3:2,0:0:0:0:
193,355,25001,1,0,3:2:0:0:
274,297,25274,6,0,L|425:293,1,150,6|2,0:2|0:2,0:0:0:0:
420,158,26092,2,0,L|324:161,2,89.999997253418,2|2|2,0:2|0:2|0:2,0:0:0:0:
435,69,26910,6,0,L|279:75,1,134.999995880127,6|2,0:3|0:0,0:0:0:0:
179,71,27729,2,0,L|83:65,2,79.9999999999999,2|2|2,0:2|0:2|0:2,0:0:0:0:
268,77,28547,6,0,P|298:164|276:232,1,150.000005722046,2|0,0:0|0:0,0:0:0:0:
200,250,29365,2,0,L|126:245,2,75.000002861023,2|0|0,0:0|0:0|0:0,0:0:0:0:
271,304,30183,2,0,L|361:311,1,75.000002861023,2|2,0:0|0:0,0:0:0:0:
435,315,30729,1,0,0:0:0:0:
470,232,31001,2,0,P|467:164|426:84,1,150.000005722046,2|2,0:0|0:0,0:0:0:0:
345,65,31819,6,0,L|188:73,1,150.000005722046,2|0,0:0|0:0,0:0:0:0:
118,120,32638,2,0,P|99:182|111:242,1,112.500004291534,2|0,0:0|0:0,0:0:0:0:
130,265,33183,1,0,0:0:0:0:
217,285,33456,2,0,L|378:273,1,150.000005722046,2|2,0:0|0:0,0:0:0:0:
416,198,34274,2,0,P|400:157|363:128,2,75.000002861023,0|2|2,0:0|0:0|0:0,0:0:0:0:
366,273,35092,6,0,L|206:257,1,150.000005722046,2|0,0:0|0:0,0:0:0:0:
150,196,35910,2,0,L|139:113,2,75.000002861023,2|2|2,0:0|0:0|0:0,0:0:0:0:
135,285,36729,2,0,L|147:372,1,75.000002861023,2|2,0:0|0:0,0:0:0:0:
232,382,37274,1,2,0:0:0:0:
295,318,37547,2,0,P|285:228|244:171,1,150.000005722046,2|2,0:0|0:0,0:0:0:0:
169,147,38365,6,0,L|174:67,1,75.000002861023,2|2,0:0|0:0,0:0:0:0:
242,13,38910,1,2,0:0:0:0:
324,49,39183,2,0,L|404:54,1,75.000002861023,2|2,0:0|0:0,0:0:0:0:
458,122,39728,1,0,0:0:0:0:
394,185,40001,6,0,P|388:277|405:304,1,112.500004291534,2|0,0:0|0:0,0:0:0:0:
423,316,40547,1,0,0:0:0:0:
503,275,40819,2,0,L|512:196,2,75.000002861023,2|2|2,0:0|0:0|0:0,0:0:0:0:
423,316,41638,5,6,0:3:0:0:
157,362,42456,2,0,L|66:355,1,75.000002861023,2|2,0:2|0:2,0:0:0:0:
28,184,43274,5,4,0:3:0:0:
280,88,44092,2,0,L|372:96,2,75.000002861023,2|2|2,0:0|0:0|0:0,0:0:0:0:
197,124,44910,6,0,P|196:208|250:260,1,150.000005722046,2|0,0:2|0:0,0:0:0:0:
325,275,45729,2,0,L|413:266,1,75.000002861023,2|0,0:0|0:0,0:0:0:0:
485,251,46274,1,0,0:0:0:0:
458,167,46547,6,0,L|468:82,2,75.000002861023
368,156,47365,2,0,L|378:71,1,75.000002861023,2|2,0:0|0:0,0:0:0:0:
328,6,47910,1,0,0:0:0:0:
239,0,48183,6,0,P|131:16|76:110,1,225.000008583069,4|2,0:3|0:0,0:0:0:0:
154,157,49274,1,2,0:0:0:0:
239,0,49819,6,0,P|321:89|305:189,1,225.000008583069,6|2,0:3|0:0,0:0:0:0:
248,242,50910,1,2,0:0:0:0:
160,222,51183,1,2,0:0:0:0:
100,289,51456,6,0,P|146:350|226:348,1,150.000005722046,2|0,0:3|0:3,0:0:0:0:
296,315,52274,2,0,L|278:152,1,150.000005722046,2|0,0:3|0:3,0:0:0:0:
236,86,53092,2,0,L|149:74,1,75.000002861023,2|2,0:3|0:2,0:0:0:0:
128,63,53501,1,2,0:3:0:0:
95,46,53638,1,0,0:0:0:0:
61,127,53910,2,0,L|68:215,2,75.000002861023,10|2|0,0:2|0:3|0:0,0:0:0:0:
0,46,54729,6,0,P|100:39|208:30,1,200,6|2,3:3|3:3,0:0:0:0:
251,116,55547,2,0,L|133:126,2,99.9999999999999,10|2|2,3:2|3:2|3:2,0:0:0:0:
336,64,56365,6,0,P|404:104|411:192,1,150,2|2,3:3|3:2,0:0:0:0:
398,215,56910,2,0,L|329:220,1,49.9999999999999,0|0,3:2|3:2,0:0:0:0:
306,246,57183,2,0,L|293:139,1,99.9999999999999,10|2,3:2|3:2,0:0:0:0:
194,159,57729,2,0,L|208:280,1,99.9999999999999,2|2,3:2|3:3,0:0:0:0:
220,357,58274,5,2,3:2:0:0:
119,349,58547,1,2,3:2:0:0:
34,295,58819,2,0,P|41:214|103:180,1,150,10|2,3:2|3:2,0:0:0:0:
144,167,59365,6,0,P|178:133|183:70,1,99.9999999999999,0|2,3:2|3:3,0:0:0:0:
261,17,59910,2,0,L|327:13,1,49.9999999999999,0|2,3:2|3:3,0:0:0:0:
389,76,60319,1,0,3:2:0:0:
389,76,60456,2,0,P|447:80|488:44,2,99.9999999999999,10|2|2,3:2|3:3|3:3,0:0:0:0:
309,136,61274,6,0,P|343:235|438:284,1,200,6|0,3:3|3:2,0:0:0:0:
501,220,62092,2,0,L|514:109,2,99.9999999999999,10|2|2,3:2|3:2|3:2,0:0:0:0:
421,281,62910,6,0,L|257:291,1,150,2|2,3:3|3:2,0:0:0:0:
221,294,63456,2,0,L|228:231,1,50,0|0,3:2|3:2,0:0:0:0:
228,194,63729,2,0,L|115:202,1,99.9999999999999,10|2,3:2|3:2,0:0:0:0:
120,101,64274,2,0,L|219:93,1,99.9999999999999,2|2,3:2|3:3,0:0:0:0:
299,32,64819,5,2,3:2:0:0:
394,62,65092,1,2,3:2:0:0:
438,151,65365,2,0,P|410:227|340:262,1,150,10|2,3:2|3:2,0:0:0:0:
303,257,65910,1,0,0:0:0:0:
212,304,66183,1,2,3:3:0:0:
123,349,66456,6,0,L|113:281,3,50,8|0|0|0,3:2|3:3|0:0|0:0,0:0:0:0:
99,242,67001,2,0,L|104:179,3,50,2|2|0|0,3:3|3:3|0:0|0:0,0:0:0:0:
80,136,67547,2,0,L|75:73,1,50,8|2,3:2|3:3,0:0:0:0:
51,42,67819,6,0,P|144:44|188:-11,1,150,6|2,3:3|3:2,0:0:0:0:
220,37,68365,2,0,L|280:41,1,50,2|0,3:3|0:0,0:0:0:0:
309,71,68638,2,0,L|423:64,2,99.9999999999999,10|2|2,3:2|3:2|3:2,0:0:0:0:
297,170,69456,6,0,P|367:220|373:297,1,150,2|2,3:3|3:2,0:0:0:0:
345,317,70001,2,0,L|284:315,1,50,0|0,3:2|3:2,0:0:0:0:
249,329,70274,2,0,L|232:218,2,99.9999999999999,10|2|2,3:2|3:2|3:2,0:0:0:0:
260,368,70956,1,0,3:2:0:0:
260,368,71092,1,2,3:3:0:0:
156,367,71365,5,2,3:2:0:0:
65,325,71638,1,2,3:2:0:0:
18,236,71910,2,0,P|32:124|74:98,1,150,10|2,3:2|3:2,0:0:0:0:
100,85,72456,2,0,L|214:96,1,99.9999999999999,0|2,3:2|3:3,0:0:0:0:
262,172,73001,6,0,L|326:164,1,50,0|2,3:2|3:3,0:0:0:0:
385,97,73411,1,0,3:2:0:0:
385,97,73547,2,0,L|490:109,2,99.9999999999999,10|2|2,3:2|3:3|3:3,0:0:0:0:
311,165,74365,6,0,P|302:229|358:306,1,150,6|2,3:3|3:2,0:0:0:0:
393,313,74910,2,0,L|455:304,1,50,0|0,3:2|3:2,0:0:0:0:
490,321,75183,2,0,L|499:206,1,99.9999999999999,10|2,3:2|3:2,0:0:0:0:
420,157,75729,1,0,3:0:0:0:
320,165,76001,6,0,L|159:177,1,150,2|2,3:3|3:2,0:0:0:0:
120,179,76547,2,0,L|110:235,1,50,0|0,3:2|3:2,0:0:0:0:
103,277,76819,2,0,L|223:289,2,99.9999999999999,10|2|2,3:2|3:2|3:2,0:0:0:0:
21,217,77638,6,0,L|49:13,1,200,6|2,3:3|3:3,0:0:0:0:
147,26,78456,2,0,L|351:54,1,200,6|2,3:3|3:3,0:0:0:0:
332,152,79274,6,0,L|310:315,1,150,6|2,3:3|3:3,0:0:0:0:
166,336,80092,2,0,P|142:299|146:228,2,99.9999999999999,2|2|2,3:3|3:2|3:3,0:0:0:0:
234,263,80910,6,0,L|216:109,1,150,2|2,3:3|3:3,0:0:0:0:
287,0,81729,2,0,P|311:37|307:108,2,99.9999999999999,2|2|0,3:3|3:2|3:2,0:0:0:0:
216,70,82547,6,0,L|108:59,2,99.9999999999999,6|0|0,3:3|3:2|3:2,0:0:0:0:
203,169,83365,2,0,L|91:158,1,99.9999999999999,2|2,3:3|3:2,0:0:0:0:
28,225,83910,1,2,3:2:0:0:
73,308,84183,5,6,3:2:0:0:
256,192,84251,12,0,87388,2:2:0:0:
