osu file format v14

[General]
AudioFilename: audio.mp3
AudioLeadIn: 0
PreviewTime: 65772
Countdown: 0
SampleSet: Soft
StackLeniency: 0.7
Mode: 2
LetterboxInBreaks: 0
WidescreenStoryboard: 1

[Editor]
Bookmarks: 8840,17022,25204,33386,41568,49749,66113,88613,96795
DistanceSpacing: 1.2
BeatDivisor: 4
GridSize: 4
TimelineZoom: 1.6

[Metadata]
Title:Txilrcka
TitleUnicode:Txilrcka
Artist:Shikata Akiko
ArtistUnicode:志方あきこ
Creator:ZiRoX
Version:Salad
Source:わるい王様とりっぱな勇者
Tags:rpg role playing side scroller 日本一 nippon1software nippon ichi software NISA NIS America the cruel king and the great hero Deif Bastian Jorkseljund videogame video game vgm ost original soundtrack conlang
BeatmapID:3568664
BeatmapSetID:1744829

[Difficulty]
HPDrainRate:4
CircleSize:2.7
OverallDifficulty:7
ApproachRate:7
SliderMultiplier:1.35
SliderTickRate:1

[Events]
//Background and Video events
0,0,"hero.jpg",0,0
//Break Periods
//Storyboard Layer 0 (Background)
//Storyboard Layer 1 (Fail)
//Storyboard Layer 2 (Pass)
//Storyboard Layer 3 (Foreground)
//Storyboard Layer 4 (Overlay)
//Storyboard Sound Samples

[TimingPoints]
659,340.909090909091,3,2,1,30,1,0
659,-125,3,2,1,30,0,0
8840,-100,3,2,1,35,0,0
17022,-125,3,2,1,20,0,0
25204,-111.111111111111,3,2,1,25,0,0
33386,-100,3,2,1,35,0,0
49749,-111.111111111111,3,2,1,20,0,0
50090,-111.111111111111,3,2,1,15,0,0
65943,-111.111111111111,3,2,1,40,0,0
66113,-90.9090909090909,3,2,1,50,0,1
85545,-90.9090909090909,3,2,1,55,0,1
86525,-90.9090909090909,3,2,1,60,0,1
88613,-100,3,2,1,40,0,0
96795,-100,3,2,1,35,0,0
104977,-100,3,2,1,20,0,0
111113,359.281437125748,3,2,1,20,1,0
111472,434.782608695653,3,2,1,20,1,0
111907,526.315789473685,3,2,1,20,1,0
112696,-100,3,2,1,15,0,0
113485,-100,3,2,1,10,0,0
115064,-100,3,2,1,5,0,0

[Colours]
Combo1 : 148,199,149
Combo2 : 123,213,255
Combo3 : 255,227,134
Combo4 : 255,149,149

[HitObjects]
364,296,659,6,0,L|364:176,1,108,2|2,0:3|0:0,0:0:0:0:
308,188,1170,1,2,0:0:0:0:
252,188,1340,1,2,0:0:0:0:
140,188,1681,6,0,L|260:188,1,108,2|2,0:0|0:0,0:0:0:0:
356,204,2363,1,2,0:0:0:0:
300,204,2534,1,0,0:0:0:0:
244,200,2704,6,0,L|112:200,1,108,8|2,0:3|0:0,0:0:0:0:
80,116,3215,2,0,L|200:116,1,108,2|2,0:0|0:0,0:0:0:0:
248,116,3727,6,0,L|372:116,2,108,2|2|2,0:0|0:0|0:0,0:0:0:0:
136,172,4749,6,0,L|136:284,1,108,2|2,0:3|0:0,0:0:0:0:
192,284,5260,1,2,0:0:0:0:
248,284,5430,1,2,0:0:0:0:
356,284,5771,6,0,L|248:284,1,108,2|2,0:0|0:0,0:0:0:0:
140,284,6453,1,2,0:0:0:0:
140,284,6624,1,0,0:0:0:0:
196,200,6794,6,0,L|316:200,1,108,8|2,0:3|0:0,0:0:0:0:
360,200,7305,2,0,L|360:80,1,108,2|2,0:0|0:0,0:0:0:0:
304,96,7818,1,2,0:0:0:0:
250,101,7988,1,0,0:0:0:0:
203,127,8158,1,0,1:0:0:0:
169,168,8329,1,0,1:0:0:0:
152,219,8499,1,2,1:2:0:0:
380,104,8840,6,0,L|380:248,1,135,6|2,1:3|1:2,0:0:0:0:
312,240,9351,1,2,1:2:0:0:
244,240,9521,1,2,0:0:0:0:
176,244,9693,1,2,1:2:0:0:
112,160,9862,6,0,L|252:160,1,135,2|2,1:2|1:2,0:0:0:0:
384,164,10544,1,8,1:2:0:0:
156,160,10885,6,0,L|156:304,1,135,8|2,1:3|1:2,0:0:0:0:
224,292,11397,2,0,L|368:292,1,135,2|2,1:2|1:2,0:0:0:0:
428,308,11909,5,2,1:2:0:0:
428,252,12079,1,0,0:0:0:0:
360,236,12249,1,2,1:2:0:0:
360,168,12420,1,0,1:0:0:0:
428,132,12590,1,10,1:2:0:0:
200,280,12931,6,0,L|200:136,1,135,2|2,1:3|1:2,0:0:0:0:
268,144,13442,1,2,1:2:0:0:
336,144,13612,1,2,0:0:0:0:
404,140,13784,1,2,1:2:0:0:
468,224,13953,6,0,L|328:224,1,135,2|2,1:2|1:2,0:0:0:0:
200,224,14636,1,10,1:2:0:0:
428,224,14977,6,0,L|428:80,1,135,8|2,1:3|1:2,0:0:0:0:
360,96,15488,1,0,1:0:0:0:
292,96,15659,1,2,0:0:0:0:
152,100,15999,6,0,L|152:240,1,135,2|8,1:2|1:2,0:0:0:0:
220,232,16511,1,0,0:0:0:0:
288,232,16681,1,2,1:0:0:0:
472,328,17022,6,0,L|356:328,1,108,6|0,0:3|0:0,0:0:0:0:
256,328,17704,1,2,0:0:0:0:
148,332,18045,6,0,L|148:224,1,108,2|0,0:0|0:0,0:0:0:0:
256,184,18727,1,2,0:0:0:0:
312,184,18897,1,2,0:0:0:0:
368,184,19068,6,0,P|345:101|228:40,1,216,2|2,0:0|0:0,0:0:0:0:
184,40,19920,1,2,0:0:0:0:
128,44,20090,6,0,L|128:156,1,108,2|0,0:0|0:0,0:0:0:0:
240,148,20772,1,0,0:0:0:0:
132,148,21113,6,0,L|260:148,1,108,2|0,0:0|0:0,0:0:0:0:
348,152,21795,1,2,0:0:0:0:
240,240,22136,6,0,L|368:240,1,108,2|0,0:0|0:0,0:0:0:0:
456,240,22818,1,0,0:0:0:0:
336,144,23159,5,2,0:3:0:0:
456,144,23499,1,2,0:0:0:0:
336,144,23841,1,0,0:0:0:0:
228,144,24181,5,2,0:0:0:0:
172,144,24351,1,2,0:0:0:0:
228,144,24521,1,2,0:0:0:0:
336,144,24863,1,0,0:0:0:0:
116,148,25204,6,0,L|116:280,1,121.499996292114,8|2,0:3|0:0,0:0:0:0:
236,272,25886,1,2,0:0:0:0:
360,100,26227,6,0,L|216:100,1,121.499996292114,0|2,0:0|0:0,0:0:0:0:
116,100,26909,1,2,0:0:0:0:
116,168,27079,1,0,0:0:0:0:
176,168,27249,6,0,L|300:168,1,121.499996292114,0|2,0:0|0:0,0:0:0:0:
420,164,27932,1,2,0:0:0:0:
204,168,28272,6,0,L|204:304,1,121.499996292114,0|2,0:0|0:0,0:0:0:0:
328,288,28954,1,2,0:0:0:0:
204,192,29295,6,0,L|328:192,1,121.499996292114,8|2,0:3|0:0,0:0:0:0:
204,192,29977,1,0,0:0:0:0:
324,104,30318,6,0,L|196:104,1,121.499996292114,2|2,0:3|0:0,0:0:0:0:
52,104,31170,1,0,0:0:0:0:
52,104,31341,5,2,0:0:0:0:
204,104,31710,1,2,0:3:0:0:
408,148,32534,1,0,1:0:0:0:
439,190,32704,1,0,1:0:0:0:
440,243,32874,1,0,1:0:0:0:
408,286,33045,1,0,1:0:0:0:
357,301,33215,1,0,1:0:0:0:
196,300,33386,6,0,L|196:156,1,135,6|0,1:3|1:0,0:0:0:0:
264,168,33897,1,0,1:0:0:0:
332,168,34068,1,2,0:0:0:0:
468,76,34409,6,0,L|328:76,1,135,2|0,1:2|1:0,0:0:0:0:
264,72,34920,1,0,0:0:0:0:
196,72,35091,1,10,1:2:0:0:
424,76,35431,6,0,L|423:228,1,135,2|0,1:3|1:0,0:0:0:0:
356,208,35942,1,0,1:0:0:0:
288,208,36113,1,2,0:2:0:0:
152,284,36454,6,0,L|292:284,1,135,2|2,1:2|1:2,0:0:0:0:
356,284,36965,1,0,1:0:0:0:
424,284,37136,1,10,1:2:0:0:
196,240,37477,6,0,L|196:96,1,135,2|0,1:3|1:0,0:0:0:0:
264,108,37988,1,0,1:0:0:0:
332,108,38159,1,2,1:2:0:0:
468,44,38499,6,0,L|324:44,1,135,2|0,1:2|1:0,0:0:0:0:
264,48,39011,1,0,0:0:0:0:
196,48,39182,1,8,1:2:0:0:
424,152,39522,6,0,L|288:152,1,135,10|2,1:0|1:2,0:0:0:0:
424,152,40204,1,0,0:0:0:0:
196,156,40545,5,2,1:2:0:0:
196,212,40715,1,2,1:2:0:0:
196,276,40885,1,8,1:0:0:0:
332,276,41227,1,10,1:2:0:0:
104,272,41568,6,0,L|104:136,1,135,6|0,1:3|1:0,0:0:0:0:
172,140,42079,1,0,1:0:0:0:
240,140,42250,1,2,0:0:0:0:
376,216,42590,6,0,L|236:216,1,135,2|0,1:2|1:0,0:0:0:0:
172,220,43102,1,0,0:0:0:0:
104,220,43273,1,10,1:2:0:0:
332,224,43613,6,0,L|332:76,1,135,2|0,1:3|1:0,0:0:0:0:
264,92,44124,1,0,1:0:0:0:
196,92,44296,1,2,0:2:0:0:
60,288,44636,6,0,L|200:288,1,135,2|10,1:2|1:0,0:0:0:0:
264,288,45147,1,0,1:0:0:0:
332,288,45318,1,10,1:2:0:0:
104,280,45659,6,0,L|240:280,1,135,10|0,1:0|1:0,0:0:0:0:
308,280,46170,1,0,1:0:0:0:
376,280,46341,1,0,0:0:0:0:
496,280,46681,6,0,L|496:136,1,135,10|0,1:0|1:0,0:0:0:0:
428,148,47193,1,0,1:0:0:0:
360,148,47364,1,8,1:2:0:0:
132,152,47704,6,0,P|118:269|196:320,1,202.5,10|0,1:0|1:0,0:0:0:0:
244,324,48386,2,0,L|328:324,1,67.5,0|0,0:0|1:0,0:0:0:0:
376,324,48727,5,10,1:0:0:0:
244,240,49067,1,10,1:2:0:0:
376,244,49409,1,0,0:0:0:0:
144,244,49749,5,4,0:3:0:0:
264,244,50090,1,2,0:0:0:0:
324,244,50261,1,2,0:0:0:0:
264,244,50431,1,2,0:0:0:0:
144,244,50772,5,2,0:0:0:0:
264,244,51113,1,2,0:0:0:0:
324,244,51284,1,2,0:0:0:0:
264,244,51454,1,2,0:0:0:0:
144,196,51795,6,0,L|392:196,1,242.999992584229,2|2,0:0|0:0,0:0:0:0:
496,292,52818,6,0,L|248:292,1,242.999992584229,2|2,0:0|0:0,0:0:0:0:
376,244,53840,5,8,0:3:0:0:
256,244,54181,1,2,0:0:0:0:
196,244,54352,1,2,0:0:0:0:
256,244,54522,1,2,0:0:0:0:
376,244,54863,5,2,0:0:0:0:
256,244,55204,1,2,0:0:0:0:
196,244,55375,1,2,0:0:0:0:
256,244,55545,1,2,0:0:0:0:
380,184,55886,5,2,0:0:0:0:
260,180,56227,1,2,0:0:0:0:
380,184,56568,1,2,0:0:0:0:
260,108,56909,6,0,L|396:108,2,121.499996292114,2|2|2,0:3|0:0|0:0,0:0:0:0:
480,128,57931,5,2,0:3:0:0:
360,124,58272,1,2,0:0:0:0:
300,124,58443,1,2,0:0:0:0:
240,124,58613,1,2,0:0:0:0:
364,208,58954,5,2,0:0:0:0:
244,208,59295,1,2,0:0:0:0:
304,208,59465,1,2,0:0:0:0:
364,208,59636,1,2,0:0:0:0:
484,304,59977,6,0,L|240:304,1,242.999992584229,2|2,0:0|0:0,0:0:0:0:
120,224,61000,2,0,P|144:116|216:96,1,182.249994438172,2|2,0:0|0:0,0:0:0:0:
264,92,61681,1,2,0:0:0:0:
32,128,62022,5,8,0:3:0:0:
152,124,62363,1,2,0:0:0:0:
212,124,62534,1,2,0:0:0:0:
272,124,62704,1,2,0:0:0:0:
148,208,63045,5,2,0:0:0:0:
268,208,63386,1,2,0:0:0:0:
208,208,63556,1,2,0:0:0:0:
148,208,63727,1,2,0:0:0:0:
368,208,64068,5,2,0:3:0:0:
204,208,64579,1,2,0:0:0:0:
204,208,64750,1,2,0:0:0:0:
364,152,65090,6,0,P|424:252|360:360,1,242.999992584229,8|0,0:3|0:0,0:0:0:0:
296,360,65943,1,0,1:0:0:0:
132,356,66113,6,0,L|132:208,1,148.50000453186,6|2,1:3|1:2,0:0:0:0:
276,212,66795,1,10,1:2:0:0:
204,212,66965,1,0,1:0:0:0:
132,208,67136,6,0,L|132:48,1,148.50000453186,0|2,1:0|1:2,0:0:0:0:
280,28,67818,1,10,1:2:0:0:
352,28,67988,1,0,0:0:0:0:
204,136,68159,6,0,L|44:136,2,148.50000453186,2|2|10,1:3|1:2|1:2,0:0:0:0:
352,152,69181,6,0,L|440:152,1,74.2500022659302,0|0,1:0|1:0,0:0:0:0:
352,152,69522,1,2,1:2:0:0:
204,156,69863,2,0,L|204:248,1,74.2500022659302,10|0,1:2|1:0,0:0:0:0:
352,236,70204,6,0,L|352:396,1,148.50000453186,6|2,1:3|1:2,0:0:0:0:
200,368,70886,1,10,1:2:0:0:
200,300,71056,1,0,1:0:0:0:
336,108,71227,6,0,L|180:108,2,148.50000453186,8|2|10,1:0|1:2|1:2,0:0:0:0:
104,108,72249,6,0,L|104:272,1,148.50000453186,2|2,1:3|1:2,0:0:0:0:
256,256,72931,1,10,1:2:0:0:
320,256,73102,1,0,1:0:0:0:
388,256,73272,6,0,L|388:104,1,148.50000453186,0|2,1:0|1:2,0:0:0:0:
240,120,73954,1,10,1:2:0:0:
240,188,74124,1,0,1:0:0:0:
388,192,74295,6,0,L|388:364,1,148.50000453186,6|2,1:3|1:2,0:0:0:0:
240,336,74977,1,10,1:2:0:0:
168,336,75147,1,0,1:0:0:0:
96,292,75318,6,0,L|96:120,1,148.50000453186,0|2,1:0|1:2,0:0:0:0:
248,136,76000,1,10,1:2:0:0:
324,136,76170,1,0,0:0:0:0:
176,64,76340,6,0,L|24:64,2,148.50000453186,2|2|10,1:3|1:2|1:2,0:0:0:0:
324,216,77363,6,0,L|404:216,2,74.2500022659302,0|0|2,1:0|1:0|1:2,0:0:0:0:
172,216,78045,2,0,L|88:216,1,74.2500022659302,10|0,1:2|1:0,0:0:0:0:
248,144,78386,6,0,L|404:144,1,148.50000453186,6|2,1:3|1:2,0:0:0:0:
248,144,79068,1,10,1:2:0:0:
480,248,79409,6,0,L|320:248,2,148.50000453186,2|2|10,1:2|1:2|1:2,0:0:0:0:
328,272,80431,2,0,P|244:236|288:48,1,297.000009063721,2|10,1:3|1:2,0:0:0:0:
436,48,81454,6,0,P|472:128|448:200,1,148.50000453186,0|2,1:0|1:2,0:0:0:0:
384,192,81966,1,0,1:0:0:0:
308,192,82136,1,10,1:2:0:0:
72,192,82477,6,0,L|228:192,2,148.50000453186,6|2|10,1:3|1:2|1:2,0:0:0:0:
228,192,83499,6,0,L|316:192,2,74.2500022659302,8|8|8,1:2|1:2|1:2,0:0:0:0:
152,192,84011,1,2,0:2:0:0:
76,192,84181,1,2,0:0:0:0:
312,192,84522,6,0,P|320:256|88:304,1,371.250011329651,4|0,1:0|0:0,0:0:0:0:
28,272,85545,6,0,P|60:164|292:140,1,371.250011329651,4|0,0:0|0:0,0:0:0:0:
360,172,86568,5,12,1:2:0:0:
228,256,86909,1,8,1:2:0:0:
228,256,87079,1,8,1:2:0:0:
368,280,87420,1,8,1:2:0:0:
368,280,87590,1,8,1:2:0:0:
144,276,87931,1,8,1:2:0:0:
292,280,88272,1,0,1:0:0:0:
64,280,88613,5,12,1:3:0:0:
192,280,88897,1,2,1:2:0:0:
192,280,88982,1,2,1:2:0:0:
192,280,89124,1,2,1:2:0:0:
192,280,89295,1,2,1:2:0:0:
192,280,89465,1,2,1:2:0:0:
104,280,89636,5,2,1:2:0:0:
236,228,89977,1,2,1:2:0:0:
368,228,90318,1,10,1:2:0:0:
140,144,90659,5,2,1:3:0:0:
272,144,90999,1,2,1:2:0:0:
340,144,91170,1,2,1:2:0:0:
472,144,91511,1,2,1:2:0:0:
472,216,91681,5,2,1:2:0:0:
340,144,92022,1,2,1:2:0:0:
204,144,92363,1,10,1:2:0:0:
448,280,92704,5,8,1:3:0:0:
320,280,92988,1,2,1:2:0:0:
320,280,93073,1,2,1:2:0:0:
320,280,93215,1,2,1:0:0:0:
320,280,93386,1,2,1:0:0:0:
320,280,93556,1,2,1:0:0:0:
408,280,93727,5,2,1:0:0:0:
272,280,94068,1,2,1:0:0:0:
408,280,94409,1,10,1:2:0:0:
176,168,94750,5,2,1:3:0:0:
312,172,95090,1,2,0:0:0:0:
380,172,95261,1,10,1:0:0:0:
240,100,95602,1,2,0:0:0:0:
172,100,95772,5,10,1:0:0:0:
308,100,96113,1,2,1:2:0:0:
172,100,96454,1,2,1:0:0:0:
404,100,96795,6,0,L|404:244,1,135,6|2,1:3|1:2,0:0:0:0:
336,232,97306,1,2,1:2:0:0:
268,232,97476,1,2,0:0:0:0:
200,232,97647,1,2,1:2:0:0:
136,308,97817,6,0,L|276:308,1,135,2|2,1:2|1:2,0:0:0:0:
408,312,98499,1,8,1:2:0:0:
408,240,98670,1,0,1:0:0:0:
264,260,98840,6,0,L|264:116,1,135,8|2,1:3|1:2,0:0:0:0:
336,128,99351,2,0,L|492:128,1,135,2|2,1:2|1:2,0:0:0:0:
404,48,99864,5,2,1:2:0:0:
336,48,100034,1,0,0:0:0:0:
336,48,100204,1,2,1:2:0:0:
404,48,100374,1,0,1:0:0:0:
336,48,100545,1,10,1:2:0:0:
108,100,100886,6,0,L|108:244,1,135,2|2,1:3|1:2,0:0:0:0:
176,232,101397,1,2,1:2:0:0:
244,232,101567,1,2,0:0:0:0:
312,232,101738,1,2,1:2:0:0:
376,308,101908,6,0,L|236:308,2,135,2|2|10,1:2|1:2|1:2,0:0:0:0:
144,168,102932,6,0,L|284:168,2,135,8|2|2,1:3|1:2|0:0,0:0:0:0:
276,232,103954,5,2,1:2:0:0:
344,232,104124,1,0,0:0:0:0:
412,232,104294,1,8,1:2:0:0:
276,232,104636,1,2,1:0:0:0:
52,232,104977,5,6,0:3:0:0:
256,236,105999,1,2,0:0:0:0:
444,236,106681,1,2,0:0:0:0:
444,236,107022,1,2,0:0:0:0:
252,228,107704,1,2,0:0:0:0:
148,228,108045,1,2,0:0:0:0:
252,228,108386,1,2,0:0:0:0:
148,228,108727,1,2,0:0:0:0:
372,160,109068,5,4,0:0:0:0:
172,160,110090,1,2,0:0:0:0:
352,228,110772,1,2,0:0:0:0:
232,172,111113,1,2,0:0:0:0:
332,128,111472,1,2,0:0:0:0:
240,64,111907,1,2,0:0:0:0:
436,72,112433,1,2,0:0:0:0:
256,192,112696,12,0,115064,0:0:0:0:
