osu file format v14

[General]
AudioFilename: audio.mp3
AudioLeadIn: 0
PreviewTime: 65772
Countdown: 0
SampleSet: Soft
StackLeniency: 0.7
Mode: 2
LetterboxInBreaks: 0
WidescreenStoryboard: 0

[Editor]
Bookmarks: 8840,17022,25204,33386,41568,49749,66113,74295,88613,96795
DistanceSpacing: 1.2
BeatDivisor: 4
GridSize: 4
TimelineZoom: 1.6

[Metadata]
Title:Txilrcka
TitleUnicode:Txilrcka
Artist:Shikata Akiko
ArtistUnicode:志方あきこ
Creator:ZiRoX
Version:Rain
Source:わるい王様とりっぱな勇者
Tags:rpg role playing side scroller 日本一 nippon1software nippon ichi software NISA NIS America the cruel king and the great hero Deif Bastian Jorkseljund videogame video game vgm ost original soundtrack conlang
BeatmapID:3568663
BeatmapSetID:1744829

[Difficulty]
HPDrainRate:6
CircleSize:2
OverallDifficulty:9
ApproachRate:9
SliderMultiplier:1.7
SliderTickRate:1

[Events]
//Background and Video events
0,0,"hero.jpg",0,0
//Break Periods
//Storyboard Layer 0 (Background)
//Storyboard Layer 1 (Fail)
//Storyboard Layer 2 (Pass)
//Storyboard Layer 3 (Foreground)
//Storyboard Layer 4 (Overlay)
//Storyboard Sound Samples

[TimingPoints]
659,340.909090909091,3,2,1,30,1,0
659,-125,3,2,1,30,0,0
8840,-100,3,2,1,35,0,0
17022,-125,3,2,1,20,0,0
25204,-111.111111111111,3,2,1,25,0,0
33386,-100,3,2,1,35,0,0
49749,-111.111111111111,3,2,1,20,0,0
50090,-111.111111111111,3,2,1,15,0,0
65943,-111.111111111111,3,2,1,40,0,0
66113,-83.3333333333333,3,2,1,50,0,1
71227,-55.5555555555556,3,2,1,50,0,1
72079,-83.3333333333333,3,2,1,50,0,1
85545,-83.3333333333333,3,2,1,55,0,1
86525,-83.3333333333333,3,2,1,60,0,1
88613,-100,3,2,1,40,0,0
96795,-100,3,2,1,35,0,0
104977,-100,3,2,1,20,0,0
111113,359.281437125748,3,2,1,20,1,0
111472,434.782608695653,3,2,1,20,1,0
111907,526.315789473685,3,2,1,20,1,0
112696,-100,3,2,1,15,0,0
113485,-100,3,2,1,10,0,0
115064,-100,3,2,1,5,0,0

[Colours]
Combo1 : 148,199,149
Combo2 : 123,213,255
Combo3 : 255,227,134
Combo4 : 255,149,149

[HitObjects]
360,296,659,6,0,L|360:152,1,136,2|2,0:3|0:0,0:0:0:0:
288,160,1170,1,2,0:0:0:0:
360,160,1340,1,2,0:0:0:0:
360,160,1511,1,2,0:0:0:0:
200,152,1681,6,0,L|200:232,1,68,2|0,0:0|0:0,0:0:0:0:
240,216,1937,1,0,0:0:0:0:
280,216,2022,1,2,0:0:0:0:
352,216,2193,1,0,0:0:0:0:
264,136,2363,1,2,0:0:0:0:
352,136,2534,1,0,0:0:0:0:
96,136,2704,6,0,L|96:296,1,136,8|2,0:3|0:0,0:0:0:0:
256,296,3215,2,0,L|104:296,1,136,2|2,0:0|0:0,0:0:0:0:
288,216,3727,6,0,L|288:136,1,68,2|0,0:0|0:0,0:0:0:0:
248,152,3982,1,0,0:0:0:0:
208,152,4068,1,2,0:0:0:0:
136,152,4238,1,0,0:0:0:0:
224,72,4409,1,2,0:0:0:0:
136,72,4579,1,0,0:0:0:0:
392,288,4749,6,0,L|392:120,1,136,2|2,0:3|0:0,0:0:0:0:
320,152,5260,1,2,0:0:0:0:
248,152,5430,1,2,0:0:0:0:
176,152,5601,1,2,0:0:0:0:
336,152,5771,6,0,L|336:232,1,68,2|0,0:0|0:0,0:0:0:0:
304,216,6027,1,0,0:0:0:0:
264,216,6112,1,2,0:0:0:0:
184,216,6283,1,0,0:0:0:0:
272,136,6453,1,2,0:0:0:0:
184,216,6624,1,0,0:0:0:0:
440,136,6795,6,0,L|440:296,1,136,8|2,0:3|0:0,0:0:0:0:
280,296,7306,2,0,L|432:296,1,136,2|2,0:0|0:0,0:0:0:0:
160,208,7817,6,0,L|160:128,1,68,2|0,0:0|0:0,0:0:0:0:
200,128,8072,1,0,0:0:0:0:
360,128,8158,1,0,1:0:0:0:
272,128,8328,1,0,1:0:0:0:
440,128,8499,1,2,1:2:0:0:
440,224,8669,1,0,0:0:0:0:
141,288,8840,6,0,L|144:112,1,170,6|2,1:3|1:2,0:0:0:0:
192,128,9266,1,0,0:0:0:0:
240,128,9351,1,2,1:2:0:0:
328,128,9521,1,2,0:0:0:0:
240,128,9692,1,2,1:2:0:0:
496,128,9862,6,0,L|496:216,1,85,2|0,1:2|0:0,0:0:0:0:
320,200,10203,1,2,1:2:0:0:
352,200,10261,1,0,0:0:0:0:
384,200,10318,1,0,0:0:0:0:
416,200,10374,1,0,0:0:0:0:
248,112,10544,1,8,1:2:0:0:
344,112,10715,1,0,1:0:0:0:
88,208,10885,6,0,L|264:208,1,170,8|2,1:3|1:2,0:0:0:0:
424,296,11396,2,0,L|248:296,1,170,2|2,1:2|1:2,0:0:0:0:
88,288,11908,6,0,L|88:200,1,85,2|0,1:2|0:0,0:0:0:0:
136,208,12163,1,0,0:0:0:0:
184,208,12249,1,2,1:2:0:0:
80,144,12419,1,0,1:0:0:0:
184,144,12590,1,10,1:2:0:0:
80,144,12760,1,0,0:0:0:0:
432,288,12931,6,0,L|432:112,1,170,2|2,1:3|1:2,0:0:0:0:
400,120,13329,1,0,0:0:0:0:
368,120,13386,1,0,0:0:0:0:
336,120,13442,1,2,1:2:0:0:
168,120,13612,1,2,0:0:0:0:
280,120,13783,1,2,1:2:0:0:
32,144,13953,6,0,L|128:144,1,85,2|0,1:2|0:0,0:0:0:0:
160,144,14209,1,0,0:0:0:0:
328,144,14294,1,2,1:2:0:0:
416,144,14465,1,0,0:0:0:0:
240,208,14635,1,10,1:2:0:0:
152,208,14806,1,0,1:0:0:0:
416,136,14976,6,0,L|416:248,1,85,8|0,1:3|0:0,0:0:0:0:
248,224,15318,2,0,L|248:328,1,85,2|0,1:2|1:0,0:0:0:0:
80,192,15659,2,0,L|80:88,1,85,2|0,0:0|1:0,0:0:0:0:
352,136,15999,6,0,L|352:224,1,85,2|0,1:2|0:0,0:0:0:0:
192,224,16340,1,8,1:2:0:0:
272,224,16510,1,0,0:0:0:0:
344,224,16681,1,2,1:0:0:0:
416,224,16851,1,0,0:0:0:0:
160,304,17022,6,0,L|158:150,1,136,6|0,0:3|0:0,0:0:0:0:
296,168,17704,1,2,0:0:0:0:
72,224,18045,6,0,L|240:224,1,136,2|0,0:0|0:0,0:0:0:0:
352,216,18727,1,2,0:0:0:0:
352,216,18897,1,2,0:0:0:0:
192,216,19068,6,0,L|191:55,1,136,2|0,0:0|0:0,0:0:0:0:
352,80,19750,1,2,0:0:0:0:
272,80,19920,1,2,0:0:0:0:
191,80,20090,6,0,L|192:216,1,136,2|0,0:0|0:0,0:0:0:0:
336,216,20772,1,0,0:0:0:0:
104,224,21113,6,0,L|104:61,1,136,2|0,0:0|0:0,0:0:0:0:
240,96,21795,1,2,0:0:0:0:
464,280,22136,6,0,L|312:280,1,136,2|0,0:0|0:0,0:0:0:0:
184,280,22818,1,0,0:0:0:0:
448,128,23159,5,2,0:3:0:0:
200,128,23499,1,2,0:0:0:0:
344,128,23841,1,0,0:0:0:0:
64,128,24181,5,2,0:0:0:0:
144,128,24351,1,2,0:0:0:0:
224,128,24521,1,2,0:0:0:0:
64,128,24863,1,0,0:0:0:0:
488,304,25204,6,0,L|312:304,1,152.999995330811,8|2,0:3|0:0,0:0:0:0:
176,304,25886,1,2,0:0:0:0:
432,208,26227,6,0,L|256:208,1,152.999995330811,0|2,0:0|0:0,0:0:0:0:
128,208,26909,1,2,0:0:0:0:
128,208,27079,1,0,0:0:0:0:
304,208,27250,6,0,L|303:33,1,152.999995330811,0|2,0:0|0:0,0:0:0:0:
152,56,27932,1,2,0:0:0:0:
440,120,28272,6,0,L|272:120,1,152.999995330811,0|2,0:0|0:0,0:0:0:0:
128,128,28954,1,2,0:0:0:0:
392,312,29295,6,0,L|216:312,2,152.999995330811,8|2|0,0:3|0:0|0:0,0:0:0:0:
112,312,30318,6,0,L|288:312,2,152.999995330811,2|2|0,0:3|0:0|0:0,0:0:0:0:
112,240,31170,1,0,0:0:0:0:
360,240,31341,5,2,0:0:0:0:
192,240,31710,1,2,0:3:0:0:
408,148,32534,1,0,1:0:0:0:
408,184,32619,1,0,1:0:0:0:
272,192,32704,1,0,1:0:0:0:
272,240,32874,1,0,1:0:0:0:
408,286,33045,1,0,1:0:0:0:
408,232,33215,1,0,1:0:0:0:
112,304,33386,6,0,L|112:120,1,170,6|0,1:3|1:0,0:0:0:0:
200,136,33897,1,0,1:0:0:0:
288,136,34068,1,2,0:0:0:0:
376,136,34238,1,0,1:0:0:0:
200,304,34409,6,0,L|200:120,1,170,2|0,1:2|1:0,0:0:0:0:
288,136,34920,1,0,0:0:0:0:
192,136,35091,1,10,1:2:0:0:
104,136,35261,1,2,1:2:0:0:
352,304,35432,6,0,L|352:120,1,170,2|0,1:3|1:0,0:0:0:0:
272,136,35943,1,0,1:0:0:0:
184,136,36114,1,2,0:2:0:0:
96,136,36284,1,2,1:2:0:0:
344,304,36454,6,0,L|344:120,1,170,2|2,1:2|1:2,0:0:0:0:
192,136,36965,1,0,1:0:0:0:
344,134,37136,1,10,1:2:0:0:
344,56,37306,1,0,0:0:0:0:
96,280,37477,6,0,L|272:280,1,170,2|0,1:3|1:0,0:0:0:0:
352,280,37988,1,0,1:0:0:0:
266,280,38159,1,2,1:2:0:0:
176,280,38329,1,0,1:0:0:0:
352,280,38500,6,0,L|352:96,1,170,2|0,1:2|1:0,0:0:0:0:
264,112,39011,1,0,0:0:0:0:
176,112,39182,1,8,1:2:0:0:
96,112,39352,1,0,0:0:0:0:
344,120,39522,6,0,L|440:120,1,85,10|0,1:0|0:0,0:0:0:0:
184,192,39863,2,0,L|80:192,1,85,2|0,1:2|1:0,0:0:0:0:
16,192,40204,2,0,L|16:288,1,85,0|0,0:0|1:0,0:0:0:0:
264,272,40545,5,2,1:2:0:0:
264,184,40715,1,2,1:2:0:0:
432,184,40885,1,8,1:0:0:0:
432,112,41056,1,0,1:0:0:0:
264,136,41227,1,10,1:2:0:0:
176,136,41397,1,0,1:0:0:0:
440,320,41568,6,0,L|264:320,1,170,6|0,1:3|1:0,0:0:0:0:
176,320,42079,1,0,1:0:0:0:
270,320,42250,1,2,0:0:0:0:
360,320,42420,1,0,1:0:0:0:
176,320,42591,6,0,L|176:136,1,170,2|0,1:2|1:0,0:0:0:0:
272,160,43102,1,0,0:0:0:0:
184,160,43273,1,10,1:2:0:0:
96,160,43443,1,2,1:2:0:0:
368,72,43614,6,0,L|368:264,1,170,2|0,1:3|1:0,0:0:0:0:
280,232,44125,1,0,1:0:0:0:
192,232,44296,1,2,0:2:0:0:
104,232,44466,1,2,1:2:0:0:
376,312,44636,6,0,L|200:312,1,170,2|10,1:2|1:0,0:0:0:0:
120,312,45147,1,0,1:0:0:0:
40,312,45318,1,10,1:2:0:0:
120,312,45488,1,0,1:0:0:0:
384,296,45659,6,0,L|208:296,1,170,10|0,1:0|1:0,0:0:0:0:
128,224,46170,1,0,1:0:0:0:
216,224,46341,1,0,0:0:0:0:
304,224,46511,1,0,1:0:0:0:
128,296,46681,6,0,L|304:296,1,170,10|0,1:0|1:0,0:0:0:0:
384,224,47192,1,0,1:0:0:0:
296,224,47363,1,8,1:2:0:0:
208,224,47533,1,0,1:0:0:0:
384,224,47704,6,0,L|384:336,1,85,10|0,1:0|0:0,0:0:0:0:
304,312,48045,2,0,L|184:312,1,85,0|0,1:0|1:0,0:0:0:0:
48,312,48386,2,0,L|48:216,1,85,0|0,0:0|1:0,0:0:0:0:
296,144,48727,5,10,1:0:0:0:
384,152,48897,1,0,1:0:0:0:
128,144,49067,1,10,1:2:0:0:
56,200,49238,1,0,0:0:0:0:
56,272,49409,1,0,0:0:0:0:
128,328,49579,1,0,0:0:0:0:
384,328,49749,5,4,0:3:0:0:
232,328,50090,1,2,0:0:0:0:
320,328,50261,1,2,0:0:0:0:
232,328,50431,1,2,0:0:0:0:
384,212,50772,5,2,0:0:0:0:
232,212,51113,1,2,0:0:0:0:
320,212,51284,1,2,0:0:0:0:
232,212,51454,1,2,0:0:0:0:
72,216,51795,5,2,0:0:0:0:
72,216,52136,1,2,0:0:0:0:
320,216,52477,1,2,0:0:0:0:
72,216,52818,6,0,L|389:216,1,305.999990661621,2|2,0:0|0:0,0:0:0:0:
128,328,53840,5,8,0:3:0:0:
280,328,54181,1,2,0:0:0:0:
192,328,54352,1,2,0:0:0:0:
280,328,54522,1,2,0:0:0:0:
128,208,54863,5,2,0:0:0:0:
280,208,55204,1,2,0:0:0:0:
192,208,55375,1,2,0:0:0:0:
280,208,55545,1,2,0:0:0:0:
432,216,55886,5,2,0:0:0:0:
432,216,56227,1,2,0:0:0:0:
184,216,56568,1,2,0:0:0:0:
464,216,56909,5,2,0:3:0:0:
196,216,57249,1,2,0:0:0:0:
464,216,57590,1,2,0:0:0:0:
48,216,57931,5,2,0:3:0:0:
248,216,58272,1,2,0:0:0:0:
160,216,58443,1,2,0:0:0:0:
72,216,58613,1,2,0:0:0:0:
368,216,58954,5,2,0:0:0:0:
168,216,59295,1,2,0:0:0:0:
256,216,59466,1,2,0:0:0:0:
344,216,59636,1,2,0:0:0:0:
56,216,59977,5,2,0:0:0:0:
56,216,60318,1,0,0:0:0:0:
304,216,60659,1,2,0:0:0:0:
56,216,61000,6,0,L|216:216,1,152.999995330811,2|0,0:0|0:0,0:0:0:0:
128,216,61511,1,2,0:0:0:0:
48,216,61681,1,2,0:0:0:0:
464,216,62022,5,8,0:3:0:0:
260,216,62363,1,2,0:0:0:0:
348,216,62534,1,2,0:0:0:0:
436,216,62704,1,2,0:0:0:0:
144,216,63045,5,2,0:0:0:0:
344,216,63386,1,2,0:0:0:0:
256,216,63557,1,2,0:0:0:0:
168,216,63727,1,2,0:0:0:0:
456,208,64068,5,2,0:3:0:0:
136,216,64579,1,2,0:0:0:0:
136,216,64750,1,2,0:0:0:0:
441,151,65090,6,0,L|128:152,1,305.999990661621,8|0,0:3|0:0,0:0:0:0:
392,216,65943,1,0,1:0:0:0:
72,184,66113,6,0,L|280:184,1,203.999993774414,6|2,1:3|1:2,0:0:0:0:
376,188,66624,1,0,1:0:0:0:
276,184,66795,1,10,1:2:0:0:
176,184,66965,1,0,1:0:0:0:
472,184,67136,6,0,L|248:184,1,203.999993774414,0|2,1:0|1:2,0:0:0:0:
168,184,67647,1,0,1:0:0:0:
268,184,67818,1,10,1:2:0:0:
368,184,67988,1,0,0:0:0:0:
80,128,68159,6,0,L|288:128,1,203.999993774414,2|2,1:3|1:2,0:0:0:0:
384,128,68670,1,0,1:0:0:0:
200,128,68841,1,10,1:2:0:0:
200,216,69011,1,0,1:0:0:0:
480,232,69181,6,0,L|480:352,1,101.999996887207,0|0,1:0|1:0,0:0:0:0:
416,336,69437,1,0,1:0:0:0:
240,336,69522,2,0,L|240:224,1,101.999996887207,2|0,1:2|1:0,0:0:0:0:
424,200,69863,2,0,L|424:80,1,101.999996887207,10|0,1:2|1:0,0:0:0:0:
96,128,70204,6,0,L|304:128,1,203.999993774414,6|2,1:3|1:2,0:0:0:0:
400,128,70715,1,0,1:0:0:0:
216,128,70886,2,0,L|216:232,1,101.999996887207,10|0,1:2|1:0,0:0:0:0:
408,264,71227,6,0,L|96:264,2,305.999990661621,8|2|10,1:0|1:2|1:2,0:0:0:0:
416,344,72079,1,0,1:0:0:0:
120,184,72249,6,0,L|328:184,1,203.999993774414,2|2,1:3|1:2,0:0:0:0:
424,184,72761,1,0,1:0:0:0:
232,248,72931,1,10,1:2:0:0:
232,328,73102,1,0,1:0:0:0:
488,208,73272,6,0,L|264:208,1,203.999993774414,0|2,1:0|1:2,0:0:0:0:
456,208,73784,1,0,1:0:0:0:
456,208,73869,1,0,1:0:0:0:
456,208,73954,1,10,1:2:0:0:
160,208,74124,1,0,1:0:0:0:
440,288,74295,6,0,L|232:288,1,203.999993774414,6|2,1:3|1:2,0:0:0:0:
336,192,74806,1,0,1:0:0:0:
236,192,74977,1,10,1:2:0:0:
136,192,75147,1,0,1:0:0:0:
416,184,75318,6,0,L|208:184,1,203.999993774414,0|2,1:0|1:2,0:0:0:0:
312,104,75829,1,0,1:0:0:0:
212,104,76000,1,10,1:2:0:0:
312,104,76170,1,0,0:0:0:0:
68,184,76340,6,0,L|284:184,1,203.999993774414,2|2,1:3|1:2,0:0:0:0:
176,184,76852,1,0,1:0:0:0:
360,184,77023,1,10,1:2:0:0:
360,264,77193,1,0,1:0:0:0:
32,152,77363,6,0,L|32:32,1,101.999996887207,0|0,1:0|1:0,0:0:0:0:
96,48,77619,1,0,1:0:0:0:
272,48,77704,2,0,L|272:160,1,101.999996887207,2|0,1:2|1:0,0:0:0:0:
88,176,78045,2,0,L|88:288,1,101.999996887207,10|0,1:2|1:0,0:0:0:0:
344,208,78386,6,0,L|344:96,1,101.999996887207,6|0,1:3|0:0,0:0:0:0:
152,96,78727,2,0,L|264:96,1,101.999996887207,2|0,1:2|1:0,0:0:0:0:
448,96,79068,2,0,L|336:96,1,101.999996887207,10|0,1:2|1:0,0:0:0:0:
168,208,79409,6,0,L|168:96,1,101.999996887207,2|0,1:2|0:0,0:0:0:0:
360,96,79750,2,0,L|248:96,1,101.999996887207,2|0,1:2|0:0,0:0:0:0:
64,96,80091,2,0,L|176:96,1,101.999996887207,10|0,1:2|1:0,0:0:0:0:
440,184,80431,6,0,L|232:184,1,203.999993774414,2|2,1:3|1:2,0:0:0:0:
136,184,80943,1,0,1:0:0:0:
236,184,81113,1,10,1:2:0:0:
336,184,81284,1,0,1:0:0:0:
88,144,81454,6,0,L|88:352,1,203.999993774414,0|2,1:0|1:2,0:0:0:0:
252,336,81966,1,0,1:0:0:0:
88,336,82136,1,10,1:2:0:0:
88,264,82306,1,0,1:0:0:0:
440,184,82477,6,0,L|224:184,1,203.999993774414,6|2,1:3|1:2,0:0:0:0:
136,184,82988,1,0,1:0:0:0:
312,176,83159,1,10,1:2:0:0:
180,176,83329,1,0,1:0:0:0:
180,176,83414,1,0,1:0:0:0:
384,176,83499,6,0,L|256:176,2,101.999996887207,8|8|8,1:2|1:2|1:2,0:0:0:0:
280,176,84011,1,2,0:2:0:0:
480,176,84181,1,2,0:0:0:0:
40,160,84522,6,0,P|64:280|384:272,1,509.999984436036,4|0,1:0|0:0,0:0:0:0:
80,144,85545,6,0,P|168:64|456:240,1,509.999984436036,4|0,0:0|0:0,0:0:0:0:
160,248,86568,5,12,1:2:0:0:
392,248,86909,1,8,1:2:0:0:
392,248,87079,1,8,1:2:0:0:
392,248,87420,1,8,1:2:0:0:
144,248,87590,1,8,1:2:0:0:
144,248,87761,1,0,1:2:0:0:
392,248,87931,1,8,1:2:0:0:
144,248,88272,1,0,1:0:0:0:
312,248,88443,1,0,1:2:0:0:
64,248,88613,5,12,1:3:0:0:
276,248,88897,1,2,1:2:0:0:
276,248,88982,1,2,1:2:0:0:
276,248,89124,1,2,1:2:0:0:
276,248,89295,1,2,1:2:0:0:
276,248,89465,1,2,1:2:0:0:
32,248,89636,5,2,1:2:0:0:
304,248,89977,1,2,1:2:0:0:
32,248,90318,1,10,1:2:0:0:
456,248,90659,5,2,1:3:0:0:
256,248,90999,1,2,1:2:0:0:
456,248,91169,1,2,1:2:0:0:
456,248,91510,1,2,1:2:0:0:
256,248,91681,5,2,1:2:0:0:
456,248,92022,1,2,1:2:0:0:
168,248,92363,1,10,1:2:0:0:
168,312,92534,1,0,0:0:0:0:
448,248,92704,5,8,1:3:0:0:
236,248,92988,1,2,1:2:0:0:
236,248,93073,1,2,1:2:0:0:
236,248,93215,1,2,1:0:0:0:
236,248,93386,1,2,1:0:0:0:
236,248,93556,1,2,1:0:0:0:
480,248,93727,5,2,1:0:0:0:
208,248,94068,1,2,1:0:0:0:
480,248,94409,1,10,1:2:0:0:
56,248,94749,5,2,1:3:0:0:
256,248,95089,1,2,0:0:0:0:
56,248,95261,1,10,1:0:0:0:
56,248,95602,1,2,0:0:0:0:
256,248,95771,5,10,1:0:0:0:
56,248,96112,1,2,1:2:0:0:
480,248,96454,1,2,1:0:0:0:
56,248,96795,6,0,L|56:72,1,170,6|2,1:3|1:2,0:0:0:0:
232,128,97306,1,2,1:2:0:0:
312,128,97476,1,2,0:0:0:0:
312,128,97647,1,2,1:2:0:0:
120,120,97817,6,0,L|120:208,1,85,2|0,1:2|0:0,0:0:0:0:
312,208,98159,2,0,L|312:296,1,85,2|0,1:2|0:0,0:0:0:0:
120,280,98499,2,0,L|120:368,1,85,8|0,1:2|1:0,0:0:0:0:
176,368,98755,1,0,1:0:0:0:
408,136,98840,6,0,L|408:312,1,170,8|2,1:3|1:2,0:0:0:0:
224,304,99351,2,0,L|400:304,1,170,2|2,1:2|1:2,0:0:0:0:
208,208,99863,6,0,L|208:120,1,85,2|0,1:2|0:0,0:0:0:0:
384,104,100204,2,0,L|384:0,1,85,2|0,1:2|1:0,0:0:0:0:
168,16,100545,2,0,L|168:104,1,85,10|0,1:2|1:0,0:0:0:0:
224,96,100801,1,0,1:0:0:0:
456,136,100886,6,0,L|456:312,1,170,2|2,1:3|1:2,0:0:0:0:
280,256,101397,1,2,1:2:0:0:
200,256,101567,1,2,0:0:0:0:
200,256,101738,1,2,1:2:0:0:
392,224,101908,6,0,L|392:136,1,85,2|0,1:2|0:0,0:0:0:0:
208,88,102249,2,0,L|312:88,1,85,2|0,1:2|0:0,0:0:0:0:
112,88,102590,2,0,L|112:192,1,85,10|0,1:2|1:0,0:0:0:0:
168,176,102846,1,0,1:0:0:0:
400,208,102931,6,0,L|400:320,1,85,8|0,1:3|0:0,0:0:0:0:
232,248,103273,2,0,L|232:352,1,85,2|0,1:2|1:0,0:0:0:0:
64,296,103614,2,0,L|64:400,1,85,2|0,0:0|1:0,0:0:0:0:
336,224,103954,6,0,L|336:136,1,85,2|0,1:2|0:0,0:0:0:0:
252,144,104295,2,0,L|148:144,1,85,8|0,1:2|0:0,0:0:0:0:
328,56,104636,1,2,1:0:0:0:
152,56,104806,1,0,0:0:0:0:
416,56,104977,5,6,0:3:0:0:
128,104,105999,1,2,0:0:0:0:
360,168,106681,1,2,0:0:0:0:
144,168,107022,1,2,0:0:0:0:
360,160,107704,1,2,0:0:0:0:
232,160,108045,1,2,0:0:0:0:
360,160,108386,1,2,0:0:0:0:
232,160,108727,1,2,0:0:0:0:
480,160,109068,5,4,0:0:0:0:
120,160,110090,1,2,0:0:0:0:
320,160,110772,1,2,0:0:0:0:
200,160,111113,1,2,0:0:0:0:
320,160,111472,1,2,0:0:0:0:
200,160,111907,1,2,0:0:0:0:
464,168,112433,1,2,0:0:0:0:
256,192,112696,12,0,115064,0:0:0:0:
