osu file format v14

[General]
AudioFilename: audio.mp3
AudioLeadIn: 0
PreviewTime: 65772
Countdown: 0
SampleSet: Soft
StackLeniency: 0.7
Mode: 2
LetterboxInBreaks: 0
WidescreenStoryboard: 1

[Editor]
Bookmarks: 8840,17022,25204,33386,41568,49749,66113,88613,96795
DistanceSpacing: 1.2
BeatDivisor: 4
GridSize: 4
TimelineZoom: 1.6

[Metadata]
Title:Txilrcka
TitleUnicode:Txilrcka
Artist:Shikata Akiko
ArtistUnicode:志方あきこ
Creator:ZiRoX
Version:Platter
Source:わるい王様とりっぱな勇者
Tags:rpg role playing side scroller 日本一 nippon1software nippon ichi software NISA NIS America the cruel king and the great hero Deif Bastian Jorkseljund videogame video game vgm ost original soundtrack conlang
BeatmapID:3568662
BeatmapSetID:1744829

[Difficulty]
HPDrainRate:5
CircleSize:3.4
OverallDifficulty:8
ApproachRate:8
SliderMultiplier:1.5
SliderTickRate:1

[Events]
//Background and Video events
0,0,"hero.jpg",0,0
//Break Periods
//Storyboard Layer 0 (Background)
//Storyboard Layer 1 (Fail)
//Storyboard Layer 2 (Pass)
//Storyboard Layer 3 (Foreground)
//Storyboard Layer 4 (Overlay)
//Storyboard Sound Samples

[TimingPoints]
659,340.909090909091,3,2,1,30,1,0
659,-125,3,2,1,30,0,0
8840,-100,3,2,1,35,0,0
17022,-125,3,2,1,20,0,0
25204,-111.111111111111,3,2,1,25,0,0
33386,-100,3,2,1,35,0,0
49749,-111.111111111111,3,2,1,20,0,0
50090,-111.111111111111,3,2,1,15,0,0
65943,-111.111111111111,3,2,1,40,0,0
66113,-90.9090909090909,3,2,1,50,0,1
85545,-90.9090909090909,3,2,1,55,0,1
86525,-90.9090909090909,3,2,1,60,0,1
88613,-100,3,2,1,40,0,0
96795,-100,3,2,1,35,0,0
104977,-100,3,2,1,20,0,0
111113,359.281437125748,3,2,1,20,1,0
111472,434.782608695653,3,2,1,20,1,0
111907,526.315789473685,3,2,1,20,1,0
112696,-100,3,2,1,15,0,0
113485,-100,3,2,1,10,0,0
115064,-100,3,2,1,5,0,0

[Colours]
Combo1 : 148,199,149
Combo2 : 123,213,255
Combo3 : 255,227,134
Combo4 : 255,149,149

[HitObjects]
148,296,659,6,0,L|148:167,1,120,2|2,0:3|0:0,0:0:0:0:
208,180,1170,1,2,0:0:0:0:
268,180,1340,1,2,0:0:0:0:
328,180,1511,1,2,0:0:0:0:
388,180,1681,6,0,L|388:96,1,60,2|0,0:0|0:0,0:0:0:0:
328,120,2022,1,2,0:0:0:0:
208,120,2363,1,2,0:0:0:0:
208,180,2534,1,0,0:0:0:0:
364,184,2704,6,0,L|364:308,1,120,8|2,0:3|0:0,0:0:0:0:
304,300,3215,2,0,L|176:300,1,120,2|2,0:0|0:0,0:0:0:0:
244,116,3727,6,0,L|304:116,1,60,2|0,0:0|0:0,0:0:0:0:
364,116,4068,2,0,L|304:116,1,60,2|0,0:0|0:0,0:0:0:0:
244,116,4409,2,0,L|304:116,1,60,2|0,0:0|0:0,0:0:0:0:
148,116,4749,6,0,L|148:236,1,120,2|2,0:3|0:0,0:0:0:0:
208,236,5260,1,2,0:0:0:0:
268,236,5430,1,2,0:0:0:0:
328,232,5602,1,2,0:0:0:0:
388,232,5771,6,0,L|388:156,1,60,2|0,0:0|0:0,0:0:0:0:
328,176,6113,1,2,0:0:0:0:
208,176,6453,1,2,0:0:0:0:
208,176,6624,1,0,0:0:0:0:
364,176,6794,6,0,L|364:48,1,120,8|2,0:3|0:0,0:0:0:0:
304,60,7305,2,0,L|168:60,1,120,2|2,0:0|0:0,0:0:0:0:
124,60,7818,5,2,0:0:0:0:
127,119,7988,1,0,0:0:0:0:
161,167,8158,1,0,1:0:0:0:
216,191,8329,1,0,1:0:0:0:
372,196,8499,2,0,L|372:264,1,60,2|0,1:2|0:0,0:0:0:0:
128,248,8840,6,0,L|128:89,1,150,6|2,1:3|1:2,0:0:0:0:
204,104,9351,1,2,1:2:0:0:
280,104,9521,1,2,0:0:0:0:
356,104,9693,1,2,1:2:0:0:
184,104,9862,6,0,L|184:184,1,75,2|0,1:2|0:0,0:0:0:0:
252,176,10204,1,2,1:2:0:0:
396,184,10544,1,8,1:2:0:0:
396,256,10715,1,0,1:0:0:0:
156,176,10885,6,0,L|156:332,1,150,8|2,1:3|1:2,0:0:0:0:
232,324,11397,2,0,L|388:325,1,150,2|2,1:2|1:2,0:0:0:0:
208,264,11909,6,0,L|208:188,1,75,2|0,1:2|0:0,0:0:0:0:
296,184,12249,2,0,L|296:100,1,75,2|0,1:2|1:0,0:0:0:0:
208,104,12590,2,0,L|208:24,1,75,10|0,1:2|0:0,0:0:0:0:
452,248,12931,6,0,L|452:89,1,150,2|2,1:3|1:2,0:0:0:0:
376,104,13442,1,2,1:2:0:0:
300,104,13612,1,2,0:0:0:0:
224,104,13784,1,2,1:2:0:0:
396,104,13953,6,0,L|396:184,1,75,2|0,1:2|0:0,0:0:0:0:
328,176,14295,1,2,1:2:0:0:
180,184,14636,1,10,1:2:0:0:
180,248,14806,1,0,1:0:0:0:
420,248,14977,6,0,L|420:144,1,75,8|0,1:3|0:0,0:0:0:0:
332,184,15318,2,0,L|332:80,1,75,2|0,1:2|1:0,0:0:0:0:
420,108,15659,2,0,L|420:4,1,75,2|0,0:0|1:0,0:0:0:0:
176,104,15999,6,0,L|176:260,1,150,2|8,1:2|1:2,0:0:0:0:
252,256,16511,1,0,0:0:0:0:
328,256,16681,1,2,1:0:0:0:
68,328,17022,6,0,L|208:328,1,120,6|0,0:3|0:0,0:0:0:0:
308,332,17704,1,2,0:0:0:0:
188,236,18045,6,0,L|328:236,1,120,2|0,0:0|0:0,0:0:0:0:
428,248,18727,1,2,0:0:0:0:
428,180,18897,1,2,0:0:0:0:
368,176,19068,6,0,L|228:176,1,120,2|0,0:0|0:0,0:0:0:0:
128,188,19749,1,2,0:0:0:0:
128,256,19919,1,2,0:0:0:0:
188,260,20090,6,0,L|328:260,1,120,2|0,0:0|0:0,0:0:0:0:
188,260,20772,1,0,0:0:0:0:
440,148,21113,6,0,L|316:148,1,120,2|0,0:0|0:0,0:0:0:0:
200,144,21795,1,2,0:0:0:0:
320,148,22136,6,0,L|320:280,1,120,2|0,0:0|0:0,0:0:0:0:
200,264,22818,1,0,0:0:0:0:
440,264,23159,5,2,0:3:0:0:
320,268,23499,1,2,0:0:0:0:
440,264,23841,1,0,0:0:0:0:
228,144,24181,5,2,0:0:0:0:
172,144,24351,1,2,0:0:0:0:
228,144,24521,1,2,0:0:0:0:
336,144,24863,1,0,0:0:0:0:
104,148,25204,6,0,L|244:148,1,134.999995880127,8|2,0:3|0:0,0:0:0:0:
372,148,25886,1,2,0:0:0:0:
240,252,26227,6,0,L|392:252,1,134.999995880127,0|2,0:0|0:0,0:0:0:0:
504,256,26909,1,2,0:0:0:0:
428,256,27079,1,0,0:0:0:0:
352,192,27249,6,0,L|204:192,1,134.999995880127,0|2,0:0|0:0,0:0:0:0:
76,192,27932,1,2,0:0:0:0:
300,188,28272,6,0,L|300:337,1,134.999995880127,0|2,0:0|0:0,0:0:0:0:
164,320,28954,1,2,0:0:0:0:
404,192,29295,6,0,L|257:192,1,134.999995880127,8|2,0:3|0:0,0:0:0:0:
136,192,29977,1,0,0:0:0:0:
8,104,30318,6,0,L|144:104,1,134.999995880127,2|2,0:3|0:0,0:0:0:0:
344,104,31170,1,0,0:0:0:0:
344,104,31341,5,2,0:0:0:0:
176,100,31710,1,2,0:3:0:0:
408,148,32534,1,0,1:0:0:0:
432,168,32619,1,0,1:0:0:0:
439,190,32704,1,0,1:0:0:0:
440,243,32874,1,0,1:0:0:0:
408,286,33045,1,0,1:0:0:0:
357,301,33215,1,0,1:0:0:0:
116,300,33386,6,0,L|116:146,1,150,6|0,1:3|1:0,0:0:0:0:
192,144,33897,1,0,1:0:0:0:
264,144,34068,1,2,0:0:0:0:
496,76,34409,6,0,L|344:76,1,150,2|0,1:2|1:0,0:0:0:0:
272,76,34920,1,0,0:0:0:0:
196,76,35091,1,10,1:2:0:0:
444,200,35431,6,0,L|272:200,1,150,2|0,1:3|1:0,0:0:0:0:
220,200,35942,1,0,1:0:0:0:
148,200,36113,1,2,0:2:0:0:
380,240,36454,6,0,L|380:88,1,150,2|2,1:2|1:2,0:0:0:0:
300,90,36965,1,0,1:0:0:0:
380,90,37136,1,10,1:2:0:0:
68,240,37477,6,0,L|68:82,1,150,2|0,1:3|1:0,0:0:0:0:
144,92,37988,1,0,1:0:0:0:
220,92,38159,1,2,1:2:0:0:
456,88,38499,6,0,L|288:88,1,150,2|0,1:2|1:0,0:0:0:0:
232,92,39011,1,0,0:0:0:0:
160,96,39182,1,8,1:2:0:0:
424,152,39522,5,10,1:0:0:0:
136,160,39863,2,0,L|136:316,1,150,2|0,1:2|0:0,0:0:0:0:
376,160,40545,5,2,1:2:0:0:
376,232,40715,1,2,1:2:0:0:
300,232,40885,1,8,1:0:0:0:
152,228,41227,1,10,1:2:0:0:
152,296,41397,1,0,1:0:0:0:
408,304,41568,6,0,L|410:145,1,150,6|0,1:3|1:0,0:0:0:0:
336,156,42079,1,0,1:0:0:0:
260,156,42250,1,2,0:0:0:0:
28,236,42590,6,0,L|188:236,1,150,2|0,1:2|1:0,0:0:0:0:
256,236,43102,1,0,0:0:0:0:
332,236,43273,1,10,1:2:0:0:
88,236,43613,6,0,L|89:79,1,150,2|0,1:3|1:0,0:0:0:0:
164,88,44124,1,0,1:0:0:0:
236,88,44296,1,2,0:2:0:0:
480,176,44636,6,0,L|324:176,1,150,2|10,1:2|1:0,0:0:0:0:
252,176,45147,1,0,1:0:0:0:
176,176,45318,1,10,1:2:0:0:
432,120,45659,6,0,L|432:280,1,150,10|0,1:0|1:0,0:0:0:0:
356,272,46170,1,0,1:0:0:0:
280,272,46341,1,0,0:0:0:0:
132,276,46681,6,0,L|132:116,1,150,10|0,1:0|1:0,0:0:0:0:
208,124,47192,1,0,1:0:0:0:
284,124,47363,1,8,1:2:0:0:
28,152,47704,6,0,P|48:268|144:324,1,225,10|0,1:0|1:0,0:0:0:0:
200,328,48386,2,0,L|294:329,1,75,0|0,0:0|1:0,0:0:0:0:
436,328,48727,6,0,L|436:236,1,75,10|0,1:0|1:0,0:0:0:0:
276,220,49067,1,10,1:2:0:0:
428,220,49409,1,0,0:0:0:0:
192,132,49749,5,4,0:3:0:0:
328,132,50090,1,2,0:0:0:0:
256,132,50261,1,2,0:0:0:0:
192,132,50431,1,2,0:0:0:0:
328,264,50772,5,2,0:0:0:0:
192,264,51113,1,2,0:0:0:0:
264,264,51284,1,2,0:0:0:0:
328,264,51454,1,2,0:0:0:0:
112,196,51795,6,0,L|392:196,1,269.999991760254,2|2,0:0|0:0,0:0:0:0:
496,292,52818,6,0,L|219:291,1,269.999991760254,2|2,0:0|0:0,0:0:0:0:
440,128,53840,5,8,0:3:0:0:
304,128,54181,1,2,0:0:0:0:
376,128,54352,1,2,0:0:0:0:
440,128,54522,1,2,0:0:0:0:
304,260,54863,5,2,0:0:0:0:
440,260,55204,1,2,0:0:0:0:
368,260,55375,1,2,0:0:0:0:
304,260,55545,1,2,0:0:0:0:
168,256,55886,5,2,0:0:0:0:
36,256,56227,1,2,0:0:0:0:
168,256,56568,1,2,0:0:0:0:
388,112,56909,6,0,L|248:112,2,134.999995880127,2|2|2,0:3|0:0|0:0,0:0:0:0:
156,228,57931,5,2,0:3:0:0:
292,228,58272,1,2,0:0:0:0:
220,228,58443,1,2,0:0:0:0:
292,228,58613,1,2,0:0:0:0:
156,228,58954,5,2,0:0:0:0:
292,228,59295,1,2,0:0:0:0:
220,228,59466,1,2,0:0:0:0:
292,228,59636,1,2,0:0:0:0:
20,304,59977,6,0,L|296:304,1,269.999991760254,2|2,0:0|0:0,0:0:0:0:
408,224,61000,2,0,L|200:224,1,202.499993820191,2|2,0:0|0:0,0:0:0:0:
136,228,61681,1,2,0:0:0:0:
356,228,62022,5,8,0:3:0:0:
220,228,62363,1,2,0:0:0:0:
292,228,62534,1,2,0:0:0:0:
220,228,62704,1,2,0:0:0:0:
356,228,63045,5,2,0:0:0:0:
220,228,63386,1,2,0:0:0:0:
292,228,63557,1,2,0:0:0:0:
220,228,63727,1,2,0:0:0:0:
448,232,64068,5,2,0:3:0:0:
256,228,64579,1,2,0:0:0:0:
256,228,64750,1,2,0:0:0:0:
440,156,65090,6,0,P|468:264|360:360,1,269.999991760254,8|0,0:3|0:0,0:0:0:0:
296,360,65943,1,0,1:0:0:0:
56,352,66113,6,0,L|56:184,1,165.000005035401,6|2,1:3|1:2,0:0:0:0:
140,184,66624,1,0,1:0:0:0:
224,184,66795,1,10,1:2:0:0:
308,184,66965,1,0,1:0:0:0:
140,348,67136,6,0,L|140:172,1,165.000005035401,0|2,1:0|1:2,0:0:0:0:
224,184,67647,1,0,1:0:0:0:
308,184,67818,1,10,1:2:0:0:
392,188,67988,1,0,0:0:0:0:
224,136,68159,6,0,L|56:136,2,165.000005035401,2|2|10,1:3|1:2|1:2,0:0:0:0:
468,140,69181,6,0,L|468:248,1,82.5000025177003,0|0,1:0|1:0,0:0:0:0:
384,224,69522,2,0,L|296:224,1,82.5000025177003,2|0,1:2|1:0,0:0:0:0:
216,228,69863,2,0,L|216:328,1,82.5000025177003,10|0,1:2|1:0,0:0:0:0:
468,348,70204,6,0,L|468:172,1,165.000005035401,6|2,1:3|1:2,0:0:0:0:
384,184,70715,1,0,1:0:0:0:
300,184,70886,1,10,1:2:0:0:
216,184,71056,1,0,1:0:0:0:
388,108,71227,6,0,L|220:108,2,165.000005035401,8|2|10,1:0|1:2|1:2,0:0:0:0:
56,104,72249,6,0,L|56:276,1,165.000005035401,2|2,1:3|1:2,0:0:0:0:
140,272,72761,1,0,1:0:0:0:
224,272,72931,1,10,1:2:0:0:
308,272,73102,1,0,1:0:0:0:
476,272,73272,6,0,L|476:100,1,165.000005035401,0|2,1:0|1:2,0:0:0:0:
392,108,73784,1,0,1:0:0:0:
308,108,73954,1,10,1:2:0:0:
224,108,74125,1,0,1:0:0:0:
464,108,74295,6,0,L|464:276,1,165.000005035401,6|2,1:3|1:2,0:0:0:0:
380,272,74807,1,0,1:0:0:0:
296,272,74977,1,10,1:2:0:0:
212,272,75148,1,0,1:0:0:0:
380,192,75318,6,0,L|208:192,1,165.000005035401,0|2,1:0|1:2,0:0:0:0:
132,192,75830,1,0,1:0:0:0:
48,192,76000,1,10,1:2:0:0:
132,192,76171,1,0,0:0:0:0:
296,56,76340,6,0,L|472:56,2,165.000005035401,2|2|10,1:3|1:2|1:2,0:0:0:0:
28,184,77363,6,0,L|28:284,1,82.5000025177003,0|0,1:0|1:0,0:0:0:0:
112,264,77704,2,0,L|204:264,1,82.5000025177003,2|0,1:2|1:0,0:0:0:0:
280,264,78045,2,0,L|376:264,1,82.5000025177003,10|0,1:2|1:0,0:0:0:0:
112,280,78386,6,0,L|112:112,1,165.000005035401,6|2,1:3|1:2,0:0:0:0:
200,116,78897,1,0,1:0:0:0:
112,115,79068,1,10,1:2:0:0:
400,280,79409,6,0,L|400:112,1,165.000005035401,2|2,1:2|1:2,0:0:0:0:
312,116,79920,1,0,0:0:0:0:
400,115,80091,1,10,1:2:0:0:
104,284,80431,6,0,L|272:284,1,165.000005035401,2|2,1:3|1:2,0:0:0:0:
352,284,80942,1,0,1:0:0:0:
436,284,81113,1,10,1:2:0:0:
352,284,81284,1,0,1:0:0:0:
184,228,81454,6,0,L|184:56,1,165.000005035401,0|2,1:0|1:2,0:0:0:0:
268,64,81965,1,0,1:0:0:0:
352,64,82136,1,10,1:2:0:0:
72,192,82477,6,0,L|240:192,2,165.000005035401,6|2|10,1:3|1:2|1:2,0:0:0:0:
240,192,83499,6,0,L|324:192,2,82.5000025177003,8|8|8,1:2|1:2|1:2,0:0:0:0:
156,192,84011,1,2,0:2:0:0:
72,192,84181,1,2,0:0:0:0:
488,100,84522,6,0,P|484:180|252:392,1,412.500012588501,4|0,1:0|0:0,0:0:0:0:
88,336,85545,6,0,P|76:168|268:44,1,412.500012588501,4|0,0:0|0:0,0:0:0:0:
436,40,86568,5,12,1:2:0:0:
272,132,86909,1,8,1:2:0:0:
272,132,87079,1,8,1:2:0:0:
440,160,87420,1,8,1:2:0:0:
440,160,87590,1,8,1:2:0:0:
440,160,87761,1,0,1:2:0:0:
280,160,87931,1,8,1:2:0:0:
280,272,88272,1,0,1:0:0:0:
280,272,88443,1,0,1:2:0:0:
132,276,88613,5,12,1:3:0:0:
244,272,88897,1,2,1:2:0:0:
244,272,88982,1,2,1:2:0:0:
244,272,89124,1,2,1:2:0:0:
244,272,89295,1,2,1:2:0:0:
244,272,89465,1,2,1:2:0:0:
96,272,89636,5,2,1:2:0:0:
244,272,89977,1,2,1:2:0:0:
384,272,90318,1,10,1:2:0:0:
100,144,90659,5,2,1:3:0:0:
256,144,90999,1,2,1:2:0:0:
324,144,91170,1,2,1:2:0:0:
132,144,91511,1,2,1:2:0:0:
64,144,91682,5,2,1:2:0:0:
256,144,92022,1,2,1:2:0:0:
104,144,92363,1,10,1:2:0:0:
380,276,92704,5,8,1:3:0:0:
268,272,92988,1,2,1:2:0:0:
268,272,93073,1,2,1:2:0:0:
268,272,93215,1,2,1:0:0:0:
268,272,93386,1,2,1:0:0:0:
268,272,93556,1,2,1:0:0:0:
416,272,93727,5,2,1:0:0:0:
268,272,94068,1,2,1:0:0:0:
128,272,94409,1,10,1:2:0:0:
380,172,94750,5,2,1:3:0:0:
148,168,95090,1,2,0:0:0:0:
148,232,95261,1,10,1:0:0:0:
292,232,95602,1,2,0:0:0:0:
364,232,95773,5,10,1:0:0:0:
232,232,96113,1,2,1:2:0:0:
472,236,96454,1,2,1:0:0:0:
64,264,96795,6,0,L|64:104,1,150,6|2,1:3|1:2,0:0:0:0:
140,120,97306,1,2,1:2:0:0:
216,120,97476,1,2,0:0:0:0:
296,124,97647,1,2,1:2:0:0:
148,304,97817,6,0,L|244:304,1,75,2|0,1:2|0:0,0:0:0:0:
296,304,98159,1,2,1:2:0:0:
444,304,98499,1,8,1:2:0:0:
444,232,98670,1,0,1:0:0:0:
204,260,98840,6,0,L|204:100,1,150,8|2,1:3|1:2,0:0:0:0:
280,116,99351,2,0,L|448:116,1,150,2|2,1:2|1:2,0:0:0:0:
268,184,99863,6,0,L|176:184,1,75,2|0,1:2|0:0,0:0:0:0:
272,268,100204,2,0,L|352:268,1,75,2|0,1:2|1:0,0:0:0:0:
268,344,100545,2,0,L|188:344,1,75,10|0,1:2|1:0,0:0:0:0:
448,264,100886,6,0,L|448:104,1,150,2|2,1:3|1:2,0:0:0:0:
372,120,101397,1,2,1:2:0:0:
296,120,101567,1,2,0:0:0:0:
216,124,101738,1,2,1:2:0:0:
364,304,101908,6,0,L|268:304,1,75,2|0,1:2|0:0,0:0:0:0:
216,304,102250,1,2,1:2:0:0:
364,304,102590,1,10,1:2:0:0:
112,108,102931,6,0,L|188:108,1,75,8|0,1:3|0:0,0:0:0:0:
264,168,103272,2,0,L|188:168,1,75,2|0,1:2|1:0,0:0:0:0:
112,236,103613,2,0,L|192:236,1,75,2|0,0:0|1:0,0:0:0:0:
336,236,103954,5,2,1:2:0:0:
336,168,104124,1,0,0:0:0:0:
264,168,104294,1,8,1:2:0:0:
116,168,104636,1,2,1:0:0:0:
392,168,104977,5,6,0:3:0:0:
168,168,105999,1,2,0:0:0:0:
372,168,106681,1,2,0:0:0:0:
372,168,107022,1,2,0:0:0:0:
188,156,107704,1,2,0:0:0:0:
292,156,108045,1,2,0:0:0:0:
188,156,108386,1,2,0:0:0:0:
292,156,108727,1,2,0:0:0:0:
52,156,109068,5,4,0:0:0:0:
352,164,110090,1,2,0:0:0:0:
116,224,110772,1,2,0:0:0:0:
260,168,111113,1,2,0:0:0:0:
136,124,111472,1,2,0:0:0:0:
280,64,111907,1,2,0:0:0:0:
40,64,112433,1,2,0:0:0:0:
256,192,112696,12,0,115064,0:0:0:0:
