osu file format v14

[General]
AudioFilename: audio.mp3
AudioLeadIn: 0
PreviewTime: 65772
Countdown: 0
SampleSet: Soft
StackLeniency: 0.7
Mode: 2
LetterboxInBreaks: 0
WidescreenStoryboard: 1

[Editor]
Bookmarks: 8840,17022,25204,33386,41568,49749,66113,88613,96795
DistanceSpacing: 1.2
BeatDivisor: 4
GridSize: 4
TimelineZoom: 1.6

[Metadata]
Title:Txilrcka
TitleUnicode:Txilrcka
Artist:Shikata Akiko
ArtistUnicode:志方あきこ
Creator:ZiRoX
Version:Cup
Source:わるい王様とりっぱな勇者
Tags:rpg role playing side scroller 日本一 nippon1software nippon ichi software NISA NIS America the cruel king and the great hero Deif Bastian Jorkseljund videogame video game vgm ost original soundtrack conlang
BeatmapID:3568661
BeatmapSetID:1744829

[Difficulty]
HPDrainRate:3
CircleSize:2
OverallDifficulty:6
ApproachRate:6
SliderMultiplier:1.2
SliderTickRate:1

[Events]
//Background and Video events
0,0,"hero.jpg",0,0
//Break Periods
//Storyboard Layer 0 (Background)
//Storyboard Layer 1 (Fail)
//Storyboard Layer 2 (Pass)
//Storyboard Layer 3 (Foreground)
//Storyboard Layer 4 (Overlay)
//Storyboard Sound Samples

[TimingPoints]
659,340.909090909091,3,2,1,30,1,0
659,-125,3,2,1,30,0,0
8840,-100,3,2,1,35,0,0
17022,-125,3,2,1,20,0,0
25204,-111.111111111111,3,2,1,25,0,0
33386,-100,3,2,1,35,0,0
49749,-111.111111111111,3,2,1,20,0,0
50090,-111.111111111111,3,2,1,15,0,0
65943,-111.111111111111,3,2,1,40,0,0
66113,-90.9090909090909,3,2,1,50,0,1
85545,-90.9090909090909,3,2,1,55,0,1
86525,-90.9090909090909,3,2,1,60,0,1
88613,-100,3,2,1,40,0,0
96795,-100,3,2,1,35,0,0
104977,-100,3,2,1,20,0,0
111113,359.281437125748,3,2,1,20,1,0
111472,434.782608695653,3,2,1,20,1,0
111907,526.315789473685,3,2,1,20,1,0
112696,-100,3,2,1,15,0,0
113485,-100,3,2,1,10,0,0
115064,-100,3,2,1,5,0,0

[Colours]
Combo1 : 148,199,149
Combo2 : 123,213,255
Combo3 : 255,227,134
Combo4 : 255,149,149

[HitObjects]
140,288,659,6,0,L|140:188,1,96,2|2,0:3|0:0,0:0:0:0:
192,192,1170,1,2,0:0:0:0:
240,192,1340,1,2,0:0:0:0:
336,192,1681,6,0,L|336:304,1,96,2|2,0:0|0:0,0:0:0:0:
240,284,2363,1,2,0:0:0:0:
140,204,2704,6,0,L|140:96,1,96,8|2,0:3|0:0,0:0:0:0:
192,88,3215,2,0,L|300:88,1,96,2|2,0:0|0:0,0:0:0:0:
340,88,3727,6,0,L|452:88,2,96,2|2|2,0:0|0:0|0:0,0:0:0:0:
240,288,4749,6,0,L|240:184,1,96,2|2,0:3|0:0,0:0:0:0:
292,192,5260,1,2,0:0:0:0:
340,192,5430,1,2,0:0:0:0:
440,192,5771,6,0,L|440:304,1,96,2|2,0:0|0:0,0:0:0:0:
344,288,6453,1,2,0:0:0:0:
440,192,6794,6,0,L|332:192,1,96,8|2,0:3|0:0,0:0:0:0:
296,192,7305,2,0,L|296:84,1,96,2|2,0:0|0:0,0:0:0:0:
348,104,7817,6,0,L|408:104,2,48,2|0|0,0:0|0:0|1:0,0:0:0:0:
248,104,8499,1,2,1:2:0:0:
376,104,8840,6,0,L|376:236,1,120,6|2,1:3|1:2,0:0:0:0:
312,224,9351,1,2,1:2:0:0:
252,224,9521,1,2,0:0:0:0:
132,224,9862,6,0,L|260:224,1,120,2|2,1:2|1:2,0:0:0:0:
372,224,10544,1,8,1:2:0:0:
252,224,10885,6,0,L|252:360,1,120,8|2,1:3|1:2,0:0:0:0:
312,344,11396,2,0,L|456:344,1,120,2|2,1:2|1:2,0:0:0:0:
492,344,11909,5,2,1:2:0:0:
372,344,12249,1,2,1:2:0:0:
492,344,12590,1,10,1:2:0:0:
372,344,12931,6,0,L|232:344,1,120,2|2,1:3|1:2,0:0:0:0:
192,344,13442,1,2,1:2:0:0:
132,344,13612,1,2,0:0:0:0:
252,128,13953,6,0,L|116:128,2,120,2|2|10,1:2|1:2|1:2,0:0:0:0:
372,128,14977,6,0,L|504:128,2,120,8|2|2,1:3|1:2|0:0,0:0:0:0:
252,132,15999,6,0,L|132:132,1,120,2|8,1:2|1:2,0:0:0:0:
72,136,16511,1,0,0:0:0:0:
72,208,16681,1,2,1:0:0:0:
172,208,17022,6,0,P|232:236|292:344,1,192,6|2,0:3|0:0,0:0:0:0:
192,332,18045,6,0,P|228:236|312:192,1,192,2|2,0:0|0:0,0:0:0:0:
400,192,19068,6,0,P|361:105|280:57,1,192,2|2,0:0|0:0,0:0:0:0:
184,72,20090,6,0,L|184:176,1,96,2|0,0:0|0:0,0:0:0:0:
280,168,20772,1,0,0:0:0:0:
184,172,21113,6,0,P|206:262|287:310,1,192,2|2,0:0|0:0,0:0:0:0:
384,304,22136,6,0,L|384:196,1,96,2|0,0:0|0:0,0:0:0:0:
288,212,22818,1,0,0:0:0:0:
188,216,23159,5,2,0:3:0:0:
288,212,23499,1,2,0:0:0:0:
188,216,23841,1,0,0:0:0:0:
96,220,24181,5,2,0:0:0:0:
96,220,24351,1,2,0:0:0:0:
96,220,24521,1,2,0:0:0:0:
188,140,24863,1,0,0:0:0:0:
296,160,25204,6,0,L|404:160,1,107.999996704102,8|2,0:3|0:0,0:0:0:0:
404,260,25886,1,2,0:0:0:0:
292,256,26227,6,0,L|292:144,1,107.999996704102,0|2,0:0|0:0,0:0:0:0:
400,152,26909,1,2,0:0:0:0:
292,152,27249,6,0,L|180:152,1,107.999996704102,0|2,0:0|0:0,0:0:0:0:
184,248,27932,1,2,0:0:0:0:
292,256,28272,6,0,L|292:144,1,107.999996704102,0|2,0:0|0:0,0:0:0:0:
184,152,28954,1,2,0:0:0:0:
76,56,29295,6,0,L|188:56,1,107.999996704102,8|2,0:3|0:0,0:0:0:0:
292,60,29977,1,0,0:0:0:0:
400,140,30318,6,0,L|284:140,1,107.999996704102,2|2,0:3|0:0,0:0:0:0:
128,140,31170,1,0,0:0:0:0:
128,140,31341,5,2,0:0:0:0:
256,140,31710,1,2,0:3:0:0:
408,148,32534,1,0,1:0:0:0:
439,190,32704,1,0,1:0:0:0:
440,243,32874,1,0,1:0:0:0:
408,286,33045,1,0,1:0:0:0:
357,301,33215,1,0,1:0:0:0:
292,304,33386,6,0,L|168:304,1,120,6|0,1:3|1:0,0:0:0:0:
296,176,34068,1,2,0:0:0:0:
172,168,34409,6,0,L|172:40,1,120,2|0,1:2|1:0,0:0:0:0:
292,52,35091,1,10,1:2:0:0:
172,52,35431,6,0,L|292:52,1,120,2|0,1:3|1:0,0:0:0:0:
412,56,36114,1,2,0:2:0:0:
292,52,36454,6,0,L|292:180,1,120,2|2,1:2|1:2,0:0:0:0:
356,168,36965,1,0,1:0:0:0:
356,240,37136,1,10,1:2:0:0:
232,240,37477,6,0,L|232:120,1,120,2|0,1:3|1:0,0:0:0:0:
352,124,38159,1,2,1:2:0:0:
472,44,38499,6,0,L|352:44,1,120,2|0,1:2|1:0,0:0:0:0:
232,44,39182,1,8,1:2:0:0:
112,152,39522,6,0,L|232:152,1,120,10|2,1:0|1:2,0:0:0:0:
352,152,40204,1,0,0:0:0:0:
232,152,40545,5,2,1:2:0:0:
232,208,40715,1,2,1:2:0:0:
232,272,40885,1,8,1:0:0:0:
352,272,41227,1,10,1:2:0:0:
232,272,41568,6,0,L|232:144,1,120,6|0,1:3|1:0,0:0:0:0:
352,156,42250,1,2,0:0:0:0:
232,152,42590,6,0,L|232:24,1,120,2|0,1:2|1:0,0:0:0:0:
112,40,43273,1,10,1:2:0:0:
232,40,43613,6,0,L|112:40,1,120,2|0,1:3|1:0,0:0:0:0:
112,140,44296,1,2,0:2:0:0:
232,144,44636,6,0,L|232:272,1,120,2|10,1:2|1:0,0:0:0:0:
112,268,45318,1,10,1:2:0:0:
232,272,45659,6,0,L|356:272,1,120,10|0,1:0|1:0,0:0:0:0:
472,268,46341,1,0,0:0:0:0:
352,264,46681,6,0,L|352:136,1,120,10|0,1:0|1:0,0:0:0:0:
472,144,47364,1,8,1:2:0:0:
352,144,47704,6,0,L|144:144,1,180,10|0,1:0|1:0,0:0:0:0:
112,148,48386,2,0,L|112:232,1,60,0|0,0:0|1:0,0:0:0:0:
172,204,48727,5,10,1:0:0:0:
292,204,49067,1,10,1:2:0:0:
172,204,49409,1,0,0:0:0:0:
292,204,49749,5,4,0:3:0:0:
292,204,50090,1,2,0:0:0:0:
292,204,50431,1,2,0:0:0:0:
184,208,50772,5,2,0:0:0:0:
184,208,51113,1,2,0:0:0:0:
184,208,51454,1,2,0:0:0:0:
292,208,51795,6,0,P|377:263|368:376,1,215.999993408203,2|2,0:0|0:0,0:0:0:0:
264,232,52818,6,0,P|264:124|348:64,1,215.999993408203,2|2,0:0|0:0,0:0:0:0:
452,60,53840,5,8,0:3:0:0:
452,60,54181,1,2,0:0:0:0:
452,60,54522,1,2,0:0:0:0:
344,60,54863,5,2,0:0:0:0:
344,60,55204,1,2,0:0:0:0:
344,60,55545,1,2,0:0:0:0:
240,56,55886,5,2,0:0:0:0:
132,56,56227,1,2,0:0:0:0:
240,56,56568,1,2,0:0:0:0:
352,144,56909,6,0,L|228:144,2,107.999996704102,2|2|2,0:3|0:0|0:0,0:0:0:0:
244,144,57931,5,2,0:3:0:0:
244,144,58272,1,2,0:0:0:0:
188,144,58443,1,2,0:0:0:0:
244,144,58613,1,2,0:0:0:0:
352,144,58954,5,2,0:0:0:0:
352,144,59295,1,2,0:0:0:0:
408,144,59465,1,2,0:0:0:0:
352,144,59636,1,2,0:0:0:0:
244,176,59977,6,0,P|159:231|168:344,1,215.999993408203,2|2,0:0|0:0,0:0:0:0:
272,200,61000,6,0,P|304:96|216:24,1,215.999993408203,2|2,0:0|0:0,0:0:0:0:
124,32,62022,5,8,0:3:0:0:
124,32,62363,1,2,0:0:0:0:
68,32,62534,1,2,0:0:0:0:
124,32,62704,1,2,0:0:0:0:
232,32,63045,5,2,0:0:0:0:
232,32,63386,1,2,0:0:0:0:
284,32,63556,1,2,0:0:0:0:
232,32,63727,1,2,0:0:0:0:
124,36,64068,5,2,0:3:0:0:
124,128,64579,1,2,0:0:0:0:
124,128,64750,1,2,0:0:0:0:
232,128,65090,6,0,L|448:128,1,215.999993408203,8|0,0:3|0:0,0:0:0:0:
292,128,66113,6,0,L|152:128,1,132.00000402832,6|2,1:3|1:2,0:0:0:0:
160,200,66624,1,0,1:0:0:0:
160,268,66795,1,10,1:2:0:0:
292,272,67136,6,0,L|292:140,1,132.00000402832,0|2,1:0|1:2,0:0:0:0:
224,140,67647,1,0,1:0:0:0:
156,140,67818,1,10,1:2:0:0:
20,140,68159,6,0,L|172:140,2,132.00000402832,2|2|10,1:3|1:2|1:2,0:0:0:0:
152,160,69181,6,0,L|224:160,1,66.0000020141602,0|0,1:0|1:0,0:0:0:0:
284,160,69522,1,2,1:2:0:0:
152,164,69863,2,0,L|152:252,1,66.0000020141602,10|0,1:2|1:0,0:0:0:0:
220,232,70204,6,0,L|368:232,1,132.00000402832,6|2,1:3|1:2,0:0:0:0:
352,176,70715,1,0,1:0:0:0:
352,108,70886,1,10,1:2:0:0:
220,108,71227,6,0,L|372:108,2,132.00000402832,8|2|10,1:0|1:2|1:2,0:0:0:0:
348,108,72249,6,0,L|348:252,1,132.00000402832,2|2,1:3|1:2,0:0:0:0:
216,252,72931,1,10,1:2:0:0:
152,252,73102,1,0,1:0:0:0:
84,252,73272,6,0,L|84:112,1,132.00000402832,0|2,1:0|1:2,0:0:0:0:
224,120,73954,1,10,1:2:0:0:
88,120,74295,6,0,L|246:120,1,132.00000402832,6|2,1:3|1:2,0:0:0:0:
288,100,74806,1,0,1:0:0:0:
356,104,74977,1,10,1:2:0:0:
224,196,75318,6,0,L|224:332,1,132.00000402832,0|2,1:0|1:2,0:0:0:0:
292,328,75829,1,0,1:0:0:0:
360,328,76000,1,10,1:2:0:0:
488,248,76340,6,0,L|348:248,2,132.00000402832,2|2|10,1:3|1:2|1:2,0:0:0:0:
360,172,77363,6,0,L|288:172,1,66.0000020141602,0|0,1:0|1:0,0:0:0:0:
228,172,77704,1,2,1:2:0:0:
96,176,78045,2,0,L|96:96,1,66.0000020141602,10|0,1:2|1:0,0:0:0:0:
164,108,78386,6,0,L|308:108,1,132.00000402832,6|2,1:3|1:2,0:0:0:0:
428,104,79068,1,10,1:2:0:0:
304,184,79409,6,0,L|460:184,2,132.00000402832,2|2|10,1:2|1:2|1:2,0:0:0:0:
436,184,80431,6,0,L|92:184,1,330.000010070801,2|0,1:3|1:0,0:0:0:0:
172,184,81454,6,0,P|208:264|188:328,1,132.00000402832,0|2,1:0|1:2,0:0:0:0:
132,312,81966,1,0,1:0:0:0:
64,312,82136,1,10,1:2:0:0:
196,176,82477,6,0,L|332:176,2,132.00000402832,6|2|10,1:3|1:2|1:2,0:0:0:0:
328,192,83499,6,0,L|412:192,2,66.0000020141602,8|8|8,1:2|1:2|1:2,0:0:0:0:
188,192,84181,1,2,0:0:0:0:
320,192,84522,6,0,P|328:256|112:312,1,330.000010070801,4|0,1:0|0:0,0:0:0:0:
56,284,85545,6,0,P|88:200|320:152,1,330.000010070801,4|0,0:0|0:0,0:0:0:0:
368,172,86568,5,12,1:2:0:0:
236,256,86909,1,8,1:2:0:0:
236,256,87079,1,8,1:2:0:0:
376,280,87420,1,8,1:2:0:0:
376,280,87590,1,8,1:2:0:0:
240,288,87931,1,8,1:2:0:0:
380,184,88272,1,0,1:0:0:0:
244,184,88613,5,12,1:3:0:0:
244,184,88897,1,2,1:2:0:0:
244,184,88982,1,2,1:2:0:0:
244,184,89124,1,2,1:2:0:0:
244,184,89295,1,2,1:2:0:0:
244,184,89465,1,2,1:2:0:0:
308,184,89636,5,2,1:2:0:0:
184,232,89977,1,2,1:2:0:0:
304,232,90318,1,10,1:2:0:0:
176,288,90659,5,2,1:3:0:0:
304,232,90999,1,2,1:2:0:0:
304,232,91170,1,2,1:2:0:0:
172,136,91511,1,2,1:2:0:0:
172,136,91681,5,2,1:2:0:0:
296,88,92022,1,2,1:2:0:0:
168,60,92363,1,10,1:2:0:0:
296,64,92704,5,8,1:3:0:0:
296,64,92988,1,2,1:2:0:0:
296,64,93073,1,2,1:2:0:0:
296,64,93215,1,2,1:0:0:0:
296,64,93386,1,2,1:0:0:0:
296,64,93556,1,2,1:0:0:0:
232,64,93727,5,2,1:0:0:0:
360,72,94068,1,2,1:0:0:0:
232,160,94409,1,10,1:2:0:0:
360,160,94750,5,2,1:3:0:0:
224,220,95090,1,2,0:0:0:0:
224,220,95261,1,10,1:0:0:0:
108,280,95602,1,2,0:0:0:0:
108,280,95772,5,10,1:0:0:0:
236,288,96113,1,2,1:2:0:0:
108,280,96454,1,2,1:0:0:0:
228,104,96795,6,0,L|360:104,1,120,6|2,1:3|1:2,0:0:0:0:
344,168,97306,1,2,1:2:0:0:
344,232,97476,1,2,0:0:0:0:
224,232,97817,6,0,L|84:232,1,120,2|2,1:2|1:2,0:0:0:0:
224,232,98499,1,8,1:2:0:0:
344,232,98840,6,0,L|344:368,1,120,8|2,1:3|1:2,0:0:0:0:
284,344,99351,2,0,L|140:344,1,120,2|2,1:2|1:2,0:0:0:0:
104,348,99864,5,2,1:2:0:0:
224,344,100204,1,2,1:2:0:0:
344,344,100545,1,10,1:2:0:0:
224,344,100886,6,0,L|224:204,1,120,2|2,1:3|1:2,0:0:0:0:
284,228,101397,1,2,1:2:0:0:
344,228,101567,1,2,0:0:0:0:
464,228,101908,6,0,L|328:228,2,120,2|2|10,1:2|1:2|1:2,0:0:0:0:
344,128,102932,6,0,L|476:128,2,120,8|2|2,1:3|1:2|0:0,0:0:0:0:
224,132,103954,5,2,1:2:0:0:
164,132,104124,1,0,0:0:0:0:
224,132,104294,1,8,1:2:0:0:
344,128,104636,1,2,1:0:0:0:
224,132,104977,5,6,0:3:0:0:
396,128,105999,1,2,0:0:0:0:
168,128,106681,1,2,0:0:0:0:
168,128,107022,1,2,0:0:0:0:
380,132,107704,1,2,0:0:0:0:
440,220,108045,1,2,0:0:0:0:
388,304,108386,1,2,0:0:0:0:
296,336,108727,1,2,0:0:0:0:
192,336,109068,5,4,0:0:0:0:
384,252,110090,1,2,0:0:0:0:
168,228,110772,1,2,0:0:0:0:
288,172,111113,1,2,0:0:0:0:
188,128,111472,1,2,0:0:0:0:
280,64,111907,1,2,0:0:0:0:
160,40,112433,1,2,0:0:0:0:
256,192,112696,12,0,115064,0:0:0:0:
