osu file format v14

[General]
AudioFilename: audio.mp3
AudioLeadIn: 0
PreviewTime: 57560
Countdown: 0
SampleSet: Soft
StackLeniency: 0.7
Mode: 0
LetterboxInBreaks: 0
WidescreenStoryboard: 1

[Editor]
Bookmarks: 28174,41265,47810,57628,83810,106719
DistanceSpacing: 1
BeatDivisor: 8
GridSize: 4
TimelineZoom: 1.9

[Metadata]
Title:Tsukiyo no Ongakukai
TitleUnicode:月夜の音楽会
Artist:Shikata Akiko
ArtistUnicode:志方あきこ
Creator:Hey lululu
Version:Kimi no Uta
Source:嘘つき姫と盲目王子
Tags:nippon1software 日本一 usotsukihime leo16834 gary00737 ScubDomino -[Pino]- IceKalt Yasaija 714 lu^3
BeatmapID:1803069
BeatmapSetID:861946

[Difficulty]
HPDrainRate:5
CircleSize:4.5
OverallDifficulty:8.5
ApproachRate:9.4
SliderMultiplier:1.8
SliderTickRate:1

[Events]
//Background and Video events
Video,-421,"video.avi"
0,0,"BG2.jpg",0,0
//Break Periods
//Storyboard Layer 0 (Background)
//Storyboard Layer 1 (Fail)
//Storyboard Layer 2 (Pass)
//Storyboard Layer 3 (Foreground)
//Storyboard Sound Samples

[TimingPoints]
366,272.727272727273,3,2,2,5,1,0
775,-200,3,2,2,10,0,0
1184,-200,3,2,2,20,0,0
1593,-200,3,2,2,30,0,0
2002,-200,3,2,2,40,0,0
3093,-200,3,2,2,40,0,0
5547,-200,3,2,2,20,0,0
6093,-200,3,2,2,40,0,0
9911,-200,3,2,2,5,0,0
9945,-200,3,2,2,40,0,0
11820,-200,3,2,2,30,0,0
14002,-200,3,2,2,10,0,0
15093,-400,3,2,3,30,0,0
28184,-125,3,2,3,40,0,0
34184,-125,3,2,3,45,0,0
34456,-125,3,2,3,50,0,0
34729,-125,3,2,3,55,0,0
41275,-200,3,2,4,40,0,0
47820,-100,3,2,3,60,0,0
56002,-100,3,2,1,60,0,0
56820,-200,3,2,1,40,0,0
57093,-200,3,2,1,50,0,0
57366,-200,3,2,1,60,0,0
57638,-83.3333333333333,3,2,1,60,0,1
83820,-83.3333333333333,3,2,1,60,0,0
87093,-400,3,2,4,30,0,0
110002,-400,3,2,4,10,0,0

[Colours]
Combo1 : 170,0,0
Combo2 : 141,71,71
Combo3 : 255,128,128
Combo4 : 255,194,134

[HitObjects]
256,192,638,12,2,2002,0:1:0:0:
256,192,2547,5,0,0:0:0:0:
256,192,3093,2,0,L|255:297,1,90,2|0,0:3|0:0,0:0:0:0:
132,327,3638,5,2,0:3:0:0:
140,296,3775,1,0,0:0:0:0:
21,229,3911,5,0,0:0:0:0:
29,260,4048,1,0,0:0:0:0:
164,204,4184,5,0,0:0:0:0:
172,173,4321,1,0,0:0:0:0:
43,34,4456,6,0,L|66:129,1,90,0|2,0:0|0:0,0:0:0:0:
172,173,5002,1,2,0:0:0:0:
359,80,5275,1,2,0:3:0:0:
172,173,5547,5,2,0:0:0:0:
270,215,5820,1,2,0:0:0:0:
359,80,6093,5,2,0:3:0:0:
365,106,6366,1,0,0:0:0:0:
370,132,6638,1,2,0:3:0:0:
486,217,6911,5,2,0:0:0:0:
182,240,7184,1,0,0:0:0:0:
297,201,7320,1,0,0:0:0:0:
362,311,7456,1,0,0:0:0:0:
486,217,7729,5,2,0:0:0:0:
486,217,8002,2,0,L|491:189,9,15,0|0|0|0|0|0|0|0|0|0,0:0|0:0|0:0|0:0|0:0|0:0|0:0|0:0|0:0|0:0,0:0:0:0:
469,311,8547,5,2,0:3:0:0:
469,311,9093,1,0,0:0:0:0:
469,311,9638,6,0,P|425:302|373:320,1,101.25,2|0,0:3|0:0,0:0:0:0:
266,375,10184,1,0,0:0:0:0:
266,375,10286,2,0,L|276:308,1,67.5,2|0,0:3|0:0,0:0:0:0:
291,216,10729,1,2,0:3:0:0:
149,274,10900,6,0,P|105:259|70:254,1,78.75
51,258,11206,1,0,0:0:0:0:
51,258,11547,1,2,0:3:0:0:
142,132,11820,5,0,0:0:0:0:
146,104,11956,1,0,0:0:0:0:
153,80,12093,1,0,0:0:0:0:
153,80,12366,1,0,0:0:0:0:
380,57,12638,5,0,0:0:0:0:
372,88,12775,1,0,0:0:0:0:
491,155,12911,5,0,0:0:0:0:
483,124,13048,1,0,0:0:0:0:
348,180,13184,5,0,0:0:0:0:
340,211,13321,1,0,0:0:0:0:
422,344,13456,6,0,P|456:342|401:280,1,180,0|0,0:0|0:0,0:0:0:0:
408,271,15093,6,0,P|366:265|315:277,1,90,2|0,0:0|0:0,0:0:0:0:
219,359,15911,2,0,P|213:317|189:270,1,90,2|0,0:0|0:0,0:0:0:0:
84,199,16729,2,0,P|124:183|162:147,1,90,2|0,0:0|0:0,0:0:0:0:
204,28,17547,2,0,P|229:62|274:90,1,90,2|0,0:0|0:0,0:0:0:0:
400,99,18366,2,0,P|374:133|359:183,1,90,2|0,0:0|0:0,0:0:0:0:
416,344,19184,5,2,0:0:0:0:
307,334,19456,1,0,0:0:0:0:
199,326,19729,1,0,0:0:0:0:
108,267,20002,6,0,P|77:276|61:284,2,45,2|0|0,0:0|0:0|0:0,0:0:0:0:
190,197,20820,2,0,P|204:151|192:109,1,90,2|0,0:0|0:0,0:0:0:0:
102,53,21502,1,0,0:0:0:0:
206,1,21638,6,0,P|248:12|261:58,1,90,2|0,0:0|0:0,0:0:0:0:
193,111,22456,1,2,0:0:0:0:
370,232,22729,1,0,0:0:0:0:
416,128,22866,1,0,0:0:0:0:
313,96,23002,1,0,0:0:0:0:
313,96,23275,6,0,L|302:195,1,90,2|0,0:0|0:0,0:0:0:0:
261,300,24093,1,2,0:0:0:0:
136,275,24229,1,0,0:0:0:0:
17,249,24366,1,0,0:0:0:0:
17,249,24911,5,2,0:0:0:0:
148,25,26547,6,0,P|98:18|113:83,1,135,2|2,0:0|0:0,0:0:0:0:
225,139,27638,1,8,0:0:0:0:
335,75,27911,1,0,3:0:0:0:
426,185,28184,6,0,L|404:348,2,144,2|2|8,0:0|0:0|0:0,0:0:0:0:
310,225,29002,2,0,L|330:325,1,72,2|0,0:0|0:0,0:0:0:0:
180,345,29275,1,2,0:0:0:0:
207,248,29411,1,0,0:0:0:0:
236,151,29547,1,8,0:0:0:0:
236,151,29820,6,0,P|170:156|95:112,1,144,2|2,0:0|0:0,0:0:0:0:
36,24,30366,1,8,0:0:0:0:
163,0,30638,6,0,P|169:47|166:76,1,72,2|0,0:0|0:0,0:0:0:0:
66,264,30911,1,2,0:0:0:0:
6,182,31047,1,0,0:0:0:0:
70,104,31184,1,8,0:0:0:0:
70,104,31456,6,0,P|150:133|210:176,2,144,2|2|8,0:0|0:0|0:0,0:0:0:0:
283,237,32275,2,0,P|203:266|143:309,2,144,2|0|0,0:0|0:0|0:0,0:0:0:0:
87,384,33093,2,0,P|60:314|8:231,1,144,2|2,0:0|0:0,0:0:0:0:
166,180,33638,1,8,0:0:0:0:
288,364,33911,6,0,P|274:324|277:274,1,72,2|0,0:0|0:0,0:0:0:0:
248,200,34184,2,0,P|283:176|332:166,1,72,2|0,0:0|0:0,0:0:0:0:
394,105,34456,2,0,P|426:132|448:177,1,72,8|0,0:0|0:0,0:0:0:0:
496,329,34729,6,0,L|337:309,2,144,2|2|8,0:0|0:0|0:0,0:0:0:0:
512,169,35547,2,0,P|434:194|459:262,2,144,2|2|8,0:0|0:0|0:0,0:0:0:0:
496,76,36366,2,0,B|411:63|437:112|351:96,1,144,2|2,0:0|0:0,0:0:0:0:
224,32,36911,1,8,0:0:0:0:
375,3,37184,5,2,0:0:0:0:
375,3,37456,1,2,0:0:0:0:
224,32,37593,1,0,0:0:0:0:
357,97,37729,1,8,0:0:0:0:
197,137,38002,6,0,P|182:65|150:-10,1,144,2|2,0:0|0:0,0:0:0:0:
93,185,38547,1,8,0:0:0:0:
187,252,38820,6,0,P|241:203|290:137,1,144,2|2,0:0|0:0,0:0:0:0:
93,185,39365,1,8,0:0:0:0:
153,344,39638,6,0,L|325:328,1,144,2|2,0:0|0:0,0:0:0:0:
440,313,40184,1,8,0:0:0:0:
439,152,40456,6,0,P|400:168|371:198,1,72,2|0,0:0|0:0,0:0:0:0:
317,33,40729,2,0,P|322:74|343:110,1,72,2|0,0:0|0:0,0:0:0:0:
183,133,41002,2,0,P|224:138|264:127,1,72,8|0,0:0|0:0,0:0:0:0:
214,41,41275,5,2,0:0:0:0:
179,30,41547,1,2,0:0:0:0:
143,37,41820,1,2,0:0:0:0:
19,53,42093,2,0,P|70:108|94:216,1,180,8|2,0:0|0:0,0:0:0:0:
22,305,42911,5,2,0:0:0:0:
66,298,43184,1,2,0:0:0:0:
110,292,43456,1,8,0:0:0:0:
210,355,43729,2,0,P|253:349|211:258,1,180,2|8,0:0|0:0,0:0:0:0:
214,159,44547,6,0,B|268:151|250:183|312:171,2,90,2|2|2,0:0|0:0|0:0,0:0:0:0:
219,77,45366,2,0,B|165:69|183:101|121:89,2,90,8|2|0,0:0|0:0|0:0,0:0:0:0:
298,28,46184,6,0,L|396:45,1,90,2|2,0:0|0:0,0:0:0:0:
493,68,46593,1,0,0:0:0:0:
431,169,46729,1,8,0:0:0:0:
431,169,47002,2,0,P|469:194|513:204,2,90,0|0|0,0:0|0:0|0:0,0:0:0:0:
314,166,47820,6,0,L|330:272,1,90,2|0,0:0|0:0,0:0:0:0:
342,362,48093,1,2,0:0:0:0:
234,309,48229,1,0,0:0:0:0:
396,223,48366,2,0,P|441:209|499:213,1,90,8|0,0:0|0:0,0:0:0:0:
153,47,48638,6,0,L|137:153,1,90,2|0,0:0|0:0,0:0:0:0:
125,243,48911,1,2,0:0:0:0:
233,190,49047,1,0,0:0:0:0:
70,104,49184,2,0,P|28:93|-21:97,1,90,8|0,0:0|0:0,0:0:0:0:
272,5,49456,6,0,P|317:27|336:88,1,90,2|0,0:0|0:0,0:0:0:0:
233,190,49729,1,2,0:0:0:0:
263,82,49866,1,0,0:0:0:0:
396,183,50002,2,0,L|491:164,1,90,8|0,0:0|0:0,0:0:0:0:
194,375,50275,6,0,P|149:353|130:292,1,90,2|0,0:0|0:0,0:0:0:0:
233,190,50548,1,0,0:0:0:0:
203,298,50685,1,0,0:0:0:0:
87,198,50821,2,0,L|-5:221,1,90
86,87,51093,6,0,B|132:75|132:75|184:106,1,90,2|0,0:0|0:0,0:0:0:0:
233,190,51366,1,2,0:0:0:0:
203,298,51502,1,0,0:0:0:0:
335,199,51638,2,0,B|355:301,1,90,8|0,0:0|0:0,0:0:0:0:
380,87,51911,6,0,B|334:75|334:75|282:106,1,90,2|0,0:0|0:0,0:0:0:0:
233,190,52184,1,2,0:0:0:0:
263,298,52320,1,0,0:0:0:0:
154,119,52456,2,0,B|119:212,1,90,8|0,0:0|0:0,0:0:0:0:
325,229,52729,6,0,L|421:244,1,90,2|0,0:0|0:0,0:0:0:0:
512,255,53002,1,2,0:0:0:0:
330,138,53138,1,0,0:0:0:0:
502,24,53275,2,0,L|475:117,1,90,8|0,0:0|0:0,0:0:0:0:
247,153,53547,6,0,P|246:119|283:70,1,90,2|0,0:0|0:0,0:0:0:0:
353,294,53820,2,0,P|382:310|406:366,1,90,2|0,0:0|0:0,0:0:0:0:
177,326,54093,2,0,P|148:343|87:336,1,90,8|0,0:0|0:0,0:0:0:0:
0,189,54366,6,0,L|110:205,1,90,2|0,0:0|0:0,0:0:0:0:
220,221,54638,1,2,0:0:0:0:
35,276,54775,1,0,0:0:0:0:
138,90,54911,1,8,0:0:0:0:
503,99,55184,6,0,L|393:115,1,90,2|0,0:0|0:0,0:0:0:0:
283,131,55456,1,2,0:0:0:0:
468,186,55593,1,0,0:0:0:0:
365,0,55729,1,8,0:0:0:0:
127,258,56002,5,8,0:0:0:0:
373,316,56138,1,8,0:0:0:0:
229,384,56275,2,0,P|229:334|218:295,1,90,8|0,0:0|0:0,0:0:0:0:
302,197,56547,2,0,P|301:152|313:109,1,90,8|0,0:0|0:0,0:0:0:0:
249,32,56820,6,0,P|236:60|217:70,1,45,8|0,0:0|0:0,0:0:0:0:
224,159,57093,2,0,P|193:153|179:137,1,45,0|0,0:0|0:0,0:0:0:0:
96,159,57366,2,0,P|93:128|104:110,1,45,0|0,0:0|0:0,0:0:0:0:
70,383,57638,6,0,B|8:348|8:348|-5:268|82:214,1,215.999993408203,6|2,3:0|3:0,0:0:0:0:
224,159,58047,1,0,0:0:0:0:
0,29,58184,2,0,L|29:158,1,107.999996704102,10|0,3:0|0:0,0:0:0:0:
250,67,58456,6,0,P|188:60|141:48,1,107.999996704102,2|0,3:0|0:0,0:0:0:0:
334,13,58729,1,2,3:0:0:0:
292,203,58866,1,0,0:0:0:0:
498,253,59002,2,0,P|481:187|393:157,1,161.999995056153,10|0,3:0|0:0,0:0:0:0:
372,162,59275,6,0,B|385:258|385:258|393:271|393:271|407:379,1,215.999993408203,2|2,3:0|3:0,0:0:0:0:
498,253,59684,1,0,0:0:0:0:
292,203,59820,2,0,P|240:201|179:225,1,107.999996704102,10|0,3:0|0:0,0:0:0:0:
317,11,60093,6,0,L|301:135,1,107.999996704102,2|0,3:0|0:0,0:0:0:0:
428,60,60366,1,2,3:0:0:0:
209,1,60502,1,0,0:0:0:0:
292,203,60638,2,0,P|365:217|430:136,1,161.999995056153,10|0,3:0|0:0,0:0:0:0:
434,135,60911,6,0,L|456:248,1,107.999996704102,6|0,3:0|0:0,0:0:0:0:
221,379,61184,2,0,L|241:272,1,107.999996704102,2|0,3:0|0:0,0:0:0:0:
280,56,61456,1,10,3:0:0:0:
280,56,61593,1,0,0:0:0:0:
116,154,61729,6,0,P|57:148|13:92,1,107.999996704102,2|0,3:0|0:0,0:0:0:0:
178,49,62002,1,2,3:0:0:0:
147,259,62138,1,0,0:0:0:0:
34,188,62275,2,0,L|222:161,1,161.999995056153,10|0,3:0|0:0,0:0:0:0:
221,165,62547,6,0,P|257:220|243:277,1,107.999996704102,2|0,3:0|0:0,0:0:0:0:
178,372,62820,1,2,3:0:0:0:
147,259,62956,1,0,0:0:0:0:
2,351,63093,2,0,B|61:365|61:365|121:330,1,107.999996704102,10|0,3:0|0:0,0:0:0:0:
221,165,63366,5,2,3:0:0:0:
1,129,63502,1,0,0:0:0:0:
147,259,63638,5,2,3:0:0:0:
394,138,63775,1,0,0:0:0:0:
174,26,63911,5,14,3:0:0:0:
261,334,64047,1,0,0:0:0:0:
480,147,64184,6,0,B|500:52|417:10|417:10|377:56,1,215.999993408203,6|2,3:0|3:0,0:0:0:0:
285,172,64593,1,0,0:0:0:0:
406,261,64729,2,0,L|533:230,1,107.999996704102,10|0,3:0|0:0,0:0:0:0:
285,172,65002,6,0,B|261:290|326:261|311:401,1,215.999993408203,2|2,3:0|3:0,0:0:0:0:
152,276,65411,1,0,0:0:0:0:
380,174,65547,1,10,3:0:0:0:
380,174,65684,1,0,0:0:0:0:
172,52,65820,6,0,B|95:12|10:68|10:68|73:109,1,215.999993408203,2|2,3:0|3:0,0:0:0:0:
248,207,66229,1,0,0:0:0:0:
68,310,66366,2,0,P|45:267|67:176,1,107.999996704102,10|0,3:0|0:0,0:0:0:0:
257,10,66638,6,0,L|284:132,1,107.999996704102,6|0,3:0|0:0,0:0:0:0:
336,303,66911,1,2,3:0:0:0:
460,170,67047,1,0,0:0:0:0:
172,90,67184,1,10,3:0:0:0:
172,90,67320,1,0,0:0:0:0:
415,6,67456,6,0,P|469:11|523:63,1,107.999996704102,6|0,3:0|0:0,0:0:0:0:
289,177,67729,1,2,3:0:0:0:
435,96,67866,1,0,0:0:0:0:
224,20,68002,2,0,L|89:13,1,107.999996704102,10|0,3:0|0:0,0:0:0:0:
275,276,68275,6,0,P|297:236|280:163,1,107.999996704102,2|0,3:0|0:0,0:0:0:0:
0,189,68547,1,2,3:0:0:0:
215,217,68684,1,0,0:0:0:0:
33,0,68820,2,0,L|56:107,1,107.999996704102,10|0,3:0|0:0,0:0:0:0:
33,321,69093,6,0,P|89:292|137:294,1,107.999996704102,2|0,3:0|0:0,0:0:0:0:
283,361,69366,1,2,3:0:0:0:
267,108,69502,1,0,0:0:0:0:
481,255,69638,2,0,L|464:367,1,107.999996704102,10|0,3:0|0:0,0:0:0:0:
192,252,69911,5,2,3:0:0:0:
426,183,70047,1,0,0:0:0:0:
144,169,70184,5,2,3:0:0:0:
420,93,70320,1,0,0:0:0:0:
107,85,70456,5,14,3:0:0:0:
404,6,70592,1,0,0:0:0:0:
242,3,70729,6,0,L|298:229,1,215.999993408203,6|2,3:0|3:0,0:0:0:0:
339,361,71138,1,0,0:0:0:0:
484,261,71275,2,0,P|432:224|360:232,1,107.999996704102,10|0,3:0|0:0,0:0:0:0:
119,238,71547,6,0,P|194:247|257:139,1,215.999993408203,2|2,3:0|3:0,0:0:0:0:
122,8,71956,1,0,0:0:0:0:
18,164,72093,2,0,L|156:134,1,107.999996704102,10|0,3:0|0:0,0:0:0:0:
294,1,72366,6,0,P|369:18|430:141,1,215.999993408203,6|2,3:0|3:0,0:0:0:0:
301,303,72775,1,0,0:0:0:0:
123,141,72911,2,0,L|18:164,1,107.999996704102,10|0,3:0|0:0,0:0:0:0:
301,303,73184,6,0,P|316:239|302:195,1,107.999996704102,2|0,3:0|0:0,0:0:0:0:
123,141,73456,1,2,3:0:0:0:
231,245,73593,1,0,0:0:0:0:
289,9,73729,1,10,3:0:0:0:
231,245,73866,1,0,0:0:0:0:
406,138,74002,6,0,L|514:158,1,107.999996704102,6|0,3:0|0:0,0:0:0:0:
414,359,74275,1,2,3:0:0:0:
310,160,74411,1,0,0:0:0:0:
161,313,74547,2,0,L|49:331,1,107.999996704102,10|0,3:0|0:0,0:0:0:0:
17,54,74820,5,2,3:0:0:0:
310,160,74956,1,0,0:0:0:0:
26,246,75093,5,2,3:0:0:0:
114,0,75229,1,0,0:0:0:0:
216,249,75366,5,10,3:0:0:0:
216,249,75502,1,0,0:0:0:0:
365,65,75638,6,0,B|221:19|221:19|160:55,1,215.999993408203,2|2,3:0|3:0,0:0:0:0:
296,250,76047,1,0,0:0:0:0:
433,146,76184,2,0,P|463:78|462:5,1,107.999996704102,10|0,3:0|0:0,0:0:0:0:
244,92,76456,5,2,3:0:0:0:
366,350,76593,1,0,0:0:0:0:
365,65,76729,5,2,3:0:0:0:
183,292,76866,1,0,0:0:0:0:
47,24,77002,6,0,P|116:26|159:110,1,161.999995056153,14|0,3:0|0:0,0:0:0:0:
155,126,77275,6,0,L|22:157,1,107.999996704102,6|0,3:0|0:0,0:0:0:0:
1,288,77547,1,2,3:0:0:0:
148,367,77684,1,0,0:0:0:0:
272,257,77820,2,0,P|274:202|243:125,1,107.999996704102,10|0,3:0|0:0,0:0:0:0:
61,44,78093,5,2,3:0:0:0:
362,101,78229,1,0,0:0:0:0:
112,220,78366,5,2,3:0:0:0:
335,3,78502,1,0,0:0:0:0:
486,218,78638,6,0,P|503:308|444:356,1,161.999995056153,10|0,3:0|0:0,0:0:0:0:
432,341,78911,6,0,B|326:324|326:324|306:330|306:330|192:313,1,215.999993408203,2|2,3:0|3:0,0:0:0:0:
108,151,79320,1,0,0:0:0:0:
308,36,79456,2,0,L|293:187,1,107.999996704102,10|0,3:0|0:0,0:0:0:0:
296,260,79729,5,2,3:0:0:0:
43,204,79866,1,0,0:0:0:0:
259,375,80002,5,6,3:0:0:0:
43,327,80139,1,0,0:0:0:0:
143,384,80275,6,0,L|175:208,1,161.999995056153,14|0,3:0|0:0,0:0:0:0:
180,199,80547,6,0,L|292:226,1,107.999996704102,6|0,3:0|0:0,0:0:0:0:
443,254,80820,1,2,3:0:0:0:
264,110,80956,1,0,0:0:0:0:
425,10,81093,2,0,P|437:81|425:125,1,107.999996704102,10|0,3:0|0:0,0:0:0:0:
86,66,81366,6,0,L|209:48,1,107.999996704102,2|0,3:0|0:0,3:0:0:0:
343,29,81638,1,2,3:0:0:0:
60,192,81775,1,0,0:0:0:0:
330,365,81911,6,0,P|368:294|321:219,1,161.999995056153,10|0,3:0|0:0,0:0:0:0:
308,216,82184,6,0,B|437:186|403:262|529:220,1,215.999993408203,2|2,3:0|3:0,0:0:0:0:
467,108,82593,1,0,0:0:0:0:
366,299,82729,1,10,3:0:0:0:
366,299,82866,1,0,0:0:0:0:
132,165,83002,5,6,3:0:0:0:
467,108,83138,1,0,0:0:0:0:
161,9,83275,5,2,3:0:0:0:
232,359,83411,1,0,0:0:0:0:
0,331,83547,6,0,B|50:314|50:314|83:318|83:318|119:301|119:301|168:294,1,161.999995056153,14|0,3:0|0:0,0:0:0:0:
295,260,83820,5,6,3:0:0:0:
463,338,87093,6,0,L|475:295,2,45,2|0|0,0:0|0:0|0:0,0:0:0:0:
368,248,87911,2,0,L|399:279,2,45,8|0|0,0:0|0:0|0:0,0:0:0:0:
496,220,88729,2,0,L|452:231,2,45,2|0|0,0:0|0:0|0:0,0:0:0:0:
395,146,89547,5,8,0:0:0:0:
210,306,90366,6,0,P|190:304|168:292,2,45,2|0|0,0:0|0:0|0:0,0:0:0:0:
306,259,91184,1,8,0:0:0:0:
306,259,91456,1,0,0:0:0:0:
291,165,91593,1,0,0:0:0:0:
279,73,91729,1,0,0:0:0:0:
210,15,92002,6,0,P|193:40|189:56,2,45,2|0|0,0:0|0:0|0:0,0:0:0:0:
206,131,92820,2,0,L|161:138,2,45,8|0|0,0:0|0:0|0:0,0:0:0:0:
158,214,93638,6,0,P|136:211|109:196,2,45,2|0|0,0:0|0:0|0:0,0:0:0:0:
202,276,94456,2,0,P|184:290|154:298,2,45,8|0|0,0:0|0:0|0:0,0:0:0:0:
278,290,95275,2,0,P|275:312|260:339,2,45,2|0|0,0:0|0:0|0:0,0:0:0:0:
285,194,96093,5,8,0:0:0:0:
174,175,96366,1,0,0:0:0:0:
63,156,96638,1,0,0:0:0:0:
104,68,96911,6,0,P|126:80|138:95,2,45,2|0|0,0:0|0:0|0:0,0:0:0:0:
15,77,97729,2,0,P|15:51|22:34,2,45,8|0|0,0:0|0:0|0:0,0:0:0:0:
63,156,98547,2,0,P|42:169|23:171,2,45,2|0|0,0:0|0:0|0:0,0:0:0:0:
161,101,99366,5,8,0:0:0:0:
139,212,99638,1,0,0:0:0:0:
115,320,99911,1,0,0:0:0:0:
236,288,100184,6,0,L|288:295,1,45,2|0,0:0|0:0,0:0:0:0:
412,307,100729,1,0,0:0:0:0:
350,247,101002,2,0,P|333:272|330:292,2,45,8|0|0,0:0|0:0|0:0,0:0:0:0:
422,143,101820,6,0,L|370:136,1,45,2|0,0:0|0:0,0:0:0:0:
246,124,102365,1,0,0:0:0:0:
308,184,102638,2,0,P|325:159|328:139,2,45,8|0|0,0:0|0:0|0:0,0:0:0:0:
184,235,103456,5,2,0:0:0:0:
58,186,103729,1,0,0:0:0:0:
56,50,104002,1,0,0:0:0:0:
163,102,104275,5,8,0:0:0:0:
184,235,104548,1,0,0:0:0:0:
67,305,104821,1,0,0:0:0:0:
58,186,105093,5,2,0:0:0:0:
163,101,105366,1,0,0:0:0:0:
282,167,105639,1,0,0:0:0:0:
235,337,105911,5,8,0:0:0:0:
282,167,106184,1,0,0:0:0:0:
329,12,106456,1,0,0:0:0:0:
474,210,106729,6,0,B|461:137|410:181|381:105|381:105|392:184|410:297|410:297|410:384|318:370|303:306|345:270|380:283,1,540,2|0,0:0|0:0,0:0:0:0:
