osu file format v14

[General]
AudioFilename: audio.mp3
AudioLeadIn: 0
PreviewTime: 52595
Countdown: 0
SampleSet: Soft
StackLeniency: 0.2
Mode: 0
LetterboxInBreaks: 0
WidescreenStoryboard: 0

[Editor]
DistanceSpacing: 0.7
BeatDivisor: 4
GridSize: 32
TimelineZoom: 2.2

[Metadata]
Title:Shinshoku Suru Sekai
TitleUnicode:侵食スル世界
Artist:Shikata Akiko
ArtistUnicode:志方あきこ
Creator:Mordred
Version:Who Am I?
Source:
Tags:noAno japanese folk gothic neoclassical dark wave
BeatmapID:2350422
BeatmapSetID:1124880

[Difficulty]
HPDrainRate:7
CircleSize:5
OverallDifficulty:8
ApproachRate:8
SliderMultiplier:1.6
SliderTickRate:1

[Events]
//Background and Video events
0,0,"65325237_p1_master1200.jpg",0,0
//Break Periods
//Storyboard Layer 0 (Background)
//Storyboard Layer 1 (Fail)
//Storyboard Layer 2 (Pass)
//Storyboard Layer 3 (Foreground)
//Storyboard Layer 4 (Overlay)
//Storyboard Sound Samples

[TimingPoints]
424,769.230769230769,4,2,1,30,1,0
6577,-100,4,2,1,5,0,0
7347,-100,4,2,1,10,0,0
8116,-100,4,2,1,15,0,0
8885,-100,4,2,1,20,0,0
9654,-100,4,2,1,25,0,0
10616,-100,4,2,1,5,0,0
12347,-100,4,2,1,20,0,0
12731,-166.666666666667,4,2,1,20,0,0
13212,-166.666666666667,4,2,1,5,0,0
13308,-166.666666666667,4,2,1,20,0,0
19366,-166.666666666667,4,2,1,5,0,0
19462,-166.666666666667,4,2,1,20,0,0
25039,-125,4,2,1,40,0,0
36000,-125,4,2,1,5,0,0
36097,-125,4,2,1,40,0,0
36289,-125,4,2,1,5,0,0
36385,-125,4,2,1,40,0,0
37347,-166.666666666667,4,2,1,30,0,0
52731,-83.3333333333333,4,2,1,60,0,1
76577,-71.4285714285714,4,2,1,60,0,1
77347,-100,4,2,1,60,0,0
89654,-142.857142857143,4,2,1,30,0,0
90135,-142.857142857143,4,2,1,5,0,0
90231,-142.857142857143,4,2,1,30,0,0
96289,-142.857142857143,4,2,1,5,0,0
96385,-142.857142857143,4,2,1,30,0,0
101962,-142.857142857143,4,2,1,40,0,0
114270,-166.666666666667,4,2,1,30,0,0
128116,-166.666666666667,4,2,3,30,0,0
129654,-71.4285714285714,4,2,1,70,0,1
139173,-71.4285714285714,4,2,1,5,0,1
139270,-71.4285714285714,4,2,1,70,0,1
154270,-100,4,2,1,50,0,0
160520,-100,4,2,1,30,0,0
161193,-100,4,2,1,35,0,0
161962,-100,4,2,1,40,0,0
162731,-100,4,2,1,45,0,0
163500,-100,4,2,1,60,0,0
164077,-100,4,2,1,65,0,0
164654,-100,4,2,1,70,0,0
165808,-100,4,2,1,50,0,0
166577,-58.8235294117647,4,2,1,70,0,0
172635,-58.8235294117647,4,2,1,5,0,0
172731,-66.6666666666667,4,2,1,70,0,0
178885,-58.8235294117647,4,2,1,70,0,0
185039,-50,4,2,1,70,0,0
189654,-50,4,2,1,80,0,0
190423,-50,4,2,1,60,0,0
191193,-58.8235294117647,4,2,1,70,0,1
215808,-100,4,2,1,50,0,0
231097,-100,4,2,1,5,0,0
231193,-100,4,2,1,50,0,0
240423,-100,4,2,1,40,0,0
241962,745.341614906832,4,2,1,40,1,0
242744,774.193548387097,4,2,1,40,1,0
243500,869.565217391304,4,2,1,40,1,0
243934,697.674418604651,4,2,1,40,1,0
244108,645.161290322581,4,2,1,40,1,0
244270,937.5,4,2,1,40,1,0
244270,-83.3333333333333,4,2,1,40,0,0
244846,784.313725490196,4,2,1,40,1,0
245039,769.230769230769,4,2,1,40,1,0
246582,769.230769230769,4,2,1,40,1,0
250038,714.285714285714,4,2,1,40,1,0
250216,952.380952380952,4,2,1,40,1,0
250337,681.818181818182,4,2,1,40,1,0
251030,769.230769230769,4,2,1,40,1,0
251177,750,4,2,1,40,1,0
251927,769.230769230769,4,2,1,40,1,0
252247,-83.3333333333333,4,2,1,40,0,0
252517,769.230769230769,4,2,1,40,1,0
252715,769.230769230769,4,2,1,40,1,0
255791,810.810810810811,4,2,1,30,1,0
257412,769.230769230769,4,2,1,30,1,0
259327,769.230769230769,4,2,1,30,1,0
259711,-83.3333333333333,4,2,1,30,0,0
260042,845.070422535211,4,2,1,30,1,0
260253,697.674418604651,4,2,1,30,1,0
260426,769.230769230769,4,2,1,30,1,0
261195,789.473684210526,4,2,1,30,1,0
261589,759.493670886076,4,2,1,30,1,0
262716,869.565217391304,4,2,1,30,1,0
263585,789.473684210526,4,2,1,30,1,0

[Colours]
Combo1 : 250,180,240
Combo2 : 110,190,225
Combo3 : 255,230,130
Combo4 : 150,230,140

[HitObjects]
256,192,6577,12,0,10616,0:2:0:0:
36,157,12347,5,0,0:2:0:0:
36,157,12731,2,0,L|44:221,1,59.9999981689454,0|0,0:2|0:2,0:2:0:0:
0,277,13308,2,0,P|40:253|112:272,1,119.999996337891,2|0,0:2|0:2,0:2:0:0:
224,384,14654,1,0,0:2:0:0:
288,352,15039,1,0,0:2:0:0:
355,374,15423,1,0,0:2:0:0:
419,342,15808,2,0,L|431:263,1,71.9999978027344,2|0,0:2|0:2,0:2:0:0:
479,87,16577,2,0,P|445:145|493:192,1,143.999995605469,2|0,0:2|0:2,0:2:0:0:
288,32,18500,5,0,0:2:0:0:
288,32,18885,2,0,L|223:40,1,59.9999981689454,0|0,0:2|0:2,0:2:0:0:
158,62,19462,2,0,L|279:76,1,119.999996337891,2|0,0:2|0:2,0:2:0:0:
416,32,20808,1,0,0:2:0:0:
449,19,21000,1,0,0:2:0:0:
482,32,21193,1,0,0:2:0:0:
495,65,21385,2,0,P|493:88|489:112,1,47.9999985351563,2|0,0:2|0:2,0:2:0:0:
378,174,21962,2,0,P|373:150|372:126,1,47.9999985351563,0|0,0:2|0:2,0:2:0:0:
497,188,22539,2,0,L|480:359,1,167.999994873047,2|0,0:2|0:2,0:2:0:0:
256,384,24654,5,0,0:2:0:0:
256,384,25039,2,0,P|251:353|250:321,1,64,2|0,1:2|0:2,0:2:0:0:
288,192,25616,1,2,1:2:0:0:
288,192,25808,2,0,L|332:185,1,32,0|0,3:2|0:2,0:2:0:0:
377,284,26193,2,0,L|333:277,1,32,0|0,0:2|0:2,0:2:0:0:
208,215,26577,2,0,L|204:193,3,16,0|0|0|0,3:2|3:2|3:2|3:2,0:2:0:0:
202,245,26962,1,2,1:2:0:0:
135,259,27154,1,2,0:2:0:0:
0,206,27347,1,2,3:2:0:0:
67,192,27539,2,0,L|74:150,1,32,2|0,1:2|3:2,0:2:0:0:
48,80,27923,1,2,0:2:0:0:
176,16,28116,6,0,L|239:10,1,64,2|0,1:2|0:2,0:2:0:0:
416,96,28693,1,2,1:2:0:0:
416,96,28885,2,0,L|352:90,1,64,2|0,3:2|0:2,0:2:0:0:
343,97,29366,1,0,0:2:0:0:
334,103,29462,1,0,0:2:0:0:
325,109,29558,1,0,0:2:0:0:
316,115,29654,2,0,L|300:113,2,16,0|0|0,3:2|3:2|3:2,0:2:0:0:
370,179,30039,2,0,L|372:210,1,32,0|0,1:2|0:2,0:2:0:0:
302,348,30423,6,0,L|296:285,2,64,2|0|2,3:2|1:2|1:2,0:2:0:0:
416,384,31577,1,0,0:2:0:0:
489,294,31962,2,0,L|500:155,1,128,2|10,3:2|0:2,0:2:0:0:
470,56,33116,1,0,1:2:0:0:
359,87,33500,2,0,L|327:90,1,32,2|0,0:2|1:2,0:2:0:0:
261,69,33885,1,0,3:2:0:0:
261,69,34077,1,0,0:2:0:0:
137,13,34270,6,0,P|148:42|157:73,1,64,2|0,1:2|0:2,0:2:0:0:
128,160,34847,1,0,1:2:0:0:
36,154,35039,2,0,P|30:168|25:184,1,32,0|0,3:2|0:2,0:2:0:0:
32,256,35423,1,0,0:2:0:0:
32,256,35616,1,0,0:2:0:0:
154,307,35808,2,0,L|199:312,1,32,2|0,3:2|0:2,0:2:0:0:
240,354,36097,2,0,L|285:348,1,32,2|0,0:2|0:2,0:2:0:0:
336,368,36385,1,2,1:2:0:0:
160,384,36577,1,2,1:2:0:0:
21,183,36962,1,2,0:2:0:0:
17,164,37154,1,2,1:2:0:0:
13,145,37347,5,2,0:2:0:0:
64,320,38116,1,2,0:2:0:0:
239,269,38885,1,2,0:2:0:0:
188,94,39654,1,2,0:2:0:0:
512,192,40423,6,0,L|456:198,1,47.9999985351563,2|0,0:2|0:2,0:2:0:0:
408,156,41000,1,0,0:2:0:0:
408,156,41193,2,0,L|405:128,1,23.9999992675781,0|0,0:2|0:2,0:2:0:0:
452,77,41577,2,0,L|449:49,1,23.9999992675781,0|0,0:2|0:2,0:2:0:0:
400,5,41962,1,2,0:2:0:0:
400,5,42347,1,0,0:2:0:0:
320,224,42731,1,2,0:2:0:0:
160,32,43116,1,2,0:2:0:0:
64,320,43500,5,2,0:2:0:0:
138,331,44270,1,2,0:2:0:0:
212,342,45039,1,2,0:2:0:0:
286,353,45808,1,2,0:2:0:0:
417,162,46577,5,2,0:2:0:0:
286,353,47347,1,2,0:2:0:0:
95,222,48116,1,2,0:2:0:0:
226,31,48885,1,2,0:2:0:0:
417,162,49654,6,0,L|421:209,1,47.9999985351563,2|0,0:2|0:2,0:2:0:0:
395,278,50423,2,0,L|397:301,2,23.9999992675781,0|0|0,0:2|0:2|0:2,0:2:0:0:
256,192,51193,5,2,0:2:0:0:
0,64,52731,6,0,B|46:40|46:40|129:77,1,143.999995605469,6|0,1:1|0:2,0:2:0:0:
352,28,53500,2,0,B|306:4|306:4|222:41,1,143.999995605469,10|0,0:2|0:2,0:2:0:0:
444,89,54270,2,0,L|457:42,1,47.9999985351563,2|0,1:2|0:2,0:2:0:0:
288,128,54654,2,0,L|301:175,1,47.9999985351563,2|0,1:2|0:2,0:2:0:0:
480,352,55039,2,0,L|505:259,1,95.9999970703126,10|2,0:2|0:2,0:2:0:0:
47,306,55808,6,0,P|110:277|178:298,1,143.999995605469,6|0,1:1|0:2,0:2:0:0:
378,370,56577,2,0,P|310:390|246:361,1,143.999995605469,10|0,0:2|0:2,0:2:0:0:
209,208,57347,2,0,L|206:160,1,47.9999985351563,2|0,1:2|0:2,0:2:0:0:
32,23,57731,2,0,L|34:70,1,47.9999985351563,2|0,1:2|0:2,0:2:0:0:
288,96,58116,2,0,L|335:93,1,47.9999985351563,10|0,0:2|0:2,0:2:0:0:
64,256,58500,2,0,L|16:258,1,47.9999985351563,14|0,0:2|0:2,0:2:0:0:
378,370,58885,6,0,L|390:275,1,95.9999970703126,6|0,1:1|0:2,0:2:0:0:
496,80,59654,2,0,L|484:175,1,95.9999970703126,10|0,0:2|0:2,0:2:0:0:
294,313,60423,2,0,L|199:301,1,95.9999970703126,6|0,1:1|1:2,0:2:0:0:
4,195,61193,2,0,L|99:207,1,95.9999970703126,10|2,0:2|0:2,0:2:0:0:
512,32,61962,6,0,B|479:18|479:18|421:34,1,95.9999970703126,6|2,1:1|0:2,0:2:0:0:
378,193,62539,1,2,0:2:0:0:
378,193,62731,2,0,P|445:179|469:115,1,143.999995605469,10|0,0:2|0:2,0:2:0:0:
277,12,63500,2,0,L|291:106,1,95.9999970703126,2|0,1:2|1:2,0:2:0:0:
448,320,64270,1,14,0:2:0:0:
64,64,64654,1,14,0:0:0:0:
448,0,65039,6,0,B|490:41|490:41|465:122,1,143.999995605469,6|0,1:1|0:2,0:2:0:0:
494,335,65808,2,0,B|536:294|536:294|511:212,1,143.999995605469,10|0,0:2|0:2,0:2:0:0:
397,63,66577,2,0,L|349:56,1,47.9999985351563,2|0,1:2|0:2,0:2:0:0:
448,269,66962,2,0,L|400:275,1,47.9999985351563,2|0,1:2|0:2,0:2:0:0:
192,128,67347,2,0,L|286:141,1,95.9999970703126,10|0,0:2|0:2,0:2:0:0:
64,384,68116,6,0,B|22:343|22:343|47:262,1,143.999995605469,6|0,1:1|0:2,0:2:0:0:
18,49,68885,2,0,B|-24:90|-24:90|1:172,1,143.999995605469,10|0,0:2|0:2,0:2:0:0:
115,321,69654,2,0,L|163:328,1,47.9999985351563,2|0,1:2|0:2,0:2:0:0:
256,160,70039,2,0,L|304:153,1,47.9999985351563,2|0,1:2|0:2,0:2:0:0:
416,320,70423,1,14,0:2:0:0:
512,32,70808,1,14,0:2:0:0:
336,368,71193,6,0,L|241:381,1,95.9999970703126,6|0,1:1|0:2,0:2:0:0:
410,230,71962,2,0,L|504:243,1,95.9999970703126,10|0,0:2|1:2,0:2:0:0:
220,301,72731,2,0,L|206:206,1,95.9999970703126,6|0,1:1|1:2,0:2:0:0:
448,32,73500,2,0,L|434:126,1,95.9999970703126,10|0,0:2|1:2,0:2:0:0:
151,151,74270,6,0,P|194:132|242:135,1,95.9999970703126,6|0,1:1|0:2,0:2:0:0:
336,208,74847,1,0,0:2:0:0:
336,208,75039,2,0,L|342:255,1,47.9999985351563,8|0,0:2|0:2,0:2:0:0:
160,384,75423,2,0,L|153:336,1,47.9999985351563,2|0,1:2|1:2,0:2:0:0:
0,192,75808,2,0,L|12:96,1,95.9999970703126,14|0,0:1|1:2,0:2:0:0:
192,0,76385,1,2,0:2:0:0:
192,0,76481,1,2,0:2:0:0:
192,0,76577,2,0,B|200:30|200:30|189:52,1,55.9999982910157,14|0,0:2|0:2,0:2:0:0:
96,224,76962,2,0,B|88:194|88:194|98:171,1,55.9999982910157,14|0,0:2|0:2,0:2:0:0:
288,32,77347,5,6,1:1:0:0:
448,128,77731,1,0,0:2:0:0:
384,0,78116,1,10,0:2:0:0:
256,160,78500,1,0,0:2:0:0:
32,32,78885,1,2,1:2:0:0:
320,80,79270,1,0,1:2:0:0:
0,320,79654,1,10,0:2:0:0:
224,0,80039,1,0,0:2:0:0:
480,384,80423,5,6,1:2:0:0:
113,160,80808,1,0,0:2:0:0:
480,384,81193,1,14,0:2:0:0:
113,160,81578,1,0,0:2:0:0:
256,352,81962,1,2,1:2:0:0:
416,192,82347,1,0,1:2:0:0:
448,288,82731,1,10,0:2:0:0:
185,256,83116,1,8,0:2:0:0:
128,352,83500,5,2,1:2:0:0:
317,273,83885,1,0,0:2:0:0:
53,239,84270,1,10,0:2:0:0:
256,384,84654,1,0,0:2:0:0:
378,162,85039,1,2,1:2:0:0:
128,352,85423,1,0,1:2:0:0:
280,39,85808,1,10,0:2:0:0:
416,384,86193,1,0,0:2:0:0:
512,0,86577,5,6,1:2:0:0:
448,256,86962,1,0,0:2:0:0:
320,64,87347,1,10,0:2:0:0:
268,268,87732,1,0,0:2:0:0:
166,115,88115,1,2,1:2:0:0:
124,278,88500,1,0,1:2:0:0:
42,155,88885,1,10,0:2:0:0:
9,286,89270,1,0,0:2:0:0:
121,193,89654,6,0,L|198:205,1,69.9999978637696,2|0,1:2|0:2,0:2:0:0:
240,272,90231,1,2,1:2:0:0:
240,272,90423,2,0,L|222:189,1,83.9999974365235,0|0,3:2|1:2,0:2:0:0:
223,190,91577,1,0,0:2:0:0:
320,224,91962,1,0,3:2:0:0:
301,123,92347,1,0,0:2:0:0:
339,325,92731,6,0,L|421:342,1,83.9999974365235,2|0,1:2|1:2,0:2:0:0:
256,384,93500,2,0,L|201:372,1,55.9999982910157,2|0,3:2|0:2,0:2:0:0:
132,384,94077,1,0,1:2:0:0:
16,304,94270,1,0,0:2:0:0:
14,284,94462,1,0,0:2:0:0:
12,264,94654,1,0,0:2:0:0:
10,244,94847,2,0,L|16:196,1,27.9999991455078,0|0,0:2|3:2,0:2:0:0:
128,32,95423,5,0,0:2:0:0:
128,32,95808,2,0,L|136:103,1,69.9999978637696,0|0,1:2|0:2,0:2:0:0:
237,135,96385,1,2,1:2:0:0:
237,135,96577,2,0,L|151:124,1,83.9999974365235,0|0,3:2|1:2,0:2:0:0:
13,212,97731,1,0,0:2:0:0:
0,245,97923,1,0,0:2:0:0:
13,278,98116,1,0,3:2:0:0:
46,291,98308,2,0,P|73:288|102:283,1,55.9999982910157,2|0,0:2|0:2,0:2:0:0:
194,193,98885,2,0,P|166:188|138:185,1,55.9999982910157,2|0,1:2|0:2,0:2:0:0:
179,349,99462,6,0,L|290:336,1,111.999996582031,2|0,1:2|1:2,0:2:0:0:
424,371,100616,2,0,L|431:386,3,9.33333304850261,2|2|2|2,0:2|0:2|0:2|0:2,0:2:0:0:
512,276,101193,1,0,3:2:0:0:
512,276,101577,1,0,0:2:0:0:
480,64,101962,5,2,1:2:0:0:
384,160,102347,1,2,0:2:0:0:
224,95,102731,2,0,L|251:98,1,27.9999991455078,2|0,3:2|0:2,0:2:0:0:
433,113,103116,1,2,0:2:0:0:
234,167,103500,2,0,L|206:169,1,27.9999991455078,2|0,0:2|0:2,0:2:0:0:
139,141,103885,1,2,0:2:0:0:
139,141,104077,1,0,0:2:0:0:
96,288,104270,1,0,3:2:0:0:
96,288,104462,1,0,0:2:0:0:
128,352,104847,1,0,0:2:0:0:
12,286,105039,6,0,L|3:202,1,83.9999974365235,2|0,1:2|1:2,0:2:0:0:
96,96,105808,2,0,L|93:123,2,27.9999991455078,2|0|0,3:2|0:2|0:2,0:2:0:0:
160,66,106385,1,0,1:2:0:0:
192,128,106577,2,0,L|194:155,2,27.9999991455078,2|0|0,0:2|0:2|0:2,0:2:0:0:
230,70,107154,1,0,0:2:0:0:
320,160,107347,2,0,L|375:165,1,55.9999982910157,2|0,3:2|0:2,0:2:0:0:
80,16,108116,5,2,1:2:0:0:
80,16,108500,1,0,0:2:0:0:
416,96,108885,5,2,3:2:0:0:
416,96,109077,1,0,0:2:0:0:
416,96,109269,1,0,0:2:0:0:
448,192,109462,5,0,1:2:0:0:
416,288,109654,5,2,0:2:0:0:
416,288,109846,1,0,0:2:0:0:
416,288,110038,1,0,0:2:0:0:
80,368,110423,5,2,3:2:0:0:
80,368,110807,1,0,0:2:0:0:
248,328,111193,5,2,1:2:0:0:
40,200,111577,5,0,0:2:0:0:
208,160,111962,5,0,3:2:0:0:
80,368,112347,5,0,0:2:0:0:
144,264,112731,5,2,0:2:0:0:
144,264,112923,1,0,0:2:0:0:
144,264,113308,6,0,L|199:270,1,55.9999982910157,0|0,0:2|0:2,0:2:0:0:
288,352,113885,1,0,0:2:0:0:
310,348,114077,1,0,0:2:0:0:
332,344,114270,5,2,1:2:0:0:
424,381,114654,2,0,L|448:384,1,23.9999992675781,0|0,0:2|1:2,0:2:0:0:
512,324,115039,2,0,L|464:318,1,47.9999985351563,2|0,3:2|0:2,0:2:0:0:
416,192,115808,2,0,L|413:173,3,15.9999995117188,2|0|0|0,3:2|3:2|3:2|1:2,0:2:0:0:
331,297,116577,2,0,L|307:298,1,23.9999992675781,2|0,3:2|0:2,0:2:0:0:
253,343,116962,2,0,L|229:344,1,23.9999992675781,0|0,1:2|0:2,0:2:0:0:
128,384,117347,6,0,L|80:380,1,47.9999985351563,2|0,1:2|1:2,0:2:0:0:
25,329,117923,1,0,1:2:0:0:
2,256,118116,2,0,L|0:232,1,23.9999992675781,2|0,3:2|0:2,0:2:0:0:
20,166,118500,1,0,1:2:0:0:
23,159,118597,1,0,0:2:0:0:
26,153,118693,1,0,0:2:0:0:
29,147,118789,1,0,0:2:0:0:
33,141,118885,2,0,L|31:117,2,23.9999992675781,2|0|0,3:2|3:2|1:2,0:2:0:0:
96,64,119654,1,0,1:2:0:0:
96,64,120039,1,0,1:2:0:0:
5,208,120423,6,0,L|2:256,1,47.9999985351563,2|0,1:2|0:2,0:2:0:0:
32,320,121000,1,0,1:2:0:0:
32,320,121193,2,0,L|79:323,1,47.9999985351563,2|0,3:2|0:2,0:2:0:0:
192,384,121962,1,2,3:2:0:0:
195,367,122154,1,0,0:2:0:0:
198,350,122347,2,0,L|194:305,1,23.9999992675781,0|0,1:2|0:2,0:2:0:0:
134,241,122731,2,0,L|131:217,2,23.9999992675781,2|0|0,1:2|0:2|1:2,0:2:0:0:
320,288,123500,5,2,1:2:0:0:
320,288,123885,1,0,1:2:0:0:
352,128,124270,1,2,3:2:0:0:
352,128,124654,2,0,L|355:108,3,11.9999996337891,0|0|0|0,1:2|0:2|0:2|0:2,0:2:0:0:
256,192,125039,2,0,L|257:207,2,15.9999995117188,2|0|0,3:2|3:2|3:2,0:2:0:0:
192,96,125424,1,0,1:2:0:0:
160,256,125808,1,2,1:2:0:0:
160,256,126193,1,0,1:2:0:0:
442,229,126577,5,2,1:2:0:0:
218,378,126961,1,2,1:2:0:0:
69,154,127346,1,2,3:2:0:0:
293,5,127731,1,2,1:2:0:0:
256,192,128116,5,8,0:2:0:0:
91,342,129654,6,0,B|113:306|113:306|89:234,1,111.999996582031,6|2,1:1|0:2,0:2:0:0:
0,128,130231,1,2,0:2:0:0:
31,43,130423,2,0,L|83:23,1,55.9999982910157,10|0,0:2|0:2,0:2:0:0:
256,42,130808,2,0,L|203:61,1,55.9999982910157,2|0,0:2|0:2,0:2:0:0:
76,204,131193,2,0,L|66:148,1,55.9999982910157,2|0,1:2|0:2,0:2:0:0:
256,288,131577,2,0,L|265:232,1,55.9999982910157,2|0,1:2|0:2,0:2:0:0:
20,384,131962,2,0,L|0:267,1,111.999996582031,10|2,0:2|0:2,0:2:0:0:
389,169,132731,5,6,1:1:0:0:
389,169,132923,1,2,0:2:0:0:
384,256,133116,1,2,0:2:0:0:
384,256,133308,1,2,0:2:0:0:
421,326,133500,2,0,L|476:336,1,55.9999982910157,10|0,0:2|0:2,0:2:0:0:
389,169,133885,2,0,L|333:179,1,55.9999982910157,2|0,0:2|0:2,0:2:0:0:
115,363,134270,2,0,L|170:352,1,55.9999982910157,2|0,1:2|0:2,0:2:0:0:
411,281,134654,2,0,L|356:270,1,55.9999982910157,2|0,1:2|0:2,0:2:0:0:
115,199,135039,2,0,L|170:188,1,55.9999982910157,10|0,0:2|0:2,0:2:0:0:
480,32,135423,2,0,L|469:87,1,55.9999982910157,14|0,0:2|0:2,0:2:0:0:
288,384,135808,5,6,1:1:0:0:
448,352,136193,1,2,0:2:0:0:
188,86,136577,5,10,0:2:0:0:
348,118,136962,1,2,0:2:0:0:
32,224,137347,5,6,1:1:0:0:
480,192,137731,1,2,1:2:0:0:
93,95,138116,5,10,0:2:0:0:
62,346,138500,1,2,1:2:0:0:
480,192,138885,6,0,L|490:108,1,83.9999974365235,6|0,1:1|0:2,0:2:0:0:
486,79,139270,1,2,0:2:0:0:
448,288,139462,1,2,0:2:0:0:
444,301,139558,1,2,0:2:0:0:
440,314,139654,2,0,L|384:322,1,55.9999982910157,10|0,0:2|0:2,0:2:0:0:
96,288,140039,1,2,0:2:0:0:
448,192,140423,1,6,1:1:0:0:
224,352,140808,1,2,1:2:0:0:
72,70,141193,2,0,L|4:65,1,55.9999982910157,14|0,0:2|0:2,0:2:0:0:
440,314,141578,2,0,L|508:319,1,55.9999982910157,14|0,0:2|0:2,0:2:0:0:
384,32,141962,5,6,1:1:0:0:
384,32,142154,1,2,0:2:0:0:
288,64,142347,1,2,0:2:0:0:
288,64,142539,1,2,0:2:0:0:
200,13,142731,2,0,L|142:7,1,55.9999982910157,10|0,0:2|0:2,0:2:0:0:
0,96,143116,2,0,L|58:90,1,55.9999982910157,2|0,0:2|0:2,0:2:0:0:
257,320,143500,2,0,P|229:321|201:316,1,55.9999982910157,2|0,1:2|0:2,0:2:0:0:
195,154,143885,2,0,P|210:177|219:203,1,55.9999982910157,2|0,1:2|0:2,0:2:0:0:
16,368,144270,2,0,P|1:314|25:264,1,111.999996582031,10|0,0:2|0:2,0:2:0:0:
288,64,145039,5,6,1:1:0:0:
288,64,145231,1,2,0:2:0:0:
384,32,145424,1,2,0:2:0:0:
384,32,145616,1,2,0:2:0:0:
472,83,145808,2,0,L|486:139,1,55.9999982910157,10|0,0:2|0:2,0:2:0:0:
371,235,146193,2,0,L|384:180,1,55.9999982910157,2|0,0:2|0:2,0:2:0:0:
512,306,146577,2,0,L|456:292,1,55.9999982910157,2|0,1:2|0:2,0:2:0:0:
240,173,146962,2,0,L|294:186,1,55.9999982910157,2|0,1:2|0:2,0:2:0:0:
512,7,147347,2,0,L|456:21,1,55.9999982910157,10|0,0:2|0:2,0:2:0:0:
128,384,147731,2,0,L|182:370,1,55.9999982910157,14|0,0:2|0:2,0:2:0:0:
480,128,148116,5,6,1:1:0:0:
32,256,148500,1,2,0:2:0:0:
512,256,148885,5,10,0:2:0:0:
0,128,149269,1,2,0:2:0:0:
416,64,149654,5,6,1:1:0:0:
384,352,150039,1,2,1:2:0:0:
96,320,150423,1,10,0:2:0:0:
128,32,150808,1,2,0:2:0:0:
256,192,151193,6,0,L|145:208,1,111.999996582031,6|0,1:1|0:2,0:2:0:0:
82,185,151770,1,0,1:2:0:0:
1,342,151962,5,10,0:2:0:0:
70,367,152154,1,0,1:2:0:0:
94,298,152347,1,0,1:2:0:0:
26,273,152539,1,0,1:2:0:0:
23,263,152603,1,0,1:2:0:0:
22,254,152667,1,0,1:2:0:0:
20,245,152731,1,2,1:2:0:0:
40,179,152923,1,0,1:2:0:0:
59,113,153116,2,0,L|119:102,1,55.9999982910157,0|0,1:2|3:2,0:2:0:0:
119,95,153372,1,0,3:2:0:0:
124,87,153436,1,0,3:2:0:0:
129,79,153500,1,14,0:1:0:0:
192,352,153885,1,8,0:2:0:0:
384,0,154270,5,2,0:2:0:0:
256,192,154366,12,0,157347,1:2:0:0:
256,192,160423,5,0,1:2:0:0:
256,192,160520,12,0,165808,1:2:0:0:
32,352,166577,6,0,B|16:324|16:324|21:284,1,68.0000012969971,6|0,1:1|0:2,0:2:0:0:
239,233,166962,2,0,B|222:260|222:260|185:276,1,68.0000012969971,8|0,1:2|0:2,0:2:0:0:
33,114,167347,2,0,B|65:114|65:114|97:138,1,68.0000012969971,0|0,1:2|0:2,0:2:0:0:
101,233,167731,1,8,1:2:0:0:
224,64,167923,1,0,3:2:0:0:
224,64,168020,1,0,3:2:0:0:
224,64,168116,1,0,1:2:0:0:
320,128,168308,1,0,0:2:0:0:
432,80,168500,2,0,B|448:50|448:50|437:12,1,68.0000012969971,8|0,1:2|0:2,0:2:0:0:
208,176,168885,6,0,P|199:208|194:242,1,68.0000012969971,2|0,1:2|1:2,0:2:0:0:
218,302,169173,2,0,P|238:308|265:310,1,34.0000006484985,2|8,1:2|1:2,0:2:0:0:
489,348,169462,1,2,0:2:0:0:
489,348,169558,1,2,0:2:0:0:
489,348,169654,2,0,P|484:314|475:281,1,68.0000012969971,2|0,1:2|0:2,0:2:0:0:
320,128,170039,2,0,P|311:160|306:194,1,68.0000012969971,8|0,1:2|0:2,0:2:0:0:
197,357,170423,2,0,P|164:365|130:370,1,68.0000012969971,0|0,1:2|0:2,0:2:0:0:
0,320,170808,1,8,1:2:0:0:
268,280,171000,1,2,0:2:0:0:
284,301,171097,1,2,0:2:0:0:
300,322,171193,5,2,1:2:0:0:
378,287,171385,1,0,0:2:0:0:
447,337,171577,1,8,1:2:0:0:
309,237,171770,5,2,0:2:0:0:
369,372,171962,1,0,1:2:0:0:
456,252,172154,1,0,0:2:0:0:
222,357,172347,6,0,L|102:340,1,102.000001945496,14|0,1:2|0:2,0:2:0:0:
32,352,172731,1,6,1:1:0:0:
150,211,172923,5,2,0:2:0:0:
189,124,173115,1,10,1:2:0:0:
135,46,173308,1,2,0:2:0:0:
39,54,173500,1,2,1:2:0:0:
0,140,173693,1,2,0:2:0:0:
54,219,173885,1,10,1:2:0:0:
95,133,174077,6,0,L|91:96,2,30.0000011444092,2|0|0,3:2|3:0|1:2,0:0:0:0:
309,30,174462,5,2,0:2:0:0:
424,20,174654,1,10,1:2:0:0:
489,115,174846,1,2,0:2:0:0:
262,134,175039,1,2,1:2:0:0:
424,20,175232,1,2,0:2:0:0:
442,218,175424,1,10,1:2:0:0:
375,125,175616,6,0,L|383:88,2,30.0000011444092,2|0|0,3:2|3:0|1:0,0:0:0:0:
327,228,176000,5,2,0:2:0:0:
262,134,176193,1,10,1:2:0:0:
148,143,176385,1,2,0:2:0:0:
99,247,176577,1,2,1:2:0:0:
164,341,176770,1,2,0:2:0:0:
278,332,176962,1,10,1:2:0:0:
213,238,177154,5,2,0:2:0:0:
164,341,177347,5,14,1:2:0:0:
148,143,177539,1,8,1:2:0:0:
327,228,177731,1,14,1:2:0:0:
327,228,178116,5,14,1:2:0:0:
288,0,178308,1,10,1:2:0:0:
60,39,178500,1,10,1:2:0:0:
99,267,178693,1,10,1:2:0:0:
356,104,178885,6,0,B|409:116|409:116|427:138|427:138|496:153,1,136.000002593994,6|8,1:1|1:2,0:2:0:0:
221,222,179462,2,0,B|169:233|169:233|151:256|151:256|99:267,1,136.000002593994,2|0,0:2|0:2,0:2:0:0:
218,297,180039,1,8,1:2:0:0:
106,195,180231,1,2,0:2:0:0:
106,195,180327,1,2,0:2:0:0:
106,195,180423,5,2,1:2:0:0:
80,112,180616,1,2,0:2:0:0:
224,128,180808,5,10,1:2:0:0:
256,0,181001,1,2,0:2:0:0:
368,144,181193,6,0,L|379:190,2,45.3333341979981,2|2|2,1:2|0:2|0:2,0:2:0:0:
307,269,181577,5,10,1:2:0:0:
370,304,181706,5,2,0:2:0:0:
441,285,181834,5,2,0:2:0:0:
476,222,181962,6,0,L|486:154,1,68.0000012969971,2|0,1:2|0:2,0:2:0:0:
448,32,182347,1,10,1:2:0:0:
307,269,182539,1,2,0:2:0:0:
103,56,182731,5,2,1:2:0:0:
132,33,182859,2,0,P|157:27|189:25,1,45.3333341979981,2|2,0:2|0:2,0:2:0:0:
374,115,183116,5,10,1:2:0:0:
341,79,183244,2,0,P|316:73|284:71,1,45.3333341979981,2|2,0:2|0:2,0:2:0:0:
53,235,183500,5,2,1:2:0:0:
89,177,183628,2,0,P|114:171|146:169,1,45.3333341979981,2|2,0:2|0:2,0:2:0:0:
392,295,183885,5,10,1:2:0:0:
345,229,184013,2,0,P|320:223|288:221,1,45.3333341979981,2|2,0:2|0:2,0:2:0:0:
53,235,184270,5,2,1:2:0:0:
41,307,184398,1,2,0:2:0:0:
29,379,184526,1,2,0:2:0:0:
98,354,184655,5,2,1:2:0:0:
110,282,184783,1,2,0:2:0:0:
122,210,184911,1,2,0:2:0:0:
191,185,185039,6,0,B|225:180|246:164|246:164|267:173|281:176|281:176|307:155|340:152,1,160,6|8,1:1|1:2,0:2:0:0:
480,32,185616,1,2,0:2:0:0:
485,51,185712,1,2,0:2:0:0:
490,70,185808,2,0,L|483:114,3,40,2|2|2|2,1:2|0:2|0:2|0:2,0:2:0:0:
512,192,186193,1,10,1:2:0:0:
494,201,186289,1,2,0:2:0:0:
476,210,186385,1,2,0:2:0:0:
458,219,186481,1,2,0:2:0:0:
440,228,186577,2,0,L|397:224,3,40,2|2|2|2,1:2|0:2|0:2|0:2,0:2:0:0:
344,272,186962,1,10,1:2:0:0:
326,281,187058,1,2,0:2:0:0:
308,290,187154,1,2,0:2:0:0:
290,299,187250,1,2,0:2:0:0:
272,308,187346,2,0,L|229:304,1,40,2|0,1:2|0:2,0:2:0:0:
190,187,187539,2,0,L|150:190,1,40,2|0,1:2|0:2,0:2:0:0:
112,329,187731,2,0,L|69:325,1,40,10|0,1:2|0:2,0:2:0:0:
5,238,187923,1,2,0:2:0:0:
2,217,188020,1,2,0:2:0:0:
0,197,188116,6,0,B|12:165|9:138|9:138|28:124|37:114|37:114|32:81|46:51,1,160,6|8,1:1|1:2,0:2:0:0:
216,0,188693,1,2,0:2:0:0:
221,19,188789,1,2,0:2:0:0:
226,38,188885,1,2,1:2:0:0:
175,132,189077,1,2,0:2:0:0:
152,55,189270,1,10,1:2:0:0:
249,111,189462,1,2,0:2:0:0:
152,55,189654,5,10,0:2:0:0:
119,295,189847,1,10,0:2:0:0:
359,328,190039,1,10,0:2:0:0:
392,88,190231,1,10,0:2:0:0:
219,144,190423,5,2,1:2:0:0:
303,155,190616,1,2,1:2:0:0:
292,239,190808,1,2,1:2:0:0:
208,228,191000,1,0,1:2:0:0:
392,88,191193,6,0,L|459:80,1,68.0000012969971,14|0,1:2|0:2,0:2:0:0:
512,192,191577,1,10,1:2:0:0:
303,155,191770,1,2,0:2:0:0:
419,293,191962,2,0,L|411:225,1,68.0000012969971,10|0,1:2|0:2,0:2:0:0:
295,87,192347,2,0,L|303:155,1,68.0000012969971,10|0,1:2|0:2,0:2:0:0:
224,320,192731,2,0,L|156:312,1,68.0000012969971,10|0,1:2|0:2,0:2:0:0:
0,160,193116,2,0,L|68:168,1,68.0000012969971,10|0,1:2|0:2,0:2:0:0:
264,238,193500,1,10,1:2:0:0:
112,240,193693,1,0,3:2:0:0:
302,311,193885,1,10,1:2:0:0:
68,168,194078,1,2,3:2:0:0:
301,19,194270,6,0,L|295:87,1,68.0000012969971,14|2,1:2|0:2,0:2:0:0:
105,307,194654,2,0,L|112:240,1,68.0000012969971,10|0,1:2|0:2,0:2:0:0:
345,165,195039,2,0,L|277:171,1,68.0000012969971,10|0,1:2|0:2,0:2:0:0:
0,173,195423,2,0,L|67:167,1,68.0000012969971,10|0,1:2|0:2,0:2:0:0:
320,262,195808,2,0,P|320:295|309:327,1,68.0000012969971,10|0,1:2|0:2,0:2:0:0:
94,372,196193,2,0,P|94:339|105:307,1,68.0000012969971,10|0,1:2|0:2,0:2:0:0:
277,171,196577,2,0,L|345:165,1,68.0000012969971,10|0,1:2|0:2,0:2:0:0:
480,192,196962,1,10,1:2:0:0:
288,64,197154,1,0,3:2:0:0:
395,315,197347,6,0,L|404:247,1,68.0000012969971,14|0,1:2|0:2,0:2:0:0:
215,10,197731,2,0,L|168:59,1,68.0000012969971,10|0,1:2|0:2,0:2:0:0:
181,362,198116,2,0,L|248:349,1,68.0000012969971,10|0,1:2|0:2,0:2:0:0:
103,234,198500,2,0,L|71:174,1,68.0000012969971,10|0,1:2|0:2,0:2:0:0:
354,68,198885,2,0,L|415:97,1,68.0000012969971,14|0,1:2|0:2,0:2:0:0:
512,256,199270,2,0,L|451:227,1,68.0000012969971,10|0,1:2|0:2,0:2:0:0:
181,362,199654,2,0,L|248:349,1,68.0000012969971,10|0,1:2|0:2,0:2:0:0:
384,384,200039,1,10,1:2:0:0:
256,224,200231,1,0,3:2:0:0:
88,384,200423,6,0,L|75:317,1,68.0000012969971,14|0,1:2|0:2,0:2:0:0:
160,128,200808,1,10,1:2:0:0:
329,304,201000,1,2,0:2:0:0:
329,304,201097,1,2,0:2:0:0:
329,304,201193,5,14,1:2:0:0:
378,162,201385,1,0,3:2:0:0:
402,334,201577,1,8,1:2:0:0:
305,132,201770,1,0,3:2:0:0:
445,264,201962,5,14,1:2:0:0:
261,201,202154,1,0,3:2:0:0:
484,169,202346,1,8,1:2:0:0:
222,296,202539,1,0,3:2:0:0:
390,126,202731,5,14,1:2:0:0:
316,339,202923,1,0,0:2:0:0:
280,81,203115,1,14,1:2:0:0:
426,384,203308,1,8,1:2:0:0:
184,147,203500,5,14,1:2:0:0:
104,199,203693,1,2,0:2:0:0:
128,291,203885,1,10,1:2:0:0:
222,296,204077,1,2,0:2:0:0:
255,208,204270,2,0,L|266:136,1,68.0000012969971,10|0,1:2|0:2,0:2:0:0:
87,35,204654,2,0,L|98:103,1,68.0000012969971,10|0,1:2|0:2,0:2:0:0:
341,191,205039,2,0,L|413:202,1,68.0000012969971,10|0,1:2|0:2,0:2:0:0:
128,291,205423,2,0,L|56:302,1,68.0000012969971,10|0,1:2|0:2,0:2:0:0:
288,128,205808,1,10,1:2:0:0:
113,196,206000,1,0,3:2:0:0:
341,191,206193,1,8,1:2:0:0:
78,131,206385,1,0,3:2:0:0:
224,352,206577,6,0,L|235:284,1,68.0000012969971,14|0,1:2|0:2,0:2:0:0:
370,114,206962,1,10,1:2:0:0:
448,320,207154,1,2,0:2:0:0:
252,176,207347,2,0,L|184:186,1,68.0000012969971,10|0,1:2|0:2,0:2:0:0:
0,320,207731,2,0,L|68:309,1,68.0000012969971,10|0,1:2|0:2,0:2:0:0:
241,108,208116,2,0,L|252:176,1,68.0000012969971,10|0,1:2|0:2,0:2:0:0:
448,320,208500,2,0,L|459:252,1,68.0000012969971,10|0,1:2|0:2,0:2:0:0:
416,32,208885,1,10,1:2:0:0:
336,270,209077,1,2,3:2:0:0:
158,69,209270,2,0,L|82:60,1,68.0000012969971,10|0,1:2|0:2,0:2:0:0:
277,356,209654,6,0,L|353:347,1,68.0000012969971,14|0,1:2|0:2,0:2:0:0:
504,195,210039,2,0,L|512:128,1,68.0000012969971,10|0,1:2|0:2,0:2:0:0:
158,196,210423,2,0,L|225:203,1,68.0000012969971,10|0,1:2|0:2,0:2:0:0:
512,288,210808,2,0,L|445:281,1,68.0000012969971,10|0,1:2|0:2,0:2:0:0:
96,64,211193,6,0,L|163:57,1,68.0000012969971,14|0,1:2|0:2,0:2:0:0:
384,32,211577,2,0,L|391:99,1,68.0000012969971,10|0,1:2|0:2,0:2:0:0:
416,320,211962,2,0,L|349:327,1,68.0000012969971,10|0,1:2|0:2,0:2:0:0:
128,352,212347,2,0,L|121:285,1,68.0000012969971,10|0,1:2|0:2,0:2:0:0:
471,207,212731,6,0,L|404:200,1,68.0000012969971,14|0,1:2|0:2,0:2:0:0:
228,119,213116,1,10,1:2:0:0:
452,52,213308,1,2,0:2:0:0:
286,267,213500,2,0,L|219:274,1,68.0000012969971,10|0,1:2|0:2,0:2:0:0:
32,224,213885,1,2,0:2:0:0:
32,224,215808,6,0,L|27:184,1,40,6|0,1:1|0:2,0:2:0:0:
64,96,216193,1,2,0:2:0:0:
64,96,216385,1,2,0:2:0:0:
122,173,216577,1,2,1:2:0:0:
256,128,216962,1,2,0:2:0:0:
390,173,217347,1,2,1:2:0:0:
64,320,217731,1,2,0:2:0:0:
288,32,218116,1,2,1:2:0:0:
288,32,218885,6,0,L|332:26,1,40,2|0,1:2|0:2,0:2:0:0:
416,64,219270,1,2,0:2:0:0:
416,64,219462,1,2,0:2:0:0:
488,0,219654,1,2,1:2:0:0:
512,266,220039,1,2,0:2:0:0:
270,153,220423,2,0,P|236:86|288:32,2,160,2|2|6,1:2|1:2|1:1,0:2:0:0:
270,153,222731,1,0,1:2:0:0:
270,153,223500,1,0,1:2:0:0:
270,153,224270,1,0,1:2:0:0:
416,32,225039,5,0,1:2:0:0:
425,106,225808,1,0,1:2:0:0:
434,180,226577,1,0,1:2:0:0:
443,254,227347,1,0,1:2:0:0:
41,358,228116,6,0,L|31:278,1,80,6|2,1:1|0:2,0:2:0:0:
64,128,228693,1,2,0:2:0:0:
120,181,228885,1,2,0:2:0:0:
256,32,229270,1,2,0:2:0:0:
317,224,229654,1,2,0:2:0:0:
64,96,230039,1,2,0:2:0:0:
336,16,230423,2,0,L|486:5,1,140,2|0,0:2|0:2,0:2:0:0:
475,5,231193,6,0,L|468:57,1,50,2|2,0:2|0:2,0:2:0:0:
512,149,231625,2,0,L|505:195,1,40,2|2,0:2|0:2,0:2:0:0:
36,5,232731,6,0,L|44:57,1,50,2|2,0:2|0:2,0:2:0:0:
0,149,233164,2,0,L|7:200,1,50,2|2,0:2|0:2,0:2:0:0:
477,371,234270,6,0,L|470:324,1,40,2|2,0:2|0:2,0:2:0:0:
510,242,234654,2,0,L|501:186,1,50,2|2,0:2|0:2,0:2:0:0:
0,288,235808,6,0,L|78:275,1,80,2|2,0:2|0:2,0:2:0:0:
256,320,236385,1,2,0:2:0:0:
332,279,236577,2,0,L|338:237,1,40,2|0,0:2|0:2,0:2:0:0:
227,196,236962,2,0,L|222:157,1,40,2|0,0:2|0:2,0:2:0:0:
288,32,237347,5,2,0:2:0:0:
0,192,237731,1,2,0:2:0:0:
384,384,238116,1,2,0:2:0:0:
256,192,238885,12,0,240359,0:2:0:0:
32,224,240423,5,2,0:2:0:0:
96,160,240808,1,2,0:2:0:0:
119,247,241193,1,2,0:2:0:0:
256,320,241577,2,0,L|260:347,3,20,2|2|2|2,0:2|0:2|0:2|0:2,0:2:0:0:
298,274,241914,1,2,0:2:0:0:
298,274,241962,1,2,0:2:0:0:
384,320,242334,1,2,0:2:0:0:
381,223,242744,1,2,0:2:0:0:
480,32,243453,5,2,0:2:0:0:
480,32,243500,1,2,0:2:0:0:
64,96,243934,2,0,L|54:145,1,40,2|2,0:2|0:2,0:2:0:0:
63,223,244215,1,2,0:2:0:0:
63,223,244270,2,0,L|67:246,4,15.9999995117188,2|2|2|2|2,0:2|0:2|0:2|0:2|0:2,0:2:0:0:
224,32,244846,1,2,0:2:0:0:
288,96,245039,5,2,0:2:0:0:
259,160,245423,1,2,0:2:0:0:
288,224,245808,1,2,0:2:0:0:
259,288,246193,1,2,0:2:0:0:
144,114,246582,5,2,0:2:0:0:
384,192,246966,1,2,0:2:0:0:
144,269,247351,2,0,L|110:266,2,26.6666666666667,2|2|2,0:2|0:2|0:2,0:2:0:0:
192,320,247735,1,2,0:2:0:0:
256,256,247928,1,2,0:2:0:0:
279,343,248120,1,2,0:2:0:0:
210,82,248505,1,2,0:2:0:0:
366,366,248841,2,0,L|369:382,2,10,2|2|2,0:2|0:2|0:2,0:2:0:0:
480,32,249658,5,2,0:2:0:0:
352,96,250038,1,2,0:2:0:0:
272,48,250216,1,2,0:2:0:0:
272,48,250337,2,0,L|240:44,4,20,2|2|2|2|2,0:2|0:2|0:2|0:2|0:2,0:2:0:0:
32,64,251030,1,2,0:2:0:0:
177,125,251177,1,2,0:2:0:0:
177,125,251927,1,2,0:2:0:0:
128,203,252119,1,2,0:2:0:0:
128,203,252247,2,0,L|125:220,2,15.9999995117188,2|2|2,0:2|0:2|0:2,0:2:0:0:
32,64,252517,5,2,0:2:0:0:
32,64,252581,1,2,0:2:0:0:
32,64,252645,1,2,0:0:0:0:
32,64,252715,1,2,0:2:0:0:
480,96,254253,1,2,0:2:0:0:
448,256,254638,2,0,L|389:270,1,40,0|0,0:2|0:2,0:2:0:0:
352,352,255022,1,0,0:2:0:0:
352,352,255407,1,0,0:2:0:0:
427,101,255727,5,2,0:2:0:0:
427,101,255791,1,2,0:2:0:0:
64,160,256601,1,2,0:2:0:0:
96,256,257007,1,0,0:2:0:0:
64,352,257345,1,2,0:2:0:0:
64,352,257412,1,2,0:2:0:0:
96,256,257796,1,0,0:2:0:0:
64,160,258133,1,2,0:2:0:0:
64,160,258181,1,2,0:2:0:0:
256,32,258565,1,2,0:2:0:0:
448,160,258902,5,2,0:2:0:0:
448,160,258950,1,2,0:2:0:0:
256,32,259327,1,2,0:2:0:0:
64,160,259647,1,2,0:2:0:0:
63,160,259711,2,0,L|63:177,3,15.9999995117188,2|2|2|2,0:2|0:2|0:2|0:2,0:2:0:0:
102,230,260042,1,0,0:2:0:0:
98,257,260253,1,0,0:2:0:0:
95,284,260426,5,2,0:2:0:0:
448,352,261195,1,2,0:2:0:0:
288,256,261589,1,2,0:2:0:0:
480,32,262716,5,2,0:2:0:0:
32,96,263585,1,2,0:2:0:0:
32,96,264374,1,2,0:2:0:0:
8,167,264571,1,2,0:2:0:0:
68,211,264769,1,2,0:2:0:0:
128,167,264966,1,2,0:2:0:0:
104,95,265163,2,0,L|108:85,2,10,2|2|2,0:2|0:2|0:2,0:2:0:0:
32,96,265361,5,2,0:2:0:0:
