osu file format v14

[General]
AudioFilename: audio.mp3
AudioLeadIn: 0
PreviewTime: 96461
Countdown: 0
SampleSet: Soft
StackLeniency: 0.3
Mode: 0
LetterboxInBreaks: 0
WidescreenStoryboard: 1

[Editor]
Bookmarks: 21420,39564,69357,97497,123979,145497,168669,180331,191977,203614,212341,235614,258886,282159,305432,311250
DistanceSpacing: 0.6
BeatDivisor: 4
GridSize: 8
TimelineZoom: 1.1

[Metadata]
Title:QuelI->{ein te hyme};
TitleUnicode:QuelI->{ein te hyme};
Artist:Shikata Akiko
ArtistUnicode:志方あきこ
Creator:ScubDomino
Version:Sanguineness
Source:シェルノサージュ〜失われた星へ捧ぐ詩〜
Tags:Hymn of Bonds FFCT-0026 4562207986229 Ciel nosurge Ushinawareta Hoshi e Sasagu Uta Genometric Concert Vol.1 ~Keihan no Uta~ ~契絆ノ詩(けいはんのうた)~ 契絆ノ詩 けいはんのうた retorno 南 直行 Naoyuki Minami みなみ なおゆき 田代耕一郎 Koichiro Tashiro kouichirou たしろ こういちろう 高桑 英世 hideo hideyo takakuwa たかくわ ひでよ 安井 敬 takashi yasui やすい たかし 大貫 聖子 seiko onuki せいこ おおぬき GUST Koei Tecmo Ionasal.kkll.Preciel ionasal kkll preciel イオナサル・ククルル・プリシェール scub domino [keqing] natsume shiki natsume_shiki anime girl anime_girl jungkyuyoung 8972308 A Song Offered to the Lost Planet ion conlang constructed language japanese folk neofolk world female vocal original soundtrack ost cuboon
BeatmapID:3189293
BeatmapSetID:1561608

[Difficulty]
HPDrainRate:5
CircleSize:4.4
OverallDifficulty:8
ApproachRate:8.5
SliderMultiplier:1.8
SliderTickRate:0.5

[Events]
//Background and Video events
0,0,"cuboon.jpg",0,0
//Break Periods
2,11411,12736
2,32944,38786
2,144040,145234
//Storyboard Layer 0 (Background)
//Storyboard Layer 1 (Fail)
//Storyboard Layer 2 (Pass)
//Storyboard Layer 3 (Foreground)
//Storyboard Layer 4 (Overlay)
//Storyboard Sound Samples

[TimingPoints]
2228,582.52427184466,4,2,1,60,1,0
2228,-100,4,2,1,60,0,1
3211,-100,4,2,1,5,0,1
3393,461.538461538462,4,2,1,65,1,1
3623,-100,4,2,1,5,0,1
3854,521.739130434783,4,2,1,70,1,1
4114,-100,4,2,1,5,0,1
4375,-100,4,2,1,70,0,1
5288,-100,4,2,1,5,0,1
5419,458.015267175573,4,2,1,70,1,1
5991,-100,4,2,1,5,0,1
6335,519.255733448724,4,2,1,70,1,1
8411,500,4,2,1,50,1,0
13411,-222.222222222221,4,2,1,50,0,0
14661,-222.222222222221,4,2,2,50,0,0
16161,-222.222222222221,4,2,1,50,0,0
16536,-222.222222222221,4,2,2,50,0,0
17411,-133.333333333333,4,2,2,50,0,0
18286,-133.333333333333,4,2,1,50,0,0
18661,-133.333333333333,4,2,2,50,0,0
19286,-133.333333333333,4,2,1,60,0,0
19411,-76.9230769230769,4,2,1,60,0,0
19911,-100,4,2,1,60,0,0
22286,-100,4,2,1,50,0,0
22536,-100,4,2,2,50,0,0
23411,-222.222222222221,4,2,2,50,0,0
24286,-222.222222222221,4,2,1,50,0,0
24536,-222.222222222221,4,2,2,50,0,0
25036,-222.222222222221,4,2,1,50,0,0
25411,-133.333333333333,4,2,1,50,0,0
25536,-133.333333333333,4,2,2,50,0,0
26036,-133.333333333333,4,2,1,50,0,0
26411,-133.333333333333,4,2,1,45,0,0
27727,-133.333333333333,4,2,2,50,0,0
28911,-153.846153846153,4,2,2,50,0,0
29286,-153.846153846153,4,2,1,50,0,0
29411,-133.333333333333,4,2,1,50,0,0
31289,413.793103448276,4,2,1,60,1,0
39564,-200,4,2,1,60,0,0
39668,-200,4,2,2,60,0,0
40185,-200,4,2,2,60,0,0
42461,-500,4,2,2,60,0,0
42875,-166.666666666667,4,2,2,60,0,0
43495,-250.000000000001,4,2,2,60,0,0
46185,-200,4,2,1,60,0,0
46289,-200,4,2,2,60,0,0
49495,-166.666666666667,4,2,2,60,0,0
52806,-166.666666666667,4,2,1,60,0,0
52910,-166.666666666667,4,2,2,60,0,0
56116,-166.666666666667,4,2,1,60,0,0
56220,-166.666666666667,4,2,2,60,0,0
58599,-200,4,2,2,60,0,0
59426,-200,4,2,1,60,0,0
59530,-200,4,2,2,60,0,0
66047,-200,4,2,1,60,0,0
69357,-153.846153846153,4,2,1,60,0,0
84254,-133.333333333333,4,2,1,60,0,0
94185,-100,4,2,1,60,0,0
94211,-100,4,2,1,40,0,0
94289,-100,4,2,1,20,0,0
94392,-100,4,2,1,10,0,0
94495,-100,4,2,1,9,0,0
94599,-100,4,2,1,10,0,0
94702,-100,4,2,1,15,0,0
94806,-100,4,2,1,20,0,0
94909,-100,4,2,1,25,0,0
95013,-100,4,2,1,30,0,0
95116,-100,4,2,1,40,0,0
95220,-100,4,2,1,50,0,0
95323,-100,4,2,1,60,0,0
95530,-100,4,2,1,70,0,0
95840,-100,4,2,2,70,0,0
95944,-100,4,2,1,70,0,0
96668,-153.846153846153,4,2,1,70,0,0
97495,-100,4,2,1,70,0,0
98323,-125,4,2,1,70,0,0
99978,-100,4,2,1,70,0,0
100392,-125,4,2,1,70,0,0
100806,-125,4,2,1,70,0,0
103702,-100,4,2,1,70,0,0
105357,-125,4,2,1,70,0,0
106599,-100,4,2,1,70,0,0
107013,-125,4,2,1,70,0,0
107426,-100,4,2,1,70,0,0
108047,-125,4,2,1,70,0,0
108668,-100,4,2,1,70,0,0
109082,-125,4,2,1,70,0,0
110323,-100,4,2,1,70,0,0
110737,-125,4,2,1,70,0,0
113220,-100,4,2,1,70,0,0
113634,-125,4,2,1,70,0,0
115702,-100,4,2,1,70,0,0
116116,-125,4,2,1,70,0,0
123978,-125,4,2,1,70,0,0
124185,-125,4,2,1,60,0,0
126461,-142.857142857143,4,2,1,60,0,0
134737,-125,4,2,1,60,0,0
135564,-125,4,2,1,50,0,0
138461,-166.666666666667,4,2,1,50,0,0
138875,-142.857142857143,4,2,1,50,0,0
139702,-166.666666666667,4,2,1,50,0,0
145909,-100,4,2,1,75,0,0
146323,-83.3333333333333,4,2,1,75,0,0
148806,-100,4,2,1,75,0,0
151702,-222.222222222221,4,2,1,75,0,0
152530,-83.3333333333333,4,2,1,75,0,0
152944,-100,4,2,1,75,0,0
154599,-133.333333333333,4,2,1,75,0,0
155840,-100,4,2,1,75,0,0
157702,-117.647058823529,4,2,1,75,0,0
158323,-153.846153846153,4,2,1,75,0,0
159151,-83.3333333333333,4,2,1,75,0,0
160185,-90.9090909090909,4,2,1,75,0,0
161220,-125,4,2,1,75,0,0
162047,-100,4,2,1,75,0,0
163289,-125,4,2,1,75,0,0
163702,-83.3333333333333,4,2,1,75,0,0
165357,-166.666666666667,4,2,1,75,0,0
167840,-100,4,2,1,75,0,0
168254,-125,4,2,1,75,0,0
168705,363.636363636364,4,2,1,70,1,0
173977,-100,4,2,1,60,0,0
174523,-133.333333333333,4,2,1,60,0,0
175068,-181.818181818181,4,2,1,60,0,0
175614,-133.333333333333,4,2,1,60,0,0
175977,-133.333333333333,4,2,1,55,0,0
176523,-153.846153846153,4,2,1,55,0,0
177432,-153.846153846153,4,2,1,60,0,0
178886,-133.333333333333,4,2,1,70,0,0
180159,-111.111111111111,4,2,1,70,0,0
180341,-100,4,2,1,80,0,0
181795,-76.9230769230769,4,2,1,80,0,0
182886,-100,4,2,1,80,0,0
183250,-90.9090909090909,4,2,1,80,0,0
186159,-66.6666666666667,4,2,1,80,0,0
187250,-90.9090909090909,4,2,1,80,0,0
187614,-76.9230769230769,4,2,1,80,0,0
189068,-66.6666666666667,4,2,1,80,0,0
190523,-66.6666666666667,4,2,1,80,0,0
191068,-90.9090909090909,4,2,1,80,0,0
191977,-133.333333333333,4,2,1,80,0,0
192068,-133.333333333333,4,2,1,60,0,0
194886,-181.818181818181,4,2,1,60,0,0
194977,-181.818181818181,4,2,2,60,0,0
197705,-181.818181818181,4,2,1,60,0,0
197795,-133.333333333333,4,2,1,60,0,0
200705,-181.818181818181,4,2,1,60,0,0
200795,-181.818181818181,4,2,2,60,0,0
203432,-181.818181818181,4,2,1,50,0,0
203705,-181.818181818181,4,2,1,5,0,0
206432,-181.818181818181,4,2,1,50,0,0
206614,-181.818181818181,4,2,1,5,0,0
209341,-181.818181818181,4,2,1,50,0,0
212341,-133.333333333333,4,2,1,60,0,0
213068,-111.111111111111,4,2,1,60,0,0
234159,-333.333333333333,4,2,1,60,0,0
235250,-333.333333333333,4,2,1,65,0,0
235432,-333.333333333333,4,2,1,75,0,0
235614,-66.6666666666667,4,2,1,80,0,0
246341,-55.5555555555556,4,2,1,80,0,0
247250,-66.6666666666667,4,2,1,80,0,0
255250,-71.4285714285714,4,2,1,80,0,0
255977,-66.6666666666667,4,2,1,80,0,0
256523,-55.5555555555556,4,2,1,80,0,0
257068,-66.6666666666667,4,2,1,80,0,0
257977,-71.4285714285714,4,2,1,80,0,0
258341,-76.9230769230769,4,2,1,80,0,0
258977,-76.9230769230769,4,2,1,65,0,0
265068,-222.22222222222,4,2,1,65,0,0
269068,-181.818181818181,4,2,1,65,0,0
270523,-153.846153846153,4,2,1,65,0,0
276341,-133.333333333333,4,2,1,65,0,0
279250,-117.647058823529,4,2,1,65,0,0
280705,-153.846153846153,4,2,1,65,0,0
281432,-153.846153846153,4,2,1,75,0,0
282159,-66.6666666666667,4,2,1,80,0,0
286523,-55.5555555555556,4,2,1,80,0,0
287068,-62.5,4,2,1,80,0,0
305068,-55.5555555555556,4,2,1,80,0,0
305432,-142.857142857143,4,2,1,60,0,0
306886,-142.857142857143,4,2,1,80,0,0
307523,-142.857142857143,4,2,1,70,0,0
310523,-250.000000000001,4,2,1,70,0,0
311250,370.37037037037,4,2,1,65,1,0
311250,-279.251605696733,4,2,1,65,0,0
312731,372.670807453416,4,2,1,75,1,0
314221,361.44578313253,4,2,1,55,1,0
314943,379.746835443038,4,2,1,50,1,0
315702,389.61038961039,4,2,1,45,1,0
316189,-100,4,2,1,40,0,0
316676,-100,4,2,1,35,0,0
317163,-100,4,2,1,30,0,0
317650,-100,4,2,1,25,0,0
317942,-100,4,2,1,20,0,0
318429,-100,4,2,1,15,0,0

[Colours]
Combo1 : 67,130,171
Combo2 : 243,209,209
Combo3 : 247,125,108
Combo4 : 241,188,218
Combo5 : 217,119,175
Combo6 : 191,205,150
Combo7 : 238,236,200
Combo8 : 68,112,191

[HitObjects]
5,25,2228,22,0,P|24:120|45:370,1,315,8|0,0:3|0:0,0:0:0:0:
357,249,3393,6,0,P|347:315|341:383,1,135,2|0,0:0|0:0,0:0:0:0:
147,285,3854,6,0,P|145:217|136:151,1,135,8|0,0:0|0:0,0:2:0:0:
257,67,4375,6,0,P|251:227|250:391,1,315,4|0,0:3|0:0,0:2:0:0:
467,336,5419,6,0,P|479:179|507:25,1,315,2|0,0:0|0:0,0:0:0:0:
254,0,6335,38,0,P|260:232|257:0,1,720,8|6,0:1|2:2,0:2:0:0:
7,191,13411,86,0,P|18:232|15:276,1,80.9999975280763
15,270,14411,5,4,0:0:0:0:
46,270,14661,1,2,0:0:0:0:
71,281,14911,2,0,P|99:290|121:291,1,40.4999987640381,2|0,0:0|0:0,0:0:0:0:
153,352,15411,2,0,L|251:341,1,80.9999975280763,2|0,0:0|0:0,0:0:0:0:
232,342,16411,101,4,0:0:0:0:
256,315,16661,1,0,0:0:0:0:
290,299,16911,1,0,0:0:0:0:
330,294,17161,1,2,0:0:0:0:
398,247,17411,2,0,P|405:193|397:96,1,135.000005149842,2|0,0:0|0:0,0:0:0:0:
388,36,18161,1,0,0:0:0:0:
400,112,18411,2,0,P|394:179|402:246,1,135.000005149842,4|0,0:0|0:0,0:0:0:0:
24,168,19411,86,0,P|97:149|153:146,1,116.999994644165,8|0,0:3|0:3,0:0:0:0:
147,140,19786,1,0,0:3:0:0:
233,78,19911,2,0,P|225:152|226:204,1,90,2|0,0:2|0:0,0:0:0:0:
173,253,20411,2,0,P|246:253|380:290,1,180,4|0,0:3|0:0,0:0:0:0:
349,277,21161,1,0,0:0:0:0:
416,333,21411,6,0,B|381:365|454:399|472:358|485:282|412:234,1,180,8|0,0:1|0:0,0:0:0:0:
509,23,22411,5,4,0:2:0:0:
490,61,22661,1,0,0:0:0:0:
459,85,22911,1,2,0:0:0:0:
422,97,23161,1,0,0:0:0:0:
436,170,23411,6,0,P|407:166|382:165,1,40.4999987640381,2|0,0:0|0:0,0:0:0:0:
313,107,23911,2,0,P|333:105|353:102,1,40.4999987640381,2|0,0:0|0:0,0:0:0:0:
237,18,24411,101,4,0:0:0:0:
223,58,24661,1,0,0:0:0:0:
228,97,24911,1,2,0:0:0:0:
264,161,25161,1,2,0:0:0:0:
220,222,25411,6,0,P|171:228|87:216,1,135.000005149842,2|2,0:0|0:0,0:0:0:0:
170,304,26161,1,2,0:0:0:0:
220,222,26411,2,0,P|269:216|353:228,1,135.000005149842,4|0,0:0|0:0,0:0:0:0:
353,228,27411,102,0,P|335:274|365:325,1,101.250003862381,2|0,0:0|0:0,0:0:0:0:
399,384,27911,2,0,P|447:375|477:324,1,101.250003862381,2|0,0:0|0:0,0:0:0:0:
512,263,28411,2,0,P|480:225|421:225,1,101.250003862381,2|0,0:0|0:0,0:0:0:0:
356,318,28911,2,0,P|362:285|348:314,1,87.749995983124,0|0,3:0|0:0,0:0:0:0:
364,161,29411,6,0,P|345:235|49:286,1,405.000015449525,12|0,0:0|0:0,0:0:0:0:
226,384,39461,101,0,0:0:0:0:
226,384,39564,2,0,P|218:316|217:238,1,135,4|0,0:0|0:0,0:0:0:0:
299,130,40392,2,0,P|298:190|293:222,1,90,2|0,0:0|0:0,0:0:0:0:
172,256,41013,2,0,P|209:249|234:249,1,45,2|0,0:0|0:0,0:0:0:0:
279,297,41426,1,0,0:0:0:0:
378,243,41633,2,0,P|323:221|278:220,1,90,2|0,0:0|0:0,0:0:0:0:
32,103,42461,70,0,B|31:102|31:102|31:101|31:101|30:100|30:100|30:99|30:99|31:98|31:98|31:97|31:97|31:96|31:96|32:96|32:96|33:95|33:95|34:95|34:95|34:95|34:95|35:94|35:94|36:94|36:94|37:95|37:95|38:95|38:95|39:96|39:96|39:96|39:96|40:97|40:97|40:98|40:98|40:99|40:99|41:100|41:100|40:101|40:101|40:102|40:102|40:102|40:102|39:103|39:103|38:104|38:104|37:104|37:104|37:104|37:104|36:104,1,27
17,176,42875,2,0,P|-1:211|27:186,1,107.999996704102,0|0,3:0|0:0,0:0:0:0:
100,170,43495,2,0,P|120:154|95:160,1,72,0|0,3:0|0:0,0:0:0:0:
96,247,44116,2,0,P|98:272|103:249,1,72,0|2,3:0|0:0,0:0:0:0:
207,138,44944,37,0,3:0:0:0:
262,198,45254,1,0,0:0:0:0:
262,198,45357,2,0,P|265:220|263:249,1,36,2|0,3:2|0:2,0:0:0:0:
253,306,45771,2,0,P|253:341|256:375,1,54,0|0,0:2|0:0,0:0:0:0:
254,359,46185,6,0,P|197:360|116:374,1,135,4|0,0:0|0:0,0:0:0:0:
95,269,47013,2,0,P|155:280|195:282,1,90,2|0,0:0|0:0,0:0:0:0:
183,281,47633,2,0,P|184:248|182:230,1,45,2|0,0:0|0:0,0:0:0:0:
182,158,48047,1,0,0:0:0:0:
255,107,48254,2,0,P|257:151|256:196,1,90,2|0,0:0|0:0,0:0:0:0:
416,358,49082,70,0,B|447:361|447:361|414:344,1,67.5
500,304,49495,2,0,B|449:279|449:279|523:272,1,107.999996704102,0|0,3:0|0:0,0:0:0:0:
454,193,50116,2,0,B|460:142|460:142|479:196,1,107.999996704102,0|0,3:0|0:0,0:0:0:0:
509,92,50737,2,0,L|502:30,1,53.9999983520508,0|0,3:0|0:0,0:0:0:0:
439,3,51151,21,2,0:0:0:0:
460,145,51564,1,0,3:0:0:0:
399,185,51771,2,0,P|325:188|259:169,1,107.999996704102,2|2,0:0|2:2,0:0:0:0:
256,112,52392,1,2,0:2:0:0:
99,151,52806,102,0,P|109:224|109:280,1,107.999996704102,2|0,0:1|0:0,0:0:0:0:
69,333,53426,2,0,P|160:335|187:340,1,107.999996704102,2|0,0:0|0:0,0:0:0:0:
246,361,54047,2,0,P|274:363|246:357,1,80.9999975280763,2|0,2:0|0:0,0:0:0:0:
346,374,54461,2,0,P|409:343|503:352,1,161.999995056153,0|2,0:0|0:0,0:0:0:0:
512,276,55289,1,0,3:0:0:0:
384,151,55702,2,0,P|388:189|388:221,1,53.9999983520508
388,204,56116,6,0,P|334:197|281:200,1,107.999996704102,4|0,0:2|0:0,0:0:0:0:
234,262,56737,2,0,P|212:232|219:156,1,107.999996704102,2|0,0:0|0:0,0:0:0:0:
311,271,57357,2,0,P|333:301|326:377,1,107.999996704102,2|0,2:0|3:0,0:0:0:0:
254,374,58185,1,0,0:0:0:0:
226,354,58392,1,2,0:0:0:0:
151,372,58599,2,0,P|99:365|4:372,1,135,0|0,3:0|0:0,0:0:0:0:
9,365,59426,102,0,P|11:333|11:309,1,45,4|0,0:2|0:0,0:0:0:0:
85,288,59840,2,0,B|157:275|149:307|224:296,1,135
272,190,60668,2,0,L|268:238,1,45,2|0,2:0|0:0,0:0:0:0:
327,282,61082,6,0,P|385:276|418:281,1,90,0|0,3:0|0:0,0:0:0:0:
416,280,61702,1,2,0:0:0:0:
478,198,61909,2,0,P|420:192|387:197,1,90,0|0,3:0|0:0,0:0:0:0:
388,196,62530,1,0,3:0:0:0:
385,121,62737,102,0,P|388:97|393:71,1,45,0|0,3:0|0:0,0:0:0:0:
310,18,63151,2,0,P|315:49|324:76,1,45,2|0,0:0|0:0,0:0:0:0:
295,145,63564,2,0,P|278:127|259:108,2,45,2|0|2,0:0|0:0|0:0,0:0:0:0:
225,179,64185,1,0,0:0:0:0:
165,244,64392,6,0,P|206:251|226:257,1,45,2|0,0:0|0:0,0:0:0:0:
272,296,64806,2,0,P|279:324|289:351,1,45,2|0,0:0|0:0,0:0:0:0:
356,356,65220,2,0,P|401:370|452:388,2,90,2|0|2,0:0|3:0|2:1,0:0:0:0:
426,299,66461,6,0,P|458:290|483:283,1,45,4|0,0:0|0:0,0:0:0:0:
512,221,66875,2,0,P|489:185|391:178,1,135,2|0,0:0|0:0,0:0:0:0:
371,243,67702,1,0,3:0:0:0:
371,243,69357,70,0,P|310:237|184:241,1,175.499991966248,2|2,1:3|2:0,0:0:0:0:
67,184,70185,2,0,P|55:226|86:300,1,116.999994644165,8|0,3:2|0:0,0:0:0:0:
121,359,70806,2,0,P|179:338|233:342,1,116.999994644165,2|0,2:0|0:0,0:0:0:0:
303,372,71426,1,0,0:0:0:0:
367,323,71633,2,0,L|403:317,1,29.2499986610413,2|0,2:0|0:0,0:0:0:0:
403,316,71840,2,0,P|381:278|389:205,1,116.999994644165,8|0,3:2|0:0,0:0:0:0:
149,218,72668,6,0,P|192:217|252:261,1,116.999994644165,0|0,3:0|0:0,0:0:0:0:
310,205,73289,2,0,P|311:157|316:120,1,58.4999973220826,2|8,2:0|3:2,0:0:0:0:
226,30,73702,1,0,2:0:0:0:
226,30,73909,2,0,P|231:73|235:160,1,116.999994644165,2|0,0:0|3:0,0:0:0:0:
238,149,74737,1,0,0:0:0:0:
153,171,74944,2,0,P|156:150|160:129,1,29.2499986610413,2|0,2:0|0:0,0:0:0:0:
158,133,75151,2,0,P|132:119|35:108,1,116.999994644165,8|0,3:2|0:0,0:0:0:0:
97,263,75978,102,0,B|194:269|171:222|272:228,1,175.499991966248,0|2,3:0|2:0,0:0:0:0:
335,271,76806,2,0,P|347:315|310:381,1,116.999994644165,8|0,3:2|0:0,0:0:0:0:
252,336,77426,2,0,P|216:329|176:329,2,58.4999973220826,2|0|0,2:0|3:0|0:0,0:0:0:0:
316,376,78047,1,2,0:0:0:0:
368,324,78254,2,0,L|363:275,1,29.2499986610413,2|0,2:0|0:0,0:0:0:0:
362,286,78461,2,0,L|376:170,1,116.999994644165,8|0,3:2|0:0,0:0:0:0:
376,169,79289,6,0,P|447:145|467:98,1,116.999994644165,0|0,3:0|0:0,0:0:0:0:
397,58,79909,2,0,P|395:32|395:-11,2,58.4999973220826,2|8|0,2:0|3:2|2:0,0:0:0:0:
332,100,80530,1,2,0:0:0:0:
256,94,80737,2,0,L|262:132,1,29.2499986610413,0|0,2:0|0:0,0:0:0:0:
260,130,80944,2,0,P|227:123|196:121,1,58.4999973220826,0|0,3:0|0:0,0:0:0:0:
150,177,81357,2,0,P|160:209|174:236,1,58.4999973220826,0|2,0:0|2:0,0:0:0:0:
263,278,81771,2,0,P|209:300|163:336,1,116.999994644165,8|0,3:2|0:0,0:0:0:0:
163,336,82599,102,0,P|101:282|73:236,1,116.999994644165,2|0,1:3|0:0,0:0:0:0:
23,201,83220,2,0,P|37:170|57:136,1,58.4999973220826,2|8,2:0|3:2,0:0:0:0:
136,9,83840,2,0,P|177:11|224:56,1,87.749995983124
218,43,84254,2,0,P|169:97|94:95,1,135.000005149842,0|0,3:0|0:0,0:0:0:0:
121,218,84875,2,0,P|130:255|133:293,1,67.5000025749208,2|8,2:0|3:2,0:0:0:0:
132,284,85289,1,0,0:0:0:0:
97,378,85495,2,0,P|205:354|223:352,1,101.250003862381
203,353,85909,6,0,P|255:303|236:228,1,135.000005149842,0|0,3:0|0:0,0:0:0:0:
168,142,86530,2,0,P|167:185|172:222,1,67.5000025749208,2|8,2:0|3:2,0:0:0:0:
343,376,87151,2,0,P|354:344|395:285,1,101.250003862381,2|0,0:0|0:0,0:0:0:0:
398,283,87564,2,0,L|377:144,1,135.000005149842,0|0,3:0|0:0,0:0:0:0:
458,43,88185,2,0,P|454:77|454:111,1,67.5000025749208,2|8,2:0|3:2,0:0:0:0:
298,165,88599,2,0,P|292:132|282:100,1,67.5000025749208,2|0,0:0|0:0,0:0:0:0:
282,100,89220,102,0,P|217:90|125:90,1,135.000005149842,0|0,3:0|0:0,0:0:0:0:
66,133,89840,1,2,2:0:0:0:
140,92,90047,2,0,P|111:119|99:211,1,135.000005149842,8|0,3:2|0:0,0:0:0:0:
168,288,90668,1,2,2:0:0:0:
104,216,90875,6,0,P|149:247|170:301,1,101.250003862381,0|0,3:0|0:0,0:0:0:0:
167,294,91289,2,0,L|97:309,1,67.5000025749208,2|2,0:2|2:0,0:0:0:0:
228,384,91702,2,0,L|241:318,1,67.5000025749208,8|0,3:2|0:0,0:0:0:0:
402,246,92116,2,0,P|364:279|342:324,1,101.250003862381
340,333,92530,102,0,P|305:274|326:191,1,135.000005149842,0|0,3:0|0:0,0:0:0:0:
388,105,93151,2,0,P|391:138|383:171,1,67.5000025749208,2|8,2:0|3:2,0:0:0:0:
468,138,93564,1,0,2:0:0:0:
466,111,93771,1,2,0:0:0:0:
509,349,94185,6,0,L|514:311,24,30,2|0|0|0|0|0|0|0|0|0|0|0|0|0|0|0|0|0|0|0|0|0|0|0|0,3:0|0:0|0:0|0:0|0:0|0:0|0:0|0:0|0:0|0:0|0:0|0:0|0:0|0:0|0:0|0:0|0:0|0:0|0:0|0:0|0:0|0:0|0:0|0:0|3:0,0:0:0:0:
0,319,96668,22,0,B|26:284|26:284|8:207,1,116.999994644165
9,212,97495,54,0,P|88:237|197:226,1,180,8|0,3:3|2:2,0:0:0:0:
57,146,98116,1,2,3:2:0:0:
120,89,98323,2,0,P|52:113|-43:114,1,144,8|0,1:2|2:2,0:0:0:0:
202,155,99151,102,0,P|198:77|209:-5,1,144,6|0,3:2|2:2,0:0:0:0:
275,117,99771,1,0,3:2:0:0:
212,245,99978,2,0,B|225:323|186:297|200:380,1,135,8|0,1:2|0:0,0:0:0:0:
203,382,100392,2,0,P|210:346|205:311,1,72,2|0,2:2|3:2,0:0:0:0:
301,262,100806,6,0,P|346:311|448:311,1,144,8|0,3:3|2:2,0:0:0:0:
488,383,101426,2,0,P|493:334|504:300,1,72,2|8,3:2|1:2,0:0:0:0:
246,39,102047,2,0,P|254:73|266:212,1,144,2|8,2:2|3:1,0:0:0:0:
323,239,102668,101,2,0:0:0:0:
399,216,102875,1,0,2:2:0:0:
372,128,103082,1,2,3:2:0:0:
437,0,103289,5,8,1:2:0:0:
384,124,103495,1,2,0:0:0:0:
457,270,103702,2,0,P|462:323|443:380,1,90,8|2,2:2|3:2,0:0:0:0:
256,384,104116,102,0,P|232:307|262:182,1,180,2|0,3:1|2:2,0:0:0:0:
247,210,104737,1,2,3:2:0:0:
127,349,104944,2,0,P|82:359|25:356,1,90,8|0,1:2|0:0,0:0:0:0:
0,248,105357,2,0,P|38:247|117:281,1,108,0|0,2:2|0:0,0:0:0:0:
109,274,105771,6,0,B|247:274|180:213|320:220,1,216,6|2,3:2|3:2,0:0:0:0:
512,277,106599,2,0,P|487:360|447:386,1,135,8|0,1:2|0:0,0:0:0:0:
378,358,107013,2,0,P|359:298|377:254,1,108,0|0,2:2|0:0,0:0:0:0:
452,227,107426,102,0,P|348:217|288:153,1,180,8|0,3:3|2:2,0:0:0:0:
375,258,108047,2,0,P|394:288|400:324,1,72,2|8,3:2|1:2,0:0:0:0:
111,122,108668,2,0,P|120:166|117:211,1,90,2|0,2:2|3:2,0:0:0:0:
217,0,109082,6,0,P|193:79|197:159,1,144,8|0,3:1|2:2,0:0:0:0:
202,220,109702,1,2,3:2:0:0:
151,360,109909,2,0,P|156:301|151:266,1,72,8|2,1:2|2:2,0:0:0:0:
37,109,110323,2,0,P|32:168|-3:257,1,150,0|0,2:2|0:0,0:0:0:0:
11,247,110737,102,0,P|102:219|175:216,1,144,8|0,3:3|2:2,0:0:0:0:
221,254,111357,1,2,3:2:0:0:
344,146,111564,2,0,P|253:118|185:118,1,144,8|0,1:2|2:2,0:0:0:0:
222,35,112185,1,0,3:2:0:0:
381,62,112392,6,0,B|467:76|433:36|525:51,1,144,6|0,3:2|2:2,0:0:0:0:
457,135,113013,1,2,3:2:0:0:
482,237,113220,2,0,P|489:288|492:394,1,135,8|0,1:2|0:0,0:0:0:0:
503,377,113633,2,0,P|503:312|513:258,1,90,0|0,2:2|3:2,0:0:0:0:
410,195,114047,102,0,P|373:251|273:260,1,144,8|0,3:3|2:2,0:0:0:0:
244,326,114668,2,0,P|186:295|152:299,1,72,2|8,3:2|1:2,0:0:0:0:
56,14,115289,2,0,P|74:44|78:80,1,72,2|0,2:2|3:2,0:0:0:0:
1,103,115702,6,0,P|74:115|142:166,1,135,8|0,3:1|0:0,0:0:0:0:
199,143,116116,2,0,P|221:185|224:233,1,72,0|2,2:2|3:2,0:0:0:0:
371,275,116530,2,0,P|371:327|292:385,1,144,8|0,1:2|2:2,0:0:0:0:
440,372,117151,1,2,3:2:0:0:
456,302,117357,1,2,3:1:0:0:
301,102,117771,102,0,P|304:151|298:194,1,72,0|2,2:2|3:2,0:0:0:0:
382,157,118185,2,0,P|415:74|413:-8,1,144,8|0,1:2|2:2,0:0:0:0:
485,154,118806,1,2,3:2:0:0:
431,217,119013,1,6,3:2:0:0:
143,364,119426,6,0,P|138:323|142:260,1,72,2|0,2:2|3:2,0:0:0:0:
188,194,119840,2,0,P|203:244|254:341,1,144,8|2,1:2|2:2,0:0:0:0:
22,226,120668,102,0,P|56:155|61:68,1,144,8|0,3:3|2:2,0:0:0:0:
67,11,121289,2,0,P|20:18|-30:18,1,72,2|8,3:2|1:2,0:0:0:0:
142,132,121702,5,0,0:0:0:0:
201,68,121909,1,2,2:2:0:0:
287,48,122116,1,2,3:2:0:0:
374,70,122323,102,0,P|437:76|507:13,1,144,8|0,3:1|2:2,0:0:0:0:
489,143,122944,1,2,3:2:0:0:
352,150,123151,2,0,P|315:201|334:293,1,144,8|0,1:2|2:2,0:0:0:0:
0,233,123978,101,8,3:3:0:0:
62,185,124185,1,0,0:0:0:0:
87,258,124392,1,0,2:2:0:0:
152,303,124806,101,8,1:2:0:0:
175,384,125013,1,0,2:2:0:0:
231,322,125220,1,0,2:2:0:0:
289,274,125633,5,6,3:2:0:0:
314,171,125840,1,0,2:2:0:0:
396,240,126047,1,0,2:2:0:0:
469,297,126254,1,0,3:2:0:0:
482,206,126461,2,0,P|479:163|479:124,1,62.9999980773926,8|0,1:2|0:0,0:0:0:0:
398,226,126875,2,0,P|404:293|404:342,1,94.499997116089,2|0,2:2|0:0,0:0:0:0:
407,331,127289,6,0,P|447:330|478:333,1,62.9999980773926,8|0,3:3|0:0,0:0:0:0:
324,266,127702,2,0,P|297:270|242:276,1,62.9999980773926,2|0,0:0|0:0,0:0:0:0:
375,184,128116,2,0,P|443:196|521:202,1,125.999996154785,8|0,3:2|0:0,0:0:0:0:
487,114,128737,2,0,P|447:116|419:114,1,62.9999980773926,0|0,3:0|3:0,0:0:0:0:
423,24,129151,5,2,0:0:0:0:
390,27,129357,1,2,2:2:0:0:
326,87,129564,1,2,3:2:0:0:
257,98,129771,1,8,1:2:0:0:
218,206,129978,1,0,0:0:0:0:
130,230,130185,2,0,P|114:270|114:319,1,62.9999980773926,2|0,0:0|0:0,0:0:0:0:
8,88,130599,69,4,3:3:0:0:
18,169,130806,1,0,0:0:0:0:
83,121,131013,1,0,2:2:0:0:
151,93,131426,5,8,1:2:0:0:
180,12,131633,1,0,2:2:0:0:
231,80,131840,1,0,2:2:0:0:
289,120,132254,101,6,3:2:0:0:
319,207,132461,1,0,2:2:0:0:
379,134,132668,1,0,2:2:0:0:
439,61,132875,1,0,3:2:0:0:
469,148,133082,2,0,P|467:179|471:220,1,62.9999980773926,8|0,1:2|0:0,0:0:0:0:
394,237,133495,2,0,P|398:279|398:370,1,125.999996154785,2|8,2:2|3:3,0:0:0:0:
220,230,134116,37,0,0:0:0:0:
212,156,134323,1,2,0:0:0:0:
295,217,134529,1,0,0:0:0:0:
304,306,134737,2,0,P|253:307|171:312,1,108,8|0,3:2|0:0,0:0:0:0:
74,366,135151,2,0,P|110:369|146:375,1,72,0|0,0:0|3:0,0:0:0:0:
107,240,135564,53,4,3:2:0:0:
256,192,135668,12,0,138047,0:0:0:0:
195,163,138461,102,0,P|198:190|198:217,1,53.9999983520508,2|0,0:0|0:0,0:0:0:0:
141,269,138875,2,0,P|213:248|347:250,1,188.999994232178,2|0,0:1|0:0,0:0:0:0:
384,298,139702,2,0,B|367:401|478:432|557:354|472:155|444:287|355:244|364:118|406:90,1,431.999986816407,4|0,0:0|0:0,0:0:0:0:
256,192,141461,12,0,143840,0:0:0:0:
0,206,145909,86,0,P|6:182|9:149,1,45,2|0,2:0|0:0,0:0:0:0:
115,22,146116,2,0,P|117:55|124:88,1,45,2|0,2:0|0:0,0:0:0:0:
240,116,146323,6,0,P|329:92|416:100,1,161.999995056153,2|0,2:0|0:0,0:0:0:0:
288,213,146737,2,0,P|263:201|237:195,1,53.9999983520508,2|0,0:0|0:0,0:0:0:0:
438,1,146944,102,0,B|465:211|235:178|272:382,1,431.999986816407,8|0,0:0|0:0,0:0:0:0:
493,291,147978,6,0,B|494:123|330:212|339:27,1,323.999990112305,2|0,0:0|0:0,0:0:0:0:
55,201,148806,102,0,P|31:290|68:352,1,135,6|0,0:2|0:0,0:0:0:0:
108,366,149220,2,0,P|137:367|169:373,1,45,2|0,0:0|0:0,0:0:0:0:
340,343,149426,2,0,B|385:379|467:387|560:335|571:264|483:171|406:273,1,360,8|0,0:2|0:0,0:0:0:0:
415,331,150461,54,0,P|362:363|291:123,1,450,2|0,0:1|0:0,0:0:0:0:
432,173,151702,2,0,P|431:221|417:271,1,80.9999975280763,0|8,0:0|0:3,0:0:0:0:
423,253,152530,54,0,P|496:258|528:360,1,161.999995056153,2|0,0:0|0:0,0:0:0:0:
349,345,152944,2,0,P|253:361|157:391,1,180,2|0,0:0|0:0,0:0:0:0:
338,218,153564,1,2,0:0:0:0:
186,255,153771,6,0,P|305:310|423:253,1,270,2|0,0:0|0:0,0:0:0:0:
265,3,154599,2,0,P|271:70|251:226,1,202.500007724762,8|0,0:0|0:0,0:0:0:0:
41,126,155426,102,0,P|26:75|-4:27,1,101.250003862381,4|0,0:0|0:0,0:0:0:0:
157,7,155840,2,0,P|151:51|149:69,1,45,2|0,0:0|0:0,0:0:0:0:
45,134,156047,2,0,B|83:147|159:253|115:345|-8:376|-65:288|-24:217|27:244,1,360,2|0,0:0|0:0,0:0:0:0:
120,358,157082,54,0,P|196:378|292:297,1,180,2|0,0:1|0:0,0:0:0:0:
496,216,157702,2,0,P|430:180|359:201,1,153.000002918243,2|0,0:2|0:0,0:0:0:0:
308,260,158323,2,0,P|307:305|339:273,1,116.999994644165,4|2,0:2|0:3,0:0:0:0:
338,272,159151,54,0,P|373:267|415:266,1,53.9999983520508,2|0,2:0|0:0,0:0:0:0:
231,90,159357,2,0,P|258:88|285:84,1,53.9999983520508,2|0,2:0|0:0,0:0:0:0:
394,176,159564,6,0,P|313:175|233:190,1,161.999995056153,2|0,2:0|0:0,0:0:0:0:
186,255,159978,2,0,P|159:282|144:319,1,53.9999983520508,2|0,0:0|0:0,0:0:0:0:
74,374,160185,102,0,P|112:273|-26:-2,1,396.000012084961,8|0,0:0|0:0,0:0:0:0:
343,3,161220,2,0,P|255:29|174:141,1,216,2|0,0:0|0:0,0:0:0:0:
329,241,162047,6,0,B|312:317|354:301|331:406,1,135,6|0,0:2|0:0,0:0:0:0:
336,383,162460,1,2,0:0:0:0:
504,180,162668,102,0,P|499:78|503:-18,1,180,8|0,0:2|0:0,0:0:0:0:
417,48,163289,2,0,P|383:58|284:55,1,108,2|0,0:0|0:0,0:0:0:0:
244,16,163702,54,0,P|183:8|-1:57,1,215.999993408203,2|0,0:1|0:0,0:0:0:0:
43,143,164323,2,0,P|104:151|288:102,1,215.999993408203,2|0,0:0|0:0,0:0:0:0:
311,61,164944,1,0,0:0:0:0:
497,237,165357,54,0,P|496:301|421:382,1,161.999995056153,8|0,0:3|0:0,0:0:0:0:
265,280,166185,2,0,B|278:189|239:211|254:113,1,161.999995056153,2|0,0:0|0:0,0:0:0:0:
11,196,167013,1,4,0:3:0:0:
11,196,167840,54,0,P|85:184|137:132,1,134.999995880127,2|0,0:0|0:0,0:0:0:0:
180,212,168254,2,0,P|254:224|300:264,1,108,2|0,0:0|0:0,0:0:0:0:
512,192,168705,53,2,0:3:0:0:
256,192,168795,12,8,171614,2:0:0:0:
295,156,173977,37,8,0:0:0:0:
173,207,174159,5,2,0:0:0:0:
169,230,174280,1,2,0:0:0:0:
160,249,174401,1,2,0:0:0:0:
122,319,174523,6,0,B|124:241|124:241|85:327,1,135.000005149842,0|2,1:0|0:0,0:0:0:0:
30,179,175068,2,0,B|49:232|49:232|53:168,1,99.0000030212403,8|0,0:0|0:0,0:0:0:0:
73,115,175614,2,0,P|70:78|86:22,1,67.5000025749208,2|0,0:0|0:0,0:0:0:0:
227,21,175977,101,0,3:0:0:0:
209,89,176159,1,0,0:0:0:0:
193,159,176341,1,2,0:0:0:0:
180,233,176523,2,0,P|176:290|175:369,1,116.999994644165,8|0,0:0|0:0,0:0:0:0:
102,370,177068,2,0,P|146:369|174:370,1,58.4999973220826,2|0,0:0|0:0,0:0:0:0:
399,333,177432,5,4,3:2:0:0:
267,150,177795,1,2,0:0:0:0:
320,230,177977,2,0,B|340:172|340:172|345:244,1,116.999994644165,8|0,0:0|0:0,0:0:0:0:
401,109,178523,2,0,B|404:137|404:137|388:110,1,58.4999973220826,2|0,0:0|0:0,0:0:0:0:
483,0,178886,102,0,P|477:60|484:151,1,135.000005149842,0|2,3:0|0:0,0:0:0:0:
493,209,179432,1,8,0:0:0:0:
311,241,179614,2,0,P|317:181|310:90,1,135.000005149842,0|2,3:0|0:0,0:0:0:0:
171,76,180159,2,0,P|166:45|152:15,1,40.4999987640381,2|2,3:2|2:0,0:0:0:0:
159,29,180341,70,0,P|90:46|4:43,1,135,8|0,1:3|0:0,0:0:0:0:
169,22,180705,1,0,3:2:0:0:
41,204,180886,102,0,P|112:205|194:230,1,135,8|0,3:2|0:0,0:0:0:0:
29,208,181250,1,2,3:2:0:0:
173,221,181432,6,0,P|171:294|188:346,1,90,0|0,3:2|0:0,0:0:0:0:
178,319,181705,1,2,0:0:0:0:
256,384,181795,102,0,B|237:293|310:314|298:219,1,175.499991966248,4|0,1:3|0:0,0:0:0:0:
369,264,182159,1,0,3:2:0:0:
482,144,182341,6,0,B|500:234|427:213|439:308,1,175.499991966248,8|0,3:2|0:0,0:0:0:0:
369,264,182705,1,2,3:2:0:0:
206,113,182886,2,0,P|146:87|108:92,1,90,0|0,3:2|0:0,0:0:0:0:
68,41,183159,1,2,0:0:0:0:
0,23,183250,102,0,L|166:1,1,148.50000453186,2|0,1:1|0:0,0:0:0:0:
68,41,183614,1,0,3:2:0:0:
274,131,183795,6,0,L|108:153,1,148.50000453186,8|0,3:2|0:0,0:0:0:0:
206,113,184159,1,2,3:2:0:0:
55,163,184341,2,0,P|47:215|68:261,1,99.0000030212403,0|0,3:2|0:0,0:0:0:0:
64,256,184705,102,0,P|147:261|208:306,1,148.50000453186,8|0,1:1|0:0,0:0:0:0:
52,261,185068,1,0,3:2:0:0:
262,110,185250,6,0,P|199:148|126:150,1,148.50000453186,8|0,3:2|0:0,0:0:0:0:
269,102,185613,1,2,3:2:0:0:
413,200,185795,101,0,3:2:0:0:
415,272,185886,1,2,0:0:0:0:
379,335,185977,1,2,0:0:0:0:
289,362,186159,6,0,P|375:307|492:332,1,202.500007724762,8|0,1:3|0:0,0:0:0:0:
389,380,186523,1,0,3:2:0:0:
512,218,186705,102,0,P|426:273|309:248,1,202.500007724762,8|0,3:2|0:0,0:0:0:0:
412,200,187069,1,2,3:2:0:0:
318,61,187250,2,0,P|301:119|251:158,1,99.0000030212403,0|0,3:2|0:0,0:0:0:0:
263,157,187523,1,2,0:0:0:0:
253,228,187614,6,0,P|252:159|215:41,1,175.499991966248,4|0,1:3|0:0,0:0:0:0:
250,240,187977,1,0,3:2:0:0:
55,187,188159,102,0,P|56:256|93:374,1,175.499991966248,8|0,3:2|0:0,0:0:0:0:
58,175,188522,1,2,3:2:0:0:
188,270,188705,2,0,B|262:260|231:303|345:280,1,116.999994644165,0|0,3:2|0:0,0:0:0:0:
375,287,188977,1,2,0:0:0:0:
424,230,189068,6,0,P|348:290|365:385,1,202.500007724762,2|0,1:1|0:0,0:0:0:0:
443,326,189432,2,0,P|439:310|440:329,1,67.5000025749208,0|0,3:2|0:0,0:0:0:0:
188,270,189614,102,0,P|264:210|247:115,1,202.500007724762,8|0,3:2|0:0,0:0:0:0:
171,170,189978,2,0,P|175:186|174:167,1,67.5000025749208,2|0,3:2|0:0,0:0:0:0:
424,230,190159,6,0,P|348:290|365:385,1,202.500007724762,0|0,3:2|0:0,0:0:0:0:
511,240,190523,102,0,P|502:159|515:27,1,202.500007724762,8|0,1:1|0:0,0:0:0:0:
512,32,190886,1,0,3:2:0:0:
266,57,191068,6,0,P|280:128|306:199,1,148.50000453186,8|0,3:2|0:0,0:0:0:0:
312,206,191432,1,2,3:2:0:0:
151,215,191614,102,0,P|83:185|55:156,1,99.0000030212403,0|0,3:2|0:0,0:0:0:0:
58,171,191886,1,0,0:0:0:0:
52,175,191977,54,0,B|57:253|38:228|46:310,1,135.000005149842,4|0,0:0|0:0,0:0:0:0:
45,309,192523,1,2,0:0:0:0:
116,347,192705,2,0,P|64:387|1:371,1,135.000005149842,2|0,0:0|0:0,0:0:0:0:
3,114,193250,2,0,P|67:99|119:139,1,135.000005149842,2|2,0:0|0:0,0:0:0:0:
45,208,193705,2,0,L|52:175,1,33.7500012874604,0|2,0:0|0:0,0:0:0:0:
52,174,194523,2,0,P|53:230|64:294,1,101.250003862381
62,282,194886,102,0,P|115:285|166:296,1,99.0000030212403,4|0,0:0|0:0,0:0:0:0:
265,349,195432,2,0,P|241:301|225:251,1,99.0000030212403,2|0,0:0|0:0,0:0:0:0:
222,134,195977,2,0,P|192:178|115:258,1,148.50000453186,2|0,0:0|0:0,0:0:0:0:
165,318,196705,101,0,2:0:0:0:
242,339,196886,1,0,3:0:0:0:
219,262,197068,1,2,2:0:0:0:
165,318,197250,1,0,3:0:0:0:
417,384,197795,22,0,B|418:305|408:323|415:233,1,135.000005149842,4|0,0:0|0:0,0:0:0:0:
412,143,198341,1,2,0:0:0:0:
509,255,198523,2,0,P|533:186|510:128,1,135.000005149842,2|0,0:0|0:0,0:0:0:0:
307,179,199068,2,0,P|295:236|313:279,1,101.250003862381,2|0,0:0|0:0,0:0:0:0:
378,237,199432,2,0,P|381:220|383:204,1,33.7500012874604,2|0,0:0|0:0,0:0:0:0:
432,351,199614,2,0,P|435:318|441:285,1,67.5000025749208,2|0,0:0|0:0,0:0:0:0:
441,284,200341,1,0,0:0:0:0:
272,212,200705,102,0,P|263:163|266:106,1,99.0000030212403,4|0,0:0|0:0,0:0:0:0:
206,271,201250,2,0,P|252:287|300:318,1,99.0000030212403,2|0,0:0|0:0,0:0:0:0:
187,177,201795,2,0,P|149:209|55:249,1,148.50000453186,2|0,0:0|0:0,0:0:0:0:
0,137,202523,101,0,2:0:0:0:
62,73,202705,1,0,3:0:0:0:
83,160,202886,1,2,2:0:0:0:
0,137,203068,1,0,3:0:0:0:
62,73,203250,1,0,0:0:0:0:
198,0,203614,86,0,B|257:67|209:180|221:135|29:226|29:417|275:549|429:399|437:214|278:168,2,792.000024169923,8|4|4,0:3|0:3|0:2,0:0:0:0:
256,192,209523,12,0,212159,0:0:0:0:
13,139,212341,38,0,P|80:139|172:161,1,135.000005149842,2|0,3:3|0:0,0:0:0:0:
212,125,212886,1,0,3:0:0:0:
259,46,213068,2,0,P|350:56|411:-3,1,161.999995056153,2|0,0:0|2:0,0:0:0:0:
391,122,213614,70,0,P|387:144|398:120,1,80.9999975280763,2|0,3:2|3:3,0:0:0:0:
485,151,213977,1,2,0:0:0:0:
369,224,214159,2,0,P|366:280|383:399,2,161.999995056153,0|2|0,0:0|0:0|2:0,0:0:0:0:
499,275,215068,1,0,3:0:0:0:
497,286,215159,1,0,3:0:0:0:
495,297,215250,38,0,B|394:277|436:332|316:310,1,161.999995056153,0|0,3:0|0:0,0:0:0:0:
267,284,215795,2,0,B|234:278|206:305|206:305|242:298|273:315,1,121.499996292114,0|0,3:0|0:0,0:0:0:0:
337,313,216159,1,2,0:0:0:0:
228,381,216341,1,0,2:0:0:0:
105,339,216523,2,0,P|104:292|104:270,1,40.4999987640381,2|0,3:2|0:0,0:0:0:0:
51,235,216705,70,0,P|62:169|55:54,1,161.999995056153,0|0,3:3|0:0,0:0:0:0:
58,74,217250,2,0,P|129:77|163:69,1,80.9999975280763,0|4,3:0|0:0,0:0:0:0:
135,152,217614,1,2,0:0:0:0:
46,153,217795,1,0,2:0:0:0:
5,4,217977,1,0,3:0:0:0:
89,0,218159,38,0,B|184:-8|153:29|271:21,1,161.999995056153,0|0,3:0|0:0,0:0:0:0:
315,51,218705,1,0,3:0:0:0:
334,178,218886,2,0,P|365:104|433:61,1,161.999995056153,2|0,0:0|2:0,0:0:0:0:
452,178,219432,2,0,P|426:209|390:227,1,80.9999975280763,2|0,3:2|3:3,0:0:0:0:
329,274,219795,69,2,0:0:0:0:
360,373,219977,2,0,P|441:334|540:362,1,161.999995056153,0|2,0:0|0:0,0:0:0:0:
217,211,220705,2,0,P|155:219|116:221,1,80.9999975280763,0|0,2:0|3:0,0:0:0:0:
277,161,221068,38,0,P|278:109|297:-32,1,161.999995056153,0|0,3:0|0:0,0:0:0:0:
290,243,221614,2,0,P|300:323|300:354,1,80.9999975280763,0|2,3:0|0:0,0:0:0:0:
283,165,221977,1,0,0:0:0:0:
252,74,222159,2,0,P|195:73|119:60,1,121.499996292114,0|0,3:0|0:0,0:0:0:0:
124,64,222523,70,0,P|125:128|108:244,1,161.999995056153,0|0,3:3|0:0,0:0:0:0:
68,294,223068,2,0,P|69:331|79:385,1,80.9999975280763,0|4,3:0|0:0,0:0:0:0:
202,384,223432,37,2,0:0:0:0:
226,220,223614,1,0,2:0:0:0:
147,310,223795,1,0,3:0:0:0:
274,333,223977,70,0,B|375:329|331:292|435:291,1,161.999995056153,0|0,3:0|0:0,0:0:0:0:
504,273,224523,2,0,P|512:316|498:363,1,80.9999975280763,0|2,3:0|0:0,0:0:0:0:
450,218,224886,1,0,0:0:0:0:
450,218,225068,2,0,P|448:147|497:79,1,121.499996292114,0|0,3:0|0:0,0:0:0:0:
476,101,225432,38,0,B|485:81|514:93|526:122|493:170|432:151|404:124,1,161.999995056153,0|0,3:3|0:0,0:0:0:0:
307,50,225977,2,0,P|245:1|167:15,1,161.999995056153,0|0,3:0|0:0,0:0:0:0:
234,171,226523,2,0,P|228:131|242:93,1,80.9999975280763,0|0,2:0|3:0,0:0:0:0:
307,141,226795,1,0,3:0:0:0:
307,141,226886,70,0,P|192:141|120:160,1,161.999995056153,0|0,3:0|0:0,0:0:0:0:
349,297,227432,2,0,P|464:297|536:316,1,161.999995056153,0|0,3:0|0:0,0:0:0:0:
354,216,227977,2,0,P|349:271|348:313,1,80.9999975280763,0|2,2:0|3:2,0:0:0:0:
277,378,228341,38,0,P|269:296|256:203,1,161.999995056153,0|0,3:3|0:0,0:0:0:0:
258,217,228886,1,0,3:0:0:0:
180,298,229068,2,0,P|113:327|51:295,1,121.499996292114,4|0,0:0|0:0,0:0:0:0:
64,303,229432,2,0,P|65:257|96:220,2,80.9999975280763,0|0|0,2:0|3:0|3:0,0:0:0:0:
195,384,229977,69,0,0:0:0:0:
256,346,230159,2,0,P|335:337|414:352,1,121.499996292114,2|0,0:0|0:0,0:0:0:0:
384,342,230523,2,0,P|462:353|496:268,1,161.999995056153,2|0,0:0|2:0,0:0:0:0:
486,216,231068,1,2,3:2:0:0:
407,117,231250,38,0,P|407:79|417:5,1,80.9999975280763,0|2,3:3|0:0,0:0:0:0:
412,126,231614,1,0,0:0:0:0:
406,223,231795,2,0,P|406:261|393:414,1,161.999995056153,0|0,3:0|0:0,0:0:0:0:
324,214,232341,1,0,3:0:0:0:
330,125,232523,1,2,2:2:0:0:
254,164,232705,102,0,B|158:157|193:199|90:192,1,161.999995056153,0|0,3:0|0:0,0:0:0:0:
90,110,233250,6,0,B|160:88|183:183|170:171|182:277|284:250,1,242.999992584229,0|0,3:0|2:0,0:0:0:0:
325,214,233977,1,2,3:2:0:0:
264,85,234159,6,0,P|262:137|248:199,1,80.9999975280763,4|0,3:2|0:0,0:0:0:0:
255,377,234886,5,0,3:0:0:0:
262,384,235250,5,0,3:0:0:0:
262,384,235432,5,0,3:0:0:0:
109,198,235614,70,0,P|138:147|158:-22,1,202.500007724762,4|0,1:0|0:0,0:0:0:0:
177,123,235977,2,0,P|212:120|245:122,1,67.5000025749208,2|0,0:2|0:0,0:0:0:0:
453,18,236159,6,0,P|351:22|253:45,1,202.500007724762,8|0,1:2|0:0,0:0:0:0:
318,103,236523,1,2,0:2:0:0:
417,295,236705,6,0,P|428:230|442:191,1,67.5000025749208,2|0,1:2|0:0,0:0:0:0:
345,259,236886,1,8,0:0:0:0:
244,121,237068,6,0,P|257:200|261:333,1,202.500007724762,0|0,1:1|0:0,0:0:0:0:
201,369,237432,2,0,P|150:346|137:296,1,67.5000025749208,2|0,0:2|0:0,0:0:0:0:
18,300,237614,2,0,P|24:244|116:185,1,135.000005149842,8|4,1:2|2:0,0:0:0:0:
154,187,237886,69,2,2:0:0:0:
154,187,237977,1,2,0:2:0:0:
345,300,238159,2,0,P|402:376|489:363,1,135.000005149842,2|8,1:2|2:0,0:0:0:0:
260,16,238523,6,0,P|266:97|256:256,1,202.500007724762,2|0,1:1|0:0,0:0:0:0:
268,295,238886,2,0,P|234:331|216:365,1,67.5000025749208,2|0,0:2|0:0,0:0:0:0:
461,309,239068,6,0,P|476:229|526:78,1,202.500007724762,8|2,1:2|0:0,0:0:0:0:
467,49,239432,2,0,P|452:38|419:-10,1,67.5000025749208,2|0,0:2|0:0,0:0:0:0:
403,189,239614,2,0,P|343:198|305:212,1,67.5000025749208,2|0,1:2|0:0,0:0:0:0:
174,73,239795,6,0,P|293:71|336:77,1,135.000005149842,2|0,0:0|1:3,0:0:0:0:
224,190,240068,1,0,0:0:0:0:
224,190,240159,1,2,0:0:0:0:
65,259,240341,70,0,P|80:302|90:372,1,67.5000025749208,2|0,0:2|0:0,0:0:0:0:
157,377,240523,2,0,P|250:339|350:324,1,202.500007724762,8|0,1:2|0:0,0:0:0:0:
487,373,240886,6,0,P|449:364|391:357,1,67.5000025749208,2|0,0:2|0:0,0:0:0:0:
362,155,241068,2,0,P|468:206|505:245,1,135.000005149842,2|2,1:2|2:0,0:0:0:0:
257,384,241432,6,0,B|275:264|238:298|261:152,1,202.500007724762,2|0,1:1|0:0,0:0:0:0:
104,198,241795,2,0,P|106:146|92:89,1,67.5000025749208,2|0,0:2|0:0,0:0:0:0:
20,112,241977,6,0,P|120:100|214:64,1,202.500007724762,8|0,1:2|0:0,0:0:0:0:
265,2,242341,70,0,P|326:25|366:34,1,67.5000025749208,2|0,0:2|0:0,0:0:0:0:
491,98,242523,1,2,1:2:0:0:
336,241,242705,6,0,P|371:208|407:177,1,67.5000025749208,8|0,0:0|0:0,0:0:0:0:
498,105,242886,2,0,P|491:223|497:345,1,202.500007724762,0|0,1:1|0:0,0:0:0:0:
385,359,243250,6,0,P|443:377|478:400,1,67.5000025749208,2|0,0:2|0:0,0:0:0:0:
259,230,243432,1,8,1:2:0:0:
59,345,243614,6,0,P|152:318|303:315,1,202.500007724762,4|0,2:2|0:0,0:0:0:0:
321,126,243977,2,0,P|223:154|148:161,1,135.000005149842,2|8,1:2|2:0,0:0:0:0:
0,0,244341,70,0,P|100:33|224:26,1,202.500007724762,2|0,1:3|0:0,0:0:0:0:
261,64,244705,2,0,P|293:36|306:5,1,67.5000025749208,2|0,0:2|0:0,0:0:0:0:
476,120,244886,6,0,P|465:202|404:147,1,202.500007724762,8|2,1:2|0:0,0:0:0:0:
417,72,245250,1,2,0:2:0:0:
357,261,245432,2,0,P|421:325|497:335,1,135.000005149842,2|2,1:2|0:0,0:0:0:0:
509,276,245705,1,0,0:0:0:0:
462,337,245795,6,0,P|378:347|252:392,1,202.500007724762,0|0,1:1|0:0,0:0:0:0:
273,214,246159,2,0,P|276:255|259:299,1,67.5000025749208,2|0,0:2|0:0,0:0:0:0:
115,360,246341,2,0,P|33:310|35:221,1,161.999995056153,8|2,1:2|2:1,0:0:0:0:
60,183,246614,1,2,2:2:0:0:
60,183,246705,1,2,0:2:0:0:
217,151,246886,6,0,P|213:88|220:33,1,80.9999975280763,2|0,1:2|0:0,0:0:0:0:
134,0,247068,2,0,P|138:63|131:118,1,80.9999975280763,2|0,2:0|0:0,0:0:0:0:
273,214,247250,70,0,P|323:152|464:74,1,202.500007724762,4|0,1:0|0:0,0:0:0:0:
494,162,247614,2,0,P|483:205|481:252,1,67.5000025749208,2|0,0:2|0:0,0:0:0:0:
375,384,247795,6,0,B|344:266|435:320|388:141,1,202.500007724762,8|0,1:2|0:0,0:0:0:0:
336,94,248159,2,0,P|334:41|343:3,1,67.5000025749208,2|0,0:2|0:0,0:0:0:0:
265,9,248341,5,2,1:2:0:0:
135,76,248523,2,0,P|128:131|137:194,1,67.5000025749208,8|0,0:0|0:0,0:0:0:0:
43,271,248705,6,0,P|20:156|23:28,1,202.500007724762,0|0,1:2|0:0,0:0:0:0:
68,13,249068,2,0,P|121:4|157:-11,1,67.5000025749208,2|0,0:2|0:0,0:0:0:0:
202,45,249250,1,8,1:2:0:0:
128,144,249432,70,0,P|220:133|345:144,1,202.500007724762,4|0,2:0|0:0,0:0:0:0:
480,226,249795,2,0,P|388:215|309:231,1,135.000005149842,2|8,1:2|2:0,0:0:0:0:
138,345,250159,6,0,B|149:225|104:262|132:121,1,202.500007724762,2|0,1:1|0:0,0:0:0:0:
24,148,250523,2,0,P|26:113|25:64,1,67.5000025749208,2|0,0:2|0:0,0:0:0:0:
0,0,250705,6,0,P|143:26|217:46,1,202.500007724762,8|2,1:2|0:0,0:0:0:0:
266,70,251068,2,0,P|275:114|263:153,1,67.5000025749208,2|0,0:2|0:0,0:0:0:0:
41,204,251250,2,0,P|14:106|51:53,1,135.000005149842,2|2,1:2|0:0,0:0:0:0:
294,218,251614,5,0,1:3:0:0:
106,164,251795,1,2,0:0:0:0:
139,374,251977,2,0,P|147:322|143:275,1,67.5000025749208,2|0,0:2|0:0,0:0:0:0:
303,220,252159,70,0,P|398:200|532:207,1,202.500007724762,8|0,1:2|0:0,0:0:0:0:
512,279,252523,1,2,0:2:0:0:
377,340,252705,2,0,P|444:345|509:362,1,135.000005149842,2|2,1:2|2:0,0:0:0:0:
508,73,253068,6,0,B|388:86|435:122|293:135,1,202.500007724762,2|0,1:3|0:0,0:0:0:0:
256,83,253432,2,0,P|256:46|271:7,1,67.5000025749208,2|0,0:2|0:0,0:0:0:0:
87,44,253614,6,0,P|169:60|226:184,1,202.500007724762,8|0,1:2|0:0,0:0:0:0:
184,224,253977,1,2,0:2:0:0:
100,167,254159,6,0,P|100:202|101:285,1,67.5000025749208,2|0,1:2|0:0,0:0:0:0:
95,373,254341,1,8,0:0:0:0:
316,310,254523,70,0,P|407:302|494:169,1,202.500007724762,2|0,1:1|0:0,0:0:0:0:
490,149,254886,1,2,0:2:0:0:
336,74,255068,2,0,P|340:123|340:170,1,67.5000025749208,8|0,1:2|0:0,0:0:0:0:
377,225,255250,6,0,P|282:219|170:235,1,188.999994232178,8|0,2:3|0:0,0:0:0:0:
0,157,255614,2,0,P|95:163|207:147,1,188.999994232178,2|0,1:2|0:0,0:0:0:0:
204,315,255977,6,0,P|111:327|113:236,1,202.500007724762,8|0,1:1|0:0,0:0:0:0:
187,151,256341,2,0,P|185:184|188:218,1,67.5000025749208,2|0,0:2|0:0,0:0:0:0:
287,312,256523,6,0,P|310:265|363:375,1,242.999992584229,8|0,1:2|0:0,0:0:0:0:
320,384,256886,1,2,0:2:0:0:
512,203,257068,70,0,P|454:205|402:213,1,67.5000025749208,2|0,1:2|0:0,0:0:0:0:
458,129,257250,1,2,2:0:0:0:
253,62,257432,6,0,P|355:62|460:45,1,202.500007724762,4|0,1:2|0:0,0:0:0:0:
512,0,257795,1,2,3:2:0:0:
366,140,257977,6,0,B|359:261|381:222|374:353,1,188.999994232178,8|0,1:2|0:0,0:0:0:0:
309,381,258341,2,0,P|271:370|249:333,1,58.4999973220826,2|0,0:2|0:0,0:0:0:0:
119,324,258523,2,0,P|94:240|177:145,1,175.499991966248,2|0,1:2|0:0,0:0:0:0:
256,144,258886,5,2,0:3:0:0:
256,192,258977,12,4,261795,0:3:0:0:
256,192,261886,12,8,264705,0:3:0:0:
493,229,265068,6,0,P|494:179|490:134,2,80.9999975280763,2|8|0,0:0|0:0|0:0,0:0:0:0:
492,307,265977,1,2,0:0:0:0:
424,273,266159,2,0,P|376:276|328:276,1,80.9999975280763,2|0,0:0|0:0,0:0:0:0:
286,222,266705,2,0,P|284:194|286:171,1,40.4999987640381,8|0,0:0|0:0,0:0:0:0:
359,201,267068,1,2,0:0:0:0:
272,296,267250,2,0,P|225:296|196:297,1,60.7499981460572,2|0,0:0|0:0,0:0:0:0:
141,324,267614,6,0,B|70:328|84:313|1:324,2,121.499996292114,4|2|0,0:0|0:0|0:0,0:0:0:0:
265,372,268886,1,2,0:0:0:0:
275,372,268977,1,0,0:0:0:0:
284,373,269068,2,0,P|326:368|451:369,1,148.50000453186,2|0,0:0|0:0,0:0:0:0:
511,285,269795,2,0,P|449:290|432:291,1,74.2500022659302,2|0,0:0|0:0,0:0:0:0:
427,294,270159,2,0,L|423:228,1,49.5000015106202,2|0,0:0|0:0,0:0:0:0:
482,124,270523,102,0,B|381:128|415:75|298:81,1,175.499991966248,8|2,0:3|0:0,0:0:0:0:
306,74,271159,1,0,0:0:0:0:
300,69,271250,2,0,P|252:73|211:66,1,87.749995983124,8|0,0:0|0:0,0:0:0:0:
154,14,271614,2,0,P|136:26|148:8,1,58.4999973220826,2|0,0:0|0:0,0:0:0:0:
15,79,271977,2,0,P|-1:116|51:241,2,175.499991966248,2|8|0,0:0|0:0|0:0,0:0:0:0:
84,108,273250,1,2,0:0:0:0:
175,182,273432,6,0,B|246:175|218:209|316:197,1,116.999994644165,2|0,0:0|0:0,0:0:0:0:
355,246,273977,2,0,P|361:308|330:361,1,116.999994644165,8|0,0:0|0:0,0:0:0:0:
265,380,274523,1,2,0:0:0:0:
141,305,274886,2,0,P|77:307|40:335,1,87.749995983124,4|0,0:2|0:0,0:0:0:0:
51,324,275250,2,0,L|35:401,1,58.4999973220826,2|0,0:0|0:0,0:0:0:0:
20,246,275614,2,0,L|0:125,1,116.999994644165,8|2,0:0|0:0,0:0:0:0:
0,130,276341,6,0,B|51:82|131:91|149:152|110:193|75:164,1,202.500007724762,8|2,0:3|0:0,0:0:0:0:
168,219,277068,86,0,P|222:231|258:221,1,67.5000025749208,8|0,0:0|0:0,0:0:0:0:
297,195,277432,1,2,0:0:0:0:
357,368,277795,38,0,B|309:316|318:236|379:218|420:257|391:292,1,202.500007724762,4|2,0:3|0:0,0:0:0:0:
469,156,278523,70,0,P|474:196|455:251,1,67.5000025749208,8|0,0:0|0:0,0:0:0:0:
396,284,278886,1,2,0:0:0:0:
309,102,279250,22,0,B|435:123|386:2|527:29,2,229.500004377365,2|8|2,0:0|0:0|0:0,0:0:0:0:
254,47,280523,1,0,0:0:0:0:
170,143,280705,86,0,P|93:170|9:104,1,175.499991966248,2|0,3:3|0:0,0:0:0:0:
72,19,281432,5,0,3:0:0:0:
172,55,281795,101,0,3:0:0:0:
331,174,281977,1,0,3:0:0:0:
512,383,282159,54,0,P|480:264|469:160,1,202.500007724762,4|0,1:0|0:0,0:0:0:0:
393,77,282523,2,0,P|423:49|470:23,1,67.5000025749208,2|0,0:2|0:0,0:0:0:0:
123,31,282705,6,0,B|231:9|222:67|340:42,1,202.500007724762,8|0,1:2|0:0,0:0:0:0:
401,157,283068,2,0,P|381:210|376:278,1,67.5000025749208,2|0,0:2|0:0,0:0:0:0:
400,381,283250,5,2,1:2:0:0:
273,204,283432,2,0,P|308:244|320:299,1,67.5000025749208,8|0,0:0|0:0,0:0:0:0:
81,342,283614,6,0,P|213:356|314:412,1,202.500007724762,2|0,1:1|0:0,0:0:0:0:
336,331,283977,1,2,0:2:0:0:
190,146,284159,70,0,P|169:72|206:0,1,135.000005149842,8|4,1:2|2:0,0:0:0:0:
283,0,284432,1,2,2:0:0:0:
283,0,284523,1,2,0:2:0:0:
255,226,284705,6,0,P|221:227|188:234,1,67.5000025749208,2|0,1:2|0:0,0:0:0:0:
118,189,284886,1,8,2:0:0:0:
391,188,285068,6,0,P|371:264|404:409,1,202.500007724762,8|0,1:3|0:0,0:0:0:0:
459,289,285432,2,0,P|459:255|463:222,1,67.5000025749208,2|0,0:2|0:0,0:0:0:0:
280,97,285614,6,0,B|289:169|243:146|254:224,1,135.000005149842,8|0,1:2|2:0,0:0:0:0:
293,292,285886,1,2,0:0:0:0:
293,292,285977,1,2,0:2:0:0:
77,384,286159,70,0,P|60:322|70:283,1,67.5000025749208,2|0,1:2|0:0,0:0:0:0:
0,225,286341,2,0,P|31:169|66:148,1,67.5000025749208,2|0,0:0|0:0,0:0:0:0:
123,86,286523,6,0,P|43:140|55:44,1,242.999992584229,4|0,1:3|0:0,0:0:0:0:
128,8,286886,1,2,0:2:0:0:
82,231,287068,6,0,B|205:202|172:282|350:241,1,216,8|0,1:2|0:0,0:0:0:0:
430,233,287432,2,0,P|394:229|360:219,1,72,2|0,0:2|0:0,0:0:0:0:
339,366,287614,5,2,1:2:0:0:
405,334,287705,1,2,0:0:0:0:
475,314,287796,1,2,2:0:0:0:
302,108,287977,70,0,P|391:146|549:159,1,216,2|0,1:3|0:0,0:0:0:0:
455,41,288341,2,0,P|410:53|357:59,1,72,2|0,0:2|0:0,0:0:0:0:
232,0,288523,6,0,B|248:117|193:91|212:226,1,216,8|0,1:2|0:0,0:0:0:0:
263,269,288886,2,0,P|227:287|158:275,1,72,2|0,0:2|0:0,0:0:0:0:
10,127,289068,5,2,1:2:0:0:
113,384,289250,2,0,L|122:312,1,72,8|0,0:0|0:0,0:0:0:0:
0,254,289432,6,0,P|118:228|208:150,1,216,2|0,1:1|0:0,0:0:0:0:
323,319,289795,2,0,P|358:321|390:338,1,72,2|0,0:2|0:0,0:0:0:0:
234,97,289977,70,0,P|320:160|409:176,1,144,8|0,1:2|2:0,0:0:0:0:
432,178,290250,1,2,2:0:0:0:
432,178,290341,1,2,0:2:0:0:
511,280,290523,2,0,P|489:346|403:386,1,144,2|8,1:2|2:0,0:0:0:0:
512,0,290886,6,0,P|429:93|438:191,1,216,8|0,1:3|0:0,0:0:0:0:
340,100,291250,2,0,P|352:166|378:215,1,72,2|0,0:2|0:0,0:0:0:0:
190,281,291432,6,0,P|49:255|-22:169,1,216,8|2,1:2|0:0,0:0:0:0:
127,198,291795,1,2,0:2:0:0:
86,0,291977,2,0,P|93:66|101:92,1,72,2|0,1:2|0:0,0:0:0:0:
248,228,292159,1,2,0:0:0:0:
394,98,292341,6,0,B|260:92|329:166|148:155,1,216,8|0,1:1|0:0,0:0:0:0:
331,196,292705,2,0,P|368:205|451:246,1,72,2|0,0:2|0:0,0:0:0:0:
470,358,292886,70,0,B|336:364|405:290|224:301,1,216,8|0,1:2|0:0,0:0:0:0:
199,323,293250,1,2,0:2:0:0:
109,143,293432,6,0,P|123:186|117:259,1,72,2|0,1:2|0:0,0:0:0:0:
26,372,293614,2,0,P|84:344|100:327,1,72,2|0,2:0|0:0,0:0:0:0:
0,71,293795,6,0,P|116:55|202:158,1,216,4|0,1:0|0:0,0:0:0:0:
256,148,294159,2,0,P|305:145|345:117,1,72,2|0,0:2|0:0,0:0:0:0:
476,89,294341,6,0,P|378:112|372:253,1,216,8|0,1:2|0:0,0:0:0:0:
431,222,294705,2,0,P|451:270|501:299,1,72,2|0,0:2|0:0,0:0:0:0:
242,360,294886,2,0,B|218:235|284:266|249:112,1,216,2|0,1:2|0:0,0:0:0:0:
85,270,295250,70,0,B|244:235|205:321|386:283,1,288,2|2,1:2|0:2,0:0:0:0:
438,366,295705,1,2,0:0:0:0:
506,345,295795,1,8,1:2:0:0:
386,156,295977,6,0,B|421:225|497:202|497:202|531:152|491:94,1,216,4|0,2:0|0:0,0:0:0:0:
428,20,296341,2,0,P|376:79|285:93,1,144,2|8,1:2|2:0,0:0:0:0:
41,119,296705,6,0,P|159:130|308:160,1,216,8|0,1:3|0:0,0:0:0:0:
164,208,297068,2,0,P|175:255|183:324,1,72,2|0,0:2|0:0,0:0:0:0:
389,278,297250,6,0,P|283:296|223:326,1,144,8|0,1:2|2:0,0:0:0:0:
313,369,297523,1,2,0:0:0:0:
313,369,297614,1,2,0:2:0:0:
512,238,297795,69,2,1:2:0:0:
314,94,297977,2,0,P|250:157|270:243,1,144,2|4,0:0|1:3,0:0:0:0:
314,260,298250,1,2,0:0:0:0:
314,260,298341,5,2,0:0:0:0:
443,84,298523,1,2,0:2:0:0:
223,43,298705,2,0,B|261:-17|324:1|324:1|290:49|320:108,1,216,8|0,1:2|0:0,0:0:0:0:
380,126,299068,1,2,0:2:0:0:
137,174,299250,6,0,P|139:231|121:296,1,72,2|0,1:2|0:0,0:0:0:0:
142,384,299432,2,0,P|186:336|199:304,1,72,2|0,2:0|0:0,0:0:0:0:
240,217,299614,6,0,P|138:267|-15:271,1,216,2|0,1:3|0:0,0:0:0:0:
61,199,299977,2,0,P|56:156|26:111,1,72,2|0,0:2|0:0,0:0:0:0:
272,104,300159,70,0,P|374:154|527:158,1,216,8|0,1:2|0:0,0:0:0:0:
412,79,300523,1,2,0:2:0:0:
395,307,300705,6,0,P|386:247|393:201,1,72,2|0,1:2|0:0,0:0:0:0:
470,28,300886,1,8,0:0:0:0:
203,49,301068,6,0,P|162:125|23:114,1,216,2|0,1:1|0:0,0:0:0:0:
0,64,301432,2,0,P|-4:43|9:-7,1,72,2|0,0:2|0:0,0:0:0:0:
95,220,301614,2,0,P|90:273|67:316,1,72,8|0,1:2|0:0,0:0:0:0:
16,358,301795,6,0,P|143:301|231:333,1,216,8|0,2:3|0:0,0:0:0:0:
262,379,302159,2,0,P|331:360|350:258,1,144,2|8,1:2|2:0,0:0:0:0:
191,61,302523,70,0,P|159:158|244:239,1,216,8|0,1:1|0:0,0:0:0:0:
304,235,302886,2,0,P|347:221|408:221,1,72,2|0,0:2|0:0,0:0:0:0:
512,209,303068,6,0,P|442:140|250:187,1,288,8|2,1:2|0:2,0:0:0:0:
143,366,303523,1,2,0:0:0:0:
143,366,303614,2,0,P|29:360|-4:250,1,216,2|0,1:2|0:0,0:0:0:0:
40,215,303977,6,0,P|41:170|33:-3,1,216,4|0,1:3|0:0,0:0:0:0:
28,0,304341,2,0,P|21:62|21:95,1,72,2|0,3:2|0:0,0:0:0:0:
40,215,304523,6,0,B|122:193|101:232|184:210,1,144,8|0,1:2|0:0,0:0:0:0:
320,185,304886,1,2,0:2:0:0:
293,332,305068,2,0,P|417:367|482:199,1,323.999990112305,2|4,1:2|0:1,0:0:0:0:
256,192,305523,12,2,306886,0:3:0:0:
235,67,307614,22,0,P|255:120|259:180,1,94.499997116089
274,167,307977,2,0,P|264:222|265:248,1,62.9999980773926
317,309,308341,102,0,B|352:398|486:413|562:366|516:207|389:271,1,377.999988464356,2|0,2:1|0:0,0:0:0:0:
332,227,309614,1,0,0:0:0:0:
74,271,310523,2,0,P|80:321|75:392,1,108,2|0,0:0|0:0,0:0:0:0:
2,325,311250,6,0,P|130:325|485:376,1,484.649978849809,4|0,0:0|0:0,0:0:0:0:
512,308,314221,5,4,0:3:0:0:
256,192,314311,12,8,318429,0:3:0:0:
