osu file format v14

[General]
AudioFilename: audio.mp3
AudioLeadIn: 0
PreviewTime: 168303
Countdown: 0
SampleSet: Soft
StackLeniency: 0.4
Mode: 0
LetterboxInBreaks: 0
WidescreenStoryboard: 0

[Editor]
Bookmarks: 36594,76968,108968,144968,168968,200968,232968,264926
DistanceSpacing: 0.5
BeatDivisor: 4
GridSize: 8
TimelineZoom: 2.1

[Metadata]
Title:METHOD_METAFALICA/.
TitleUnicode:METHOD_METAFALICA/.
Artist:Shikata Akiko
ArtistUnicode:志方あきこ
Creator:Shurelia
Version:Divine Maiden
Source:アルトネリコ2 ~世界に響く少女たちの創造詩~
Tags:ar tonelico ii sekai ni hibiku shoujo-tachi no metafalica melody of cloche leythal pastalia hymn visual novel video game japanese folk gust yooh reywateil
BeatmapID:3968180
BeatmapSetID:1922350

[Difficulty]
HPDrainRate:6
CircleSize:4.3
OverallDifficulty:8
ApproachRate:8.8
SliderMultiplier:2
SliderTickRate:1

[Events]
//Background and Video events
0,0,"clochebgbg.jpg",0,0
//Break Periods
//Storyboard Layer 0 (Background)
//Storyboard Layer 1 (Fail)
//Storyboard Layer 2 (Pass)
//Storyboard Layer 3 (Foreground)
//Storyboard Layer 4 (Overlay)
//Storyboard Sound Samples

[TimingPoints]
667,560.747663551402,4,2,1,45,1,0
667,-166.666666666667,4,2,1,45,0,0
18610,-125,4,2,1,50,0,0
36554,-100,4,2,1,40,0,0
37535,-100,4,2,1,5,0,0
37676,-100,4,2,1,40,0,0
38096,-100,4,2,1,5,0,0
38237,-100,4,2,1,40,0,0
41040,-83.3333333333333,4,2,1,40,0,0
41460,-83.3333333333333,4,2,1,5,0,0
41601,-83.3333333333333,4,2,1,40,0,0
43283,-100,4,2,1,40,0,0
45526,-83.3333333333333,4,2,1,40,0,0
46648,-83.3333333333333,4,2,1,40,0,0
50012,-71.4285714285714,4,2,1,40,0,0
51134,-71.4285714285714,4,2,1,40,0,0
53938,-66.6666666666667,4,2,1,40,0,0
54498,-71.4285714285714,4,2,1,40,0,0
58424,-125,4,2,1,40,0,0
58984,-66.6666666666667,4,2,1,45,0,0
59685,-66.6666666666667,4,2,1,5,0,0
59825,-66.6666666666667,4,2,1,45,0,0
59966,-66.6666666666667,4,2,1,5,0,0
60106,-66.6666666666667,4,2,1,45,0,0
60806,-66.6666666666667,4,2,1,5,0,0
60946,-66.6666666666667,4,2,1,45,0,0
61087,-66.6666666666667,4,2,1,5,0,0
61227,-66.6666666666667,4,2,1,45,0,0
61648,-66.6666666666667,4,2,1,5,0,0
61788,-66.6666666666667,4,2,1,45,0,0
63050,-66.6666666666667,4,2,1,5,0,0
63190,-66.6666666666667,4,2,1,45,0,0
63330,-66.6666666666667,4,2,1,5,0,0
63470,-66.6666666666667,4,2,1,45,0,0
64171,-66.6666666666667,4,2,1,5,0,0
64311,-66.6666666666667,4,2,1,45,0,0
64452,-66.6666666666667,4,2,1,5,0,0
64592,-66.6666666666667,4,2,1,45,0,0
67536,-66.6666666666667,4,2,1,5,0,0
67676,-62.5,4,2,1,45,0,0
67816,-62.5,4,2,1,5,0,0
67956,-62.5,4,2,1,45,0,0
68096,-62.5,4,2,1,5,0,0
68237,-62.5,4,2,1,45,0,0
69078,-58.8235294117647,4,2,1,45,0,0
71040,-62.5,4,2,1,45,0,0
72442,-66.6666666666667,4,2,1,45,0,0
75246,-58.8235294117647,4,2,1,45,0,0
76928,500,4,2,1,60,1,0
76928,-66.6666666666667,4,2,1,60,0,0
90928,-58.8235294117647,4,2,1,60,0,0
93428,-500,4,2,1,60,0,0
93803,-500,4,2,1,5,0,0
93928,-66.6666666666667,4,2,1,60,0,0
95428,-500,4,2,1,60,0,0
95803,-500,4,2,1,5,0,0
95928,-66.6666666666667,4,2,1,60,0,0
97428,-500,4,2,1,60,0,0
97803,-500,4,2,1,5,0,0
97928,-66.6666666666667,4,2,1,60,0,0
99428,-500,4,2,1,60,0,0
99803,-500,4,2,1,5,0,0
99928,-66.6666666666667,4,2,1,60,0,0
101428,-500,4,2,1,60,0,0
101803,-500,4,2,1,5,0,0
101928,-66.6666666666667,4,2,1,60,0,0
103428,-500,4,2,1,60,0,0
103803,-500,4,2,1,5,0,0
103928,-66.6666666666667,4,2,1,60,0,0
108928,-142.857142857143,4,2,1,40,0,0
109803,-142.857142857143,4,2,2,5,0,0
109928,-142.857142857143,4,2,1,40,0,0
110553,-142.857142857143,4,2,1,5,0,0
110678,-142.857142857143,4,2,1,40,0,0
113803,-142.857142857143,4,2,1,5,0,0
113928,-142.857142857143,4,2,1,40,0,0
114553,-142.857142857143,4,2,1,5,0,0
114678,-142.857142857143,4,2,1,40,0,0
118428,-250.000000000001,4,2,1,40,0,0
118928,-142.857142857143,4,2,1,40,0,0
119555,-250,4,2,2,5,0,0
119678,-250,4,2,1,40,0,0
119928,-142.857142857143,4,2,1,40,0,0
121803,-142.857142857143,4,2,1,5,0,0
121928,-142.857142857143,4,2,1,40,0,0
123928,-90.9090909090909,4,2,1,60,0,0
124305,-111.111111111111,4,2,2,5,0,0
124428,-80,4,2,1,60,0,0
124928,-66.6666666666667,4,2,1,60,0,0
133178,-60.6060606060606,4,2,1,60,0,0
133803,-60.6060606060606,4,2,2,5,0,0
133928,-60.6060606060606,4,2,1,60,0,0
134303,-60.6060606060606,4,2,2,5,0,0
134428,-60.6060606060606,4,2,1,60,0,0
137428,-71.4285714285714,4,2,1,60,0,0
140928,-90.9090909090909,4,2,1,60,0,0
144428,-166.666666666667,4,2,1,60,0,0
144803,-166.666666666667,4,2,2,5,0,0
144928,-250,4,2,1,35,0,0
152928,-100,4,2,1,45,0,0
164928,-80,4,2,1,45,0,0
168928,-60.6060606060606,4,2,1,70,0,1
175803,-60.6060606060606,4,2,2,5,0,1
175928,-57.1428571428571,4,2,1,70,0,1
176928,-52.6315789473684,4,2,1,70,0,1
180928,-58.8235294117647,4,2,1,70,0,1
182803,-58.8235294117647,4,2,2,5,0,1
182928,-58.8235294117647,4,2,1,70,0,1
183928,-55.5555555555556,4,2,1,70,0,1
184928,-52.6315789473684,4,2,1,70,0,1
190303,-52.6315789473684,4,2,2,5,0,1
190428,-52.6315789473684,4,2,1,70,0,1
192803,-52.6315789473684,4,2,1,70,0,0
192928,-58.8235294117647,4,2,1,70,0,1
194928,-66.6666666666667,4,2,1,70,0,1
196928,-76.9230769230769,4,2,1,70,0,1
198803,-76.9230769230769,4,2,2,5,0,1
198928,-76.9230769230769,4,2,1,70,0,1
200928,-66.6666666666667,4,2,1,60,0,0
216928,-100,4,2,1,35,0,0
232928,-76.9230769230769,4,2,1,75,0,1
240928,-66.6666666666667,4,2,1,75,0,1
244928,-76.9230769230769,4,2,1,75,0,1
246928,-66.6666666666667,4,2,1,75,0,1
248303,-66.6666666666667,4,2,2,5,0,1
248428,-66.6666666666667,4,2,1,75,0,0
248928,-62.5,4,2,1,70,0,1
252803,-62.5,4,2,1,70,0,0
252928,-62.5,4,2,1,70,0,1
256178,-100,4,2,1,70,0,1
256428,-83.3333333333333,4,2,1,70,0,1
256678,-71.4285714285714,4,2,1,70,0,1
256803,-71.4285714285714,4,2,1,70,0,0
256928,-62.5,4,2,1,70,0,1
260803,-62.5,4,2,2,5,0,0
260928,-62.5,4,2,1,70,0,1
264928,-100,4,2,1,60,0,0
265803,-100,4,2,2,5,0,0
265928,-166.666666666667,4,2,1,60,0,0
266053,-166.666666666667,4,2,1,58,0,0
266178,-166.666666666667,4,2,1,56,0,0
266303,-166.666666666667,4,2,1,54,0,0
266428,-166.666666666667,4,2,1,52,0,0
266553,-166.666666666667,4,2,1,50,0,0
266678,-166.666666666667,4,2,1,48,0,0
266803,-166.666666666667,4,2,1,44,0,0
266928,-166.666666666667,4,2,1,42,0,0
267053,-166.666666666667,4,2,1,40,0,0
267178,-166.666666666667,4,2,1,38,0,0
267303,-166.666666666667,4,2,1,36,0,0
267428,-166.666666666667,4,2,1,34,0,0
267553,-166.666666666667,4,2,1,32,0,0
267678,-166.666666666667,4,2,1,30,0,0
267803,-166.666666666667,4,2,1,28,0,0
267928,-166.666666666667,4,2,1,26,0,0
268053,-166.666666666667,4,2,1,24,0,0
268178,-166.666666666667,4,2,1,20,0,0
268303,-166.666666666667,4,2,1,18,0,0
268428,-166.666666666667,4,2,1,16,0,0
268553,-166.666666666667,4,2,1,14,0,0
268678,-166.666666666667,4,2,1,12,0,0
268803,-166.666666666667,4,2,1,10,0,0
268928,-166.666666666667,4,2,1,5,0,0

[Colours]
Combo1 : 250,180,240
Combo2 : 120,200,230
Combo3 : 255,230,130
Combo4 : 160,230,150

[HitObjects]
204,345,667,6,0,P|291:326|381:328,1,180,2|0,0:0|0:0,0:0:0:0:
501,340,1788,2,0,P|513:268|448:301,1,180,2|2,0:0|0:0,0:0:0:0:
308,371,2909,2,0,P|314:281|326:192,1,180,2|0,0:0|0:0,0:0:0:0:
277,0,4031,2,0,P|320:41|360:86,1,120,2|0,0:0|0:0,0:0:0:0:
415,159,4872,1,0,0:0:0:0:
271,119,5152,6,0,B|226:96|162:135|93:105,1,180,2|0,0:0|0:0,0:0:0:0:
1,174,6274,2,0,P|73:194|23:250,1,180,2|2,0:0|0:0,0:0:0:0:
160,195,7395,2,0,P|175:280|121:349,1,180,2|0,0:0|0:0,0:0:0:0:
256,202,8517,2,0,P|312:222|369:238,1,120,2|0,0:0|0:0,0:0:0:0:
470,243,9358,1,0,0:0:0:0:
323,358,9638,5,2,0:0:0:0:
228,350,9919,1,0,0:0:0:0:
136,340,10199,2,0,B|63:325|3:353|3:353|9:309,1,180,2|0,0:0|0:0,0:0:0:0:
55,221,11321,1,2,0:0:0:0:
20,15,11881,2,0,B|59:42|78:26|136:28,1,120,2|0,0:0|0:0,0:0:0:0:
247,16,12723,1,0,0:0:0:0:
268,37,12863,1,0,0:0:0:0:
260,65,13003,1,2,0:0:0:0:
260,65,13564,1,2,0:0:0:0:
391,27,13844,1,0,0:0:0:0:
498,43,14124,6,0,B|466:137|445:284|445:284|400:288|343:278|343:278|351:227|360:184|360:184|293:188|204:173|204:173|206:288|192:331|192:331|116:317|52:322,1,899.999999999998,2|0,0:0|0:0,0:0:0:0:
113,229,18610,6,0,P|117:150|129:71,1,160,6|0,0:0|0:0,0:0:0:0:
241,11,19452,1,0,0:0:0:0:
241,11,19732,2,0,P|319:24|399:25,1,160,2|0,0:0|0:0,0:0:0:0:
400,145,20573,1,0,0:0:0:0:
400,145,20853,2,0,P|321:146|245:169,1,160,2|0,0:0|0:0,0:0:0:0:
506,377,21975,6,0,P|426:365|351:338,1,160,2|2,0:0|0:0,0:0:0:0:
289,275,22816,1,0,0:0:0:0:
201,245,23096,2,0,P|122:260|43:269,1,160,2|0,0:0|0:0,0:0:0:0:
26,85,23938,1,0,0:0:0:0:
26,84,24218,2,0,P|97:111|113:186,1,160,2|0,0:0|0:0,0:0:0:0:
15,365,25059,1,0,0:0:0:0:
15,365,25339,6,0,P|93:349|172:339,1,160,2|0,0:0|0:0,0:0:0:0:
379,122,26461,2,0,P|455:127|498:63,1,160,2|2,0:0|0:0,0:0:0:0:
432,0,27302,1,0,0:0:0:0:
298,153,27582,5,2,0:0:0:0:
235,93,27863,1,0,0:0:0:0:
167,35,28143,2,0,P|87:33|3:24,1,160,2|0,0:0|0:0,0:0:0:0:
340,240,29265,2,0,P|280:239|225:215,1,120,2|0,0:0|0:0,0:0:0:0:
170,263,29825,6,0,P|119:202|44:176,1,160,2|0,0:0|0:0,0:0:0:0:
44,335,30667,1,0,0:0:0:0:
79,352,30807,1,0,0:0:0:0:
109,326,30947,1,2,0:0:0:0:
109,326,31508,2,0,P|146:339|186:345,1,80,2|0,0:0|0:0,0:0:0:0:
420,338,32068,5,2,0:0:0:0:
296,298,32349,1,0,0:0:0:0:
388,253,32629,2,0,P|396:214|402:175,1,80
218,257,33190,1,2,0:0:0:0:
96,197,34311,5,2,0:0:0:0:
46,27,35152,1,0,0:0:0:0:
46,27,35433,1,2,0:0:0:0:
224,13,35853,1,0,0:0:0:0:
224,13,35994,2,0,P|283:22|343:26,1,120
439,46,36554,6,0,B|362:12|299:81|327:152|327:152|362:100|397:106|393:113|437:98|445:62,1,350,6|0,0:0|0:0,0:0:0:0:
402,184,37676,2,0,P|322:132|259:112,1,150,2|0,0:0|0:0,0:0:0:0:
220,52,38237,2,0,P|157:84|159:133,1,100
119,236,38797,2,0,P|186:200|250:201,2,100,2|0|0,0:0|0:0|0:0,0:0:0:0:
0,297,39638,1,0,0:0:0:0:
19,302,39779,1,0,0:0:0:0:
41,313,39919,2,0,B|101:295|141:336|134:335|142:387|239:370,1,200,2|0,0:0|0:0,0:0:0:0:
220,372,40760,5,2,0:0:0:0:
390,384,41040,2,0,P|425:262|464:180,1,180,2|0,0:0|0:0,0:0:0:0:
390,247,41601,2,0,P|433:315|440:366,1,120
507,281,42162,1,2,0:0:0:0:
378,166,42442,1,0,0:0:0:0:
344,180,42582,1,0,0:0:0:0:
308,186,42723,2,0,P|289:105|262:42,1,120
423,7,43283,6,0,P|391:58|327:35,1,100,2|0,0:0|0:0,0:0:0:0:
166,55,43844,2,0,P|198:4|262:27,1,100,2|0,0:0|0:0,0:0:0:0:
242,104,44265,1,0,0:0:0:0:
222,120,44405,2,0,P|121:69|3:32,1,200,2|0,0:0|0:0,0:0:0:0:
38,40,45246,5,0,0:0:0:0:
147,225,45526,2,0,P|235:199|359:184,1,180,2|0,0:0|0:0,0:0:0:0:
391,144,46087,2,0,P|357:230|348:277,1,120
400,62,46648,2,0,B|383:123|436:153|439:146|472:164|470:253,1,180,2|0,0:0|0:0,0:0:0:0:
512,294,47209,2,0,P|454:303|427:356,1,120
279,383,47769,2,0,B|279:342|299:324|302:332|321:309|316:269,1,120,2|0,0:0|0:0,0:0:0:0:
427,353,48330,1,2,0:0:0:0:
293,189,48610,1,0,0:0:0:0:
259,202,48751,1,0,0:0:0:0:
223,207,48891,2,0,P|177:95|62:109,1,240,2|0,0:0|0:0,0:0:0:0:
73,101,49732,5,0,0:0:0:0:
0,292,50012,2,0,B|16:300|26:321|26:321|91:289|203:285,1,210,2|0,0:0|0:0,0:0:0:0:
114,253,50573,2,0,P|124:309|212:312,1,140
86,384,51134,1,2,0:0:0:0:
277,304,51414,1,0,0:0:0:0:
296,266,51554,1,0,0:0:0:0:
305,224,51695,2,0,P|369:258|442:276,1,140,2|0,0:0|0:0,0:0:0:0:
235,180,52255,2,0,P|202:108|131:101,1,140,2|0,0:0|0:0,0:0:0:0:
252,21,52676,1,0,0:0:0:0:
262,35,52816,2,0,B|282:63|309:108|260:170|221:185|188:187|143:144|159:70|239:80,1,280,2|2,0:0|0:0,0:0:0:0:
375,12,53938,6,0,B|363:62|396:89|438:98|453:42|408:33,1,150.000005722046,2|2,0:0|0:0,0:0:0:0:
509,283,54498,2,0,B|439:135|242:88|124:108|124:108|257:126|259:217|242:211|334:321|447:233,1,839.999974365235,2|0,0:0|0:0,0:0:0:0:
446,233,56461,1,0,0:0:0:0:
399,10,56741,2,0,B|381:24|364:30|364:30|361:268|188:388|188:388|238:347|268:243,1,560,2|2,0:0|0:0,0:0:0:0:
410,340,58424,6,0,P|464:359|472:396,1,80,2|0,0:0|0:0,0:0:0:0:
512,213,58984,6,0,P|348:267|126:297,1,375,6|0,0:0|0:0,0:0:0:0:
55,297,59825,2,0,P|76:327|92:361,1,75
223,370,60106,2,0,B|208:274|336:201|378:324|284:338,1,225,2|0,0:0|0:0,0:0:0:0:
250,255,60667,2,0,P|228:222|174:220,1,75
147,273,60947,2,0,P|169:306|223:308,1,75
359,302,61227,2,0,P|401:183|458:78,1,225,2|0,0:0|0:0,0:0:0:0:
458,18,61788,1,0,0:0:0:0:
413,21,61928,1,0,0:0:0:0:
382,54,62068,1,2,0:0:0:0:
221,61,62349,2,0,P|299:68|312:165,1,150,2|0,0:0|0:0,0:0:0:0:
489,159,62909,6,0,P|449:164|434:226,1,75,2|0,0:0|0:0,0:0:0:0:
395,263,63190,2,0,P|372:291|335:294,1,75,2|0,0:0|0:0,0:0:0:0:
260,267,63470,1,2,0:0:0:0:
260,267,64031,6,0,P|223:269|200:298,1,75
395,263,64311,2,0,P|372:291|335:294,1,75,2|0,0:0|0:0,0:0:0:0:
174,374,64592,2,0,P|134:264|32:263,1,225,2|0,0:0|0:0,0:0:0:0:
0,342,65152,2,0,P|105:329|134:226,1,225,2|0,0:0|0:0,0:0:0:0:
204,173,65713,2,0,P|147:150|70:92,1,150,2|0,0:0|0:0,0:0:0:0:
232,257,66274,2,0,P|363:183|517:138,1,300,2|2,0:0|0:0,0:0:0:0:
505,140,67395,6,0,P|466:115|470:52,1,75,2|0,0:0|0:0,0:0:0:0:
336,165,67676,2,0,P|338:118|394:90,1,80,2|0,0:0|0:0,0:0:0:0:
229,31,67956,2,0,P|270:9|322:44,1,80,6|0,0:0|0:0,0:0:0:0:
407,151,68237,1,0,0:0:0:0:
397,161,68377,1,0,0:0:0:0:
364,148,68517,1,0,0:0:0:0:
332,136,68657,1,0,0:0:0:0:
298,130,68797,1,0,0:0:0:0:
122,9,69078,6,0,B|141:22|141:22|143:52|158:87,1,85,2|0,0:0|0:0,0:0:0:0:
190,195,69358,1,0,0:0:0:0:
180,185,69498,1,0,0:0:0:0:
147,198,69638,1,0,0:0:0:0:
115,210,69779,1,0,0:0:0:0:
81,216,69919,1,0,0:0:0:0:
0,144,70199,6,0,P|162:192|315:266,1,340.000006484985,2|2,0:0|0:0,0:0:0:0:
315,266,70900,1,0,0:0:0:0:
355,338,71040,2,0,P|391:350|427:333,1,80,2|0,0:0|0:0,0:0:0:0:
472,149,71321,1,2,0:0:0:0:
472,149,71881,6,0,P|499:264|513:293,1,160,2|2,0:0|0:0,0:0:0:0:
279,384,72442,2,0,B|270:285|339:255|342:270|413:207|375:99,1,300,6|0,0:0|0:0,0:0:0:0:
487,21,73283,2,0,P|481:58|418:52,1,75
307,82,73564,1,2,0:0:0:0:
205,60,73844,1,0,0:0:0:0:
113,240,74124,1,2,0:0:0:0:
398,179,74405,1,0,0:0:0:0:
280,376,74685,6,0,P|271:301|254:228,1,150.000005722046,2|0,0:0|0:0,0:0:0:0:
294,249,75106,1,0,0:0:0:0:
237,306,75246,2,0,P|250:208|280:98,1,170
110,3,75807,2,0,P|147:94|176:204,1,170,2|0,0:0|0:0,0:0:0:0:
390,191,76367,1,2,0:0:0:0:
414,114,76648,2,0,P|474:140|511:149,1,85
496,67,76928,6,0,B|423:128|344:52|282:108,1,225.000008583069,6|0,0:0|0:0,0:0:0:0:
273,128,77428,1,8,0:0:0:0:
156,49,77678,1,0,3:2:0:0:
61,0,77928,2,0,B|34:62|96:135|83:220,1,225,2|0,0:0|0:0,0:0:0:0:
62,239,78428,1,2,0:0:0:0:
247,370,78678,1,0,3:2:0:0:
221,275,78928,6,0,B|248:272|246:227|214:191|156:212|130:251|121:298|145:331,1,225,2|0,0:0|0:0,0:0:0:0:
151,349,79428,1,8,0:0:0:0:
435,351,79678,1,0,3:2:0:0:
463,372,79803,1,0,3:2:0:0:
504,368,79928,2,0,P|488:256|480:144,1,225,2|0,0:0|0:0,0:0:0:0:
488,120,80428,1,2,0:0:0:0:
273,42,80678,1,0,3:2:0:0:
307,77,80803,1,0,0:0:0:0:
265,101,80928,6,0,P|156:119|60:65,1,225,2|0,0:0|0:0,0:0:0:0:
53,30,81428,1,8,0:0:0:0:
184,293,81678,1,0,3:2:0:0:
67,258,81928,2,0,B|158:281|186:246|226:204|282:228,1,225,2|0,0:0|0:0,0:0:0:0:
298,246,82428,1,2,0:0:0:0:
349,360,82678,1,0,3:2:0:0:
12,374,82928,6,0,P|23:262|31:149,1,225,2|0,0:0|0:0,0:0:0:0:
26,116,83428,1,8,0:0:0:0:
227,2,83678,1,0,3:2:0:0:
163,140,83928,2,0,B|154:118|154:118|350:165,1,225,2|0,0:0|0:0,0:0:0:0:
369,155,84428,1,2,0:0:0:0:
493,49,84678,1,0,3:2:0:0:
256,115,84928,6,0,B|247:127|247:127|304:329,1,225,6|0,0:0|0:0,0:0:0:0:
335,344,85428,1,8,0:0:0:0:
504,267,85678,1,0,3:2:0:0:
241,222,85928,2,0,B|220:248|220:248|29:263,1,225,2|0,0:0|0:0,0:0:0:0:
6,240,86428,1,2,0:0:0:0:
145,365,86678,1,0,3:2:0:0:
163,140,86928,6,0,P|192:50|259:116,1,225,2|0,0:0|0:0,0:0:0:0:
256,139,87428,1,8,0:0:0:0:
76,174,87678,1,0,3:2:0:0:
242,363,87928,2,0,B|318:377|389:318|389:318|452:335,1,225,2|0,0:0|0:0,0:0:0:0:
487,340,88428,1,2,0:0:0:0:
367,191,88678,1,0,3:2:0:0:
37,365,88928,6,0,B|31:348|31:348|162:227|162:227|170:254,1,225.000008583069,2|0,0:0|0:0,0:0:0:0:
177,283,89428,1,8,0:0:0:0:
337,262,89678,1,0,3:2:0:0:
502,132,89928,2,0,B|455:75|394:105|409:111|362:136|301:70,1,225,2|0,0:0|0:0,0:0:0:0:
291,36,90428,1,2,0:0:0:0:
191,0,90678,1,0,3:2:0:0:
0,10,90928,6,0,B|20:27|20:27|33:221|33:221|15:250,1,255.000004863739,6|0,0:0|0:0,0:0:0:0:
9,264,91428,1,8,0:0:0:0:
153,376,91678,1,0,3:2:0:0:
55,161,91928,2,0,B|67:125|67:125|283:106,1,255,2|0,0:0|0:0,0:0:0:0:
310,104,92428,1,2,0:0:0:0:
219,203,92678,1,0,3:2:0:0:
438,95,92928,5,6,0:0:0:0:
362,208,93178,1,0,0:0:0:0:
376,242,93303,1,0,3:2:0:0:
394,274,93428,2,0,L|409:301,1,30,8|0,0:0|3:2,0:0:0:0:
466,384,93928,1,2,0:0:0:0:
277,360,94178,1,0,0:0:0:0:
38,380,94428,1,2,0:0:0:0:
158,296,94678,1,0,3:2:0:0:
0,125,94928,5,2,0:0:0:0:
114,11,95178,1,0,0:0:0:0:
122,47,95303,1,0,3:2:0:0:
118,84,95428,2,0,B|106:111,1,30,8|0,0:0|3:2,0:0:0:0:
27,233,95928,1,2,0:0:0:0:
216,134,96178,1,8,0:0:0:0:
271,26,96428,1,2,0:0:0:0:
139,0,96678,1,0,3:2:0:0:
337,214,96928,5,6,0:0:0:0:
482,98,97178,1,0,0:0:0:0:
479,60,97303,1,0,3:2:0:0:
471,22,97428,2,0,P|456:18|441:19,1,30,8|0,0:0|3:2,0:0:0:0:
362,108,97928,1,2,0:0:0:0:
282,27,98178,1,8,0:0:0:0:
474,225,98428,1,2,0:0:0:0:
362,292,98678,1,0,3:2:0:0:
190,157,98928,5,2,0:0:0:0:
99,21,99178,1,0,0:0:0:0:
63,34,99303,1,0,3:2:0:0:
26,40,99428,2,0,P|20:54|18:69,1,30,8|0,0:0|3:2,0:0:0:0:
0,157,99928,1,2,0:0:0:0:
155,91,100178,1,8,0:0:0:0:
148,313,100428,1,2,0:0:0:0:
0,274,100678,1,0,3:2:0:0:
257,227,100928,5,2,0:0:0:0:
339,324,101178,1,0,0:0:0:0:
318,355,101303,1,0,3:2:0:0:
294,384,101428,2,0,L|264:382,1,30,8|0,0:0|3:2,0:0:0:0:
238,302,101928,1,2,0:0:0:0:
73,382,102178,1,8,0:0:0:0:
349,219,102428,1,2,0:0:0:0:
175,200,102678,1,0,3:2:0:0:
501,100,102928,5,2,0:0:0:0:
390,114,103178,1,0,0:0:0:0:
361,90,103303,1,0,3:2:0:0:
334,63,103428,2,0,P|321:55|306:51,1,30,8|0,0:0|3:2,0:0:0:0:
193,10,103928,1,2,0:0:0:0:
292,147,104178,1,8,0:0:0:0:
31,99,104428,1,2,0:0:0:0:
143,98,104678,1,0,3:2:0:0:
10,246,104928,5,2,0:0:0:0:
134,211,105178,1,0,0:0:0:0:
153,243,105303,1,0,3:2:0:0:
160,279,105428,1,8,0:0:0:0:
53,358,105678,1,0,3:2:0:0:
276,308,105928,1,2,0:0:0:0:
184,384,106178,1,8,0:0:0:0:
414,307,106428,1,2,0:0:0:0:
309,384,106678,1,0,3:2:0:0:
450,188,106928,5,2,0:0:0:0:
322,157,107178,1,0,0:0:0:0:
285,166,107303,1,0,3:2:0:0:
249,176,107428,1,8,0:0:0:0:
444,75,107678,1,0,3:2:0:0:
146,4,107928,1,2,0:0:0:0:
16,80,108178,1,8,0:0:0:0:
47,234,108428,1,2,0:0:0:0:
127,282,108678,1,0,3:2:0:0:
209,291,108928,6,0,B|99:321|18:376|18:376|11:359|0:346,1,244.999992523194,6|0,0:0|0:0,0:0:0:0:
15,318,109928,2,0,P|113:351|192:389,1,175,2|0,0:0|0:0,0:0:0:0:
204,370,110678,1,2,0:0:0:0:
289,283,110928,2,0,P|324:301|368:313,1,69.9999999999999,2|0,0:0|0:0,0:0:0:0:
222,216,111428,2,0,P|257:198|301:186,1,69.9999999999999
463,165,111928,6,0,P|513:134|507:85,1,105,2|2,0:0|0:3,0:0:0:0:
485,82,112428,1,2,0:0:0:0:
452,171,112678,2,0,P|435:162|421:137,1,35,2|2,0:3|0:3,0:0:0:0:
375,92,112928,6,0,B|312:101|257:59|278:55|237:10|140:11,1,245,2|0,0:0|0:0,0:0:0:0:
130,30,113928,2,0,B|52:37|47:106|47:106|65:76|94:74,1,175,2|0,0:0|0:0,0:0:0:0:
111,94,114678,1,2,0:0:0:0:
70,190,114928,2,0,P|18:172|-16:168,1,69.9999999999999,2|0,0:0|0:0,0:0:0:0:
59,279,115428,2,0,P|93:271|125:258,1,69.9999999999999
270,203,115928,6,0,P|316:215|349:279,1,105,2|2,0:0|0:3,0:0:0:0:
333,286,116428,1,2,0:0:0:0:
253,357,116678,2,0,P|276:351|306:345,1,35,2|2,0:0|0:3,0:0:0:0:
414,328,116928,2,0,P|440:244|470:185,1,140,2|0,0:0|0:0,0:0:0:0:
462,197,117928,2,0,B|479:240|541:233|502:193|477:203,1,69.9999999999999,2|0,0:0|0:0,0:0:0:0:
469,109,118428,6,0,P|442:121|413:125,1,60,2|0,0:0|0:0,0:0:0:0:
471,94,118928,2,0,P|369:58|289:47,1,175,2|0,0:0|0:0,0:0:0:0:
291,15,119678,1,2,0:0:0:0:
210,147,119928,2,0,P|170:116|123:93,1,69.9999999999999,2|0,0:0|0:0,0:0:0:0:
87,147,120303,1,2,0:3:0:0:
73,146,120428,2,0,P|53:99|24:55,1,69.9999999999999,2|2,0:0|0:3,0:0:0:0:
212,47,120928,2,0,P|170:162|142:283,1,245,2|0,0:0|0:0,0:0:0:0:
142,281,121928,2,0,B|109:279|80:298|96:324|128:291,1,69.9999999999999,2|0,0:0|0:0,0:0:0:0:
188,353,122428,1,2,0:0:0:0:
19,325,122678,1,2,0:3:0:0:
202,357,122928,5,2,0:0:0:0:
283,343,123178,1,2,0:3:0:0:
307,276,123428,5,0,0:0:0:0:
512,310,123678,1,0,0:0:0:0:
252,215,123928,6,0,P|219:139|176:68,1,165,2|0,0:0|0:0,0:0:0:0:
228,101,124428,2,0,P|208:159|153:184,1,125,2|0,0:0|0:0,0:0:0:0:
303,37,124928,6,0,P|389:68|399:144,1,150,6|0,0:0|0:0,0:0:0:0:
476,153,125303,1,0,0:0:0:0:
464,185,125428,1,8,0:0:0:0:
312,161,125678,1,2,0:3:0:0:
512,257,125928,6,0,B|473:254|446:289|451:293|422:319|343:301,1,150,2|2,0:0|0:3,0:0:0:0:
454,328,126303,1,2,0:3:0:0:
448,298,126428,1,8,0:0:0:0:
429,274,126553,1,0,0:0:0:0:
400,263,126678,1,2,0:0:0:0:
229,384,126928,6,0,B|244:377|244:377|259:299|310:206,1,150,2|0,0:0|0:0,0:0:0:0:
223,199,127303,1,0,0:0:0:0:
194,208,127428,1,8,0:0:0:0:
338,339,127678,1,2,0:0:0:0:
135,309,127928,6,0,B|140:268|103:235|99:244|62:217|92:127,1,150,2|0,0:0|0:0,0:0:0:0:
22,126,128303,1,2,3:3:0:0:
8,152,128428,1,10,0:0:0:0:
164,189,128678,1,2,3:2:0:0:
374,169,128928,6,0,P|406:87|441:20,1,150,6|0,0:0|0:0,0:0:0:0:
368,0,129303,1,0,0:0:0:0:
339,8,129428,1,8,0:0:0:0:
491,105,129678,1,2,0:3:0:0:
296,191,129928,2,0,P|282:141|173:136,1,150,2|2,0:0|0:3,0:0:0:0:
254,146,130303,1,2,0:3:0:0:
246,116,130428,1,8,0:0:0:0:
233,88,130553,1,0,0:0:0:0:
215,63,130678,1,2,0:0:0:0:
15,195,130928,6,0,P|86:216|154:247,1,150,2|0,0:0|0:0,0:0:0:0:
227,227,131303,1,0,0:0:0:0:
231,256,131428,1,8,0:0:0:0:
68,324,131678,1,2,0:0:0:0:
285,375,131928,6,0,B|285:332|315:303|319:314|352:282|342:233,1,150,2|2,0:0|0:3,0:0:0:0:
398,183,132303,1,2,0:3:0:0:
427,188,132428,1,10,0:0:0:0:
474,341,132678,1,2,3:2:0:0:
512,107,132928,2,0,B|478:118|443:98|449:67|484:84|492:102,1,75,6|0,0:0|0:0,0:0:0:0:
399,265,133178,2,0,B|365:253|330:273|336:304|371:287|379:269,1,82.5,2|0,0:0|0:0,0:0:0:0:
285,66,133428,6,0,P|162:103|26:122,1,247.5,10|2,0:0|0:3,0:0:0:0:
103,33,133928,2,0,B|176:33|244:142|178:196|98:179|112:107,1,247.5,2|2,0:0|0:3,0:0:0:0:
3,149,134428,6,0,P|62:158|107:252,1,165,8|2,0:0|0:0,0:0:0:0:
238,384,134928,2,0,P|272:282|306:217,1,165,2|0,0:0|0:0,0:0:0:0:
222,262,135303,1,0,0:0:0:0:
229,295,135428,1,8,0:0:0:0:
365,340,135678,1,2,0:0:0:0:
414,346,135803,1,2,0:0:0:0:
459,325,135928,2,0,B|461:269|425:247|420:255|380:224|399:136,1,165,2|0,0:0|3:3,0:0:0:0:
458,136,136303,5,0,0:0:0:0:
469,167,136428,2,0,B|494:210|552:191|527:164|496:180,1,82.5,10|0,0:0|0:0,0:0:0:0:
307,40,136678,2,0,B|332:-3|390:16|365:43|334:27,1,82.5,2|0,3:2|0:0,0:0:0:0:
431,61,136928,1,6,0:0:0:0:
174,112,137178,1,2,0:0:0:0:
99,96,137428,2,0,P|75:33|11:10,1,139.999995727539,10|2,0:0|0:3,0:0:0:0:
174,112,137928,6,0,P|106:126|19:163,1,140,2|2,0:0|0:3,0:0:0:0:
13,223,138303,1,2,0:3:0:0:
40,226,138428,2,0,P|108:240|195:277,1,140,8|2,0:0|0:0,0:0:0:0:
283,374,138928,6,0,P|348:357|348:257,1,140,2|0,0:0|0:0,0:0:0:0:
443,272,139303,1,0,0:0:0:0:
429,248,139428,2,0,P|410:209|384:114,1,140,8|2,0:0|0:0,0:0:0:0:
224,0,139928,5,2,0:0:0:0:
268,203,140178,1,0,3:3:0:0:
294,196,140303,1,0,0:0:0:0:
321,195,140428,1,10,0:0:0:0:
467,92,140678,1,2,3:2:0:0:
168,66,140928,6,0,P|151:146|129:226,1,165.000005035401,6|0,0:0|0:0,0:0:0:0:
173,187,141428,2,0,P|125:123|68:138,1,110,10|2,0:0|0:3,0:0:0:0:
11,333,141928,2,0,P|120:305|189:299,1,165,2|2,0:0|0:3,0:0:0:0:
225,245,142428,2,0,P|312:267|367:272,1,110,8|2,0:0|0:0,0:0:0:0:
477,366,142928,6,0,B|482:314|449:289|443:297|400:256|431:177,1,165,2|0,0:0|0:0,0:0:0:0:
440,146,143428,2,0,B|458:91|526:113|526:139|491:148|466:132,1,110,8|2,0:0|0:0,0:0:0:0:
353,179,143928,2,0,P|283:162|283:52,1,165,2|0,0:0|0:0,0:0:0:0:
213,24,144428,2,0,B|201:64|148:47|148:27|175:20|181:27,1,89.9999972534181,10|0,0:0|0:0,0:0:0:0:
149,31,144928,6,0,P|90:35|30:31,1,120,2|0,0:0|0:0,0:0:0:0:
14,108,145928,2,0,P|25:135|31:164,1,60,2|0,0:0|0:0,0:0:0:0:
26,186,146428,1,0,0:0:0:0:
127,219,146678,1,0,0:0:0:0:
56,316,146928,2,0,P|47:297|42:278,1,40,2|0,0:0|0:0,0:0:0:0:
188,321,147428,2,0,P|184:340|176:359,1,40,2|0,0:0|0:0,0:0:0:0:
127,219,147928,1,2,0:0:0:0:
127,219,148678,1,2,0:0:0:0:
217,118,148928,6,0,P|246:123|276:126,1,60,2|0,0:0|0:0,0:0:0:0:
296,128,149428,2,0,P|308:112|312:92,1,40
415,8,149928,2,0,P|408:26|405:46,1,40,2|0,0:0|0:0,0:0:0:0:
454,127,150428,1,0,0:0:0:0:
360,186,150678,1,0,0:0:0:0:
447,254,150928,2,0,P|466:254|486:253,1,40,2|0,0:0|0:0,0:0:0:0:
307,323,151428,2,0,P|287:323|267:322,1,40,2|0,0:0|0:0,0:0:0:0:
180,291,151928,1,2,0:0:0:0:
180,291,152303,1,2,0:3:0:0:
125,338,152428,1,8,0:3:0:0:
6,369,152678,1,8,0:0:0:0:
61,240,152928,6,0,P|57:165|43:91,1,150,6|10,0:0|0:0,0:0:0:0:
35,77,153428,1,10,0:0:0:0:
165,41,153678,2,0,P|162:25|157:9,2,33.3333333333333,2|2|2,0:3|0:3|0:3,0:0:0:0:
185,56,153928,2,0,P|235:57|285:49,1,100,2|0,0:0|0:0,0:0:0:0:
433,19,154428,1,2,0:0:0:0:
433,19,154678,1,2,0:3:0:0:
375,168,154928,5,2,0:3:0:0:
477,106,155178,1,0,0:0:0:0:
260,146,155428,1,2,0:0:0:0:
374,271,155678,2,0,P|372:287|368:303,2,33.3333333333333,2|2|2,0:3|0:3|0:3,0:0:0:0:
353,261,155928,2,0,P|279:250|204:251,1,150,2|2,0:0|0:3,0:0:0:0:
185,266,156428,1,2,0:0:0:0:
279,366,156678,1,2,0:3:0:0:
491,344,156928,6,0,P|497:270|467:202,1,150,6|10,0:0|0:0,0:0:0:0:
449,190,157428,2,0,P|468:143|474:93,1,100,10|2,0:0|0:3,0:0:0:0:
293,8,157928,2,0,P|298:57|316:103,1,100,2|0,0:0|0:0,0:0:0:0:
329,115,158303,1,2,0:3:0:0:
342,120,158428,1,2,0:0:0:0:
411,30,158678,1,2,0:3:0:0:
147,58,158928,5,2,0:3:0:0:
21,5,159178,1,0,0:0:0:0:
20,128,159428,2,0,P|51:168|71:214,1,100,2|2,0:0|0:3,0:0:0:0:
65,232,159803,1,2,0:3:0:0:
53,247,159928,1,2,0:0:0:0:
343,369,160303,1,2,0:3:0:0:
312,367,160428,1,2,0:0:0:0:
165,367,160678,1,2,0:3:0:0:
198,225,160928,6,0,P|211:151|222:77,1,150,6|10,0:0|0:0,0:0:0:0:
215,55,161428,1,10,0:0:0:0:
378,1,161678,1,2,0:3:0:0:
449,153,161928,2,0,P|401:98|330:108,1,150,2|2,0:0|0:3,0:0:0:0:
326,124,162428,1,2,0:0:0:0:
358,203,162678,1,2,0:3:0:0:
475,383,162928,6,0,P|471:309|449:237,1,150,2|0,0:3|0:0,0:0:0:0:
439,222,163428,1,2,0:0:0:0:
351,384,163678,1,2,0:3:0:0:
230,342,163928,2,0,B|172:328|141:373|82:350,1,150,2|2,0:0|0:3,0:0:0:0:
67,333,164428,1,2,0:0:0:0:
184,247,164678,1,2,0:3:0:0:
11,12,164928,6,0,B|33:1|33:1|192:34,1,187.5,6|10,0:0|0:0,0:0:0:0:
214,39,165428,1,10,0:0:0:0:
443,14,165678,1,2,0:3:0:0:
464,20,165803,1,2,0:3:0:0:
487,30,165928,2,0,B|499:46|499:46|488:218,1,187.5,2|2,0:0|0:3,0:0:0:0:
475,232,166428,1,2,0:0:0:0:
237,319,166678,1,2,0:3:0:0:
201,288,166803,1,0,0:0:0:0:
166,258,166928,6,0,P|149:176|232:161,1,187.5,2|0,0:3|0:0,0:0:0:0:
244,172,167428,1,2,0:0:0:0:
399,335,167678,1,2,0:3:0:0:
431,344,167803,1,2,0:3:0:0:
459,355,167928,1,2,0:0:0:0:
209,361,168178,1,10,0:3:0:0:
433,263,168428,1,8,0:3:0:0:
318,384,168678,1,4,0:3:0:0:
62,301,168928,6,0,P|44:202|18:119,1,165.000001573563,6|0,0:0|0:0,0:0:0:0:
0,69,169303,1,0,0:0:0:0:
106,147,169428,2,0,P|130:111|169:107,1,82.5000007867813,8|0,0:0|0:0,0:0:0:0:
209,173,169678,2,0,P|184:208|145:212,1,82.5000007867813,0|0,3:2|0:0,0:0:0:0:
82,42,169928,6,0,P|174:66|267:85,1,165.000001573563,2|0,0:0|0:0,0:0:0:0:
284,141,170303,1,0,3:2:0:0:
335,20,170428,2,0,P|385:13|429:-1,1,82.5000007867813,8|0,3:2|0:0,0:0:0:0:
391,211,170678,2,0,P|441:218|485:232,1,82.5000007867813,0|2,3:2|0:3,0:0:0:0:
512,153,170928,6,0,B|425:126|354:196|383:202|317:276|203:232,1,330.000003147125,2|8,0:0|0:2,0:0:0:0:
203,245,171553,1,0,0:0:0:0:
102,226,171678,2,0,P|92:185|77:147,1,82.5000007867813,0|0,3:2|0:0,0:0:0:0:
201,31,171928,2,0,B|284:7|346:103|293:156|233:157|220:108,1,247.500002360344,2|0,0:2|3:2,0:0:0:0:
304,38,172428,6,0,P|349:31|392:8,1,82.5000007867813,8|0,0:2|0:0,0:0:0:0:
136,79,172678,2,0,P|98:61|57:56,1,82.5000007867813,0|2,3:2|0:3,0:0:0:0:
309,221,172928,2,0,P|379:192|482:170,1,165.000001573563,6|0,0:0|0:0,0:0:0:0:
498,105,173303,5,0,0:0:0:0:
411,155,173428,2,0,P|377:192|397:235,1,82.5000007867813,8|0,0:0|0:0,0:0:0:0:
456,243,173678,2,0,P|490:206|470:163,1,82.5000007867813,0|0,3:2|0:0,0:0:0:0:
245,141,173928,2,0,P|281:225|319:346,1,165.000001573563,2|0,0:0|0:0,0:0:0:0:
376,314,174303,1,0,3:2:0:0:
257,352,174428,2,0,P|271:312|279:259,1,82.5000007867813,8|0,3:2|0:0,0:0:0:0:
464,305,174678,2,0,P|450:345|442:398,1,82.5000007867813,0|0,3:2|0:0,0:0:0:0:
248,357,174928,5,2,0:0:0:0:
99,384,175178,1,0,0:0:0:0:
291,196,175428,2,0,B|220:201|172:140|193:130|152:57|48:86,1,247.500002360344,8|2,0:2|0:3,0:0:0:0:
0,147,175928,2,0,P|188:98|331:78,1,262.500002503395,2|0,0:2|3:2,0:0:0:0:
301,13,176428,6,0,P|331:4|312:20,1,87.500000834465,8|0,0:2|0:0,0:0:0:0:
486,214,176678,2,0,P|516:222|497:206,1,87.500000834465,0|2,3:2|0:3,0:0:0:0:
334,96,176928,6,0,B|332:125|345:167|356:133|376:222|384:295,1,189.999994926453,6|0,0:0|0:0,0:0:0:0:
320,320,177303,1,0,0:0:0:0:
426,384,177428,2,0,P|473:359|524:345,1,94.9999974632264,8|0,0:0|0:0,0:0:0:0:
409,252,177678,2,0,P|363:237|322:215,1,94.9999974632264,0|0,3:2|0:0,0:0:0:0:
158,114,177928,6,0,P|98:139|116:252,1,189.999994926453,2|0,0:0|0:0,0:0:0:0:
120,240,178303,1,0,3:2:0:0:
159,128,178428,2,0,P|202:142|221:185,1,94.9999974632264,8|0,3:2|0:0,0:0:0:0:
302,171,178678,2,0,P|310:216|283:253,1,94.9999974632264,0|2,3:2|0:3,0:0:0:0:
183,384,178928,6,0,P|240:240|382:6,1,379.999989852906,2|8,0:0|0:2,0:0:0:0:
348,34,179553,1,0,0:0:0:0:
471,17,179678,2,0,P|431:70|409:110,1,94.9999974632264,0|0,3:2|0:0,0:0:0:0:
287,215,179928,2,0,B|248:224|204:178|245:134|265:118|305:119|379:136|389:235,1,284.999992389679,2|0,0:2|3:2,0:0:0:0:
480,252,180428,6,0,P|467:296|424:313,1,94.9999974632264,8|0,0:2|0:0,0:0:0:0:
294,352,180678,2,0,P|306:307|349:290,1,94.9999974632264,0|2,3:2|0:3,0:0:0:0:
427,343,180928,2,0,P|296:307|187:288,1,170.000003242493,6|0,0:0|0:0,0:0:0:0:
185,282,181303,1,0,0:0:0:0:
173,242,181428,1,8,0:0:0:0:
74,384,181678,6,0,P|103:369|155:359,1,85.0000016212464,0|0,3:2|0:0,0:0:0:0:
262,300,181928,1,2,0:0:0:0:
301,82,182178,1,0,0:0:0:0:
420,14,182428,2,0,B|406:77|457:144|468:123|529:162|509:252,1,255.000004863739,8|2,3:2|0:3,0:0:0:0:
454,164,182928,2,0,B|393:147|340:212|374:271|374:271|420:260|459:296,1,255.000004863739,2|0,0:0|3:2,0:0:0:0:
507,338,183428,2,0,P|434:345|309:369,1,170.000003242493,8|0,0:2|3:2,0:0:0:0:
74,145,183928,2,0,P|204:179|337:204,1,269.999991760254,2|0,0:2|3:2,0:0:0:0:
231,155,184428,6,0,P|177:188|186:229,1,89.9999972534181,8|2,0:2|0:3,0:0:0:0:
350,303,184678,2,0,P|404:270|395:229,1,89.9999972534181,8|2,3:2|0:3,0:0:0:0:
487,0,184928,6,0,P|404:-9|358:98,1,189.999994926453,6|0,0:0|0:0,0:0:0:0:
412,115,185303,1,0,0:0:0:0:
482,12,185428,2,0,P|508:39|494:94,1,94.9999974632264,8|0,0:0|0:0,0:0:0:0:
411,211,185678,2,0,P|375:184|324:173,1,94.9999974632264,0|0,3:2|0:0,0:0:0:0:
240,7,185928,6,0,P|145:41|26:62,1,189.999994926453,2|0,0:0|0:0,0:0:0:0:
5,8,186303,1,0,3:2:0:0:
111,78,186428,2,0,P|97:120|87:180,1,94.9999974632264,8|0,3:2|0:0,0:0:0:0:
23,236,186678,2,0,P|9:194|-1:134,1,94.9999974632264,0|2,3:2|0:3,0:0:0:0:
236,25,186928,6,0,B|193:138|165:332|165:332|131:347|89:377,1,379.999989852906,2|8,0:0|0:2,0:0:0:0:
103,369,187553,1,0,0:0:0:0:
7,259,187678,2,0,P|59:271|112:287,1,94.9999974632264,0|0,3:2|0:0,0:0:0:0:
317,346,187928,2,0,P|459:300|430:154,1,284.999992389679,2|0,0:2|3:2,0:0:0:0:
335,204,188428,6,0,P|347:253|394:261,1,94.9999974632264,8|2,0:2|0:3,0:0:0:0:
487,156,188678,2,0,P|435:145|364:122,1,94.9999974632264,0|2,3:2|0:3,0:0:0:0:
317,0,188928,2,0,B|293:18|293:18|284:98|242:200,1,189.999994926453,6|0,0:0|0:0,0:0:0:0:
207,236,189303,1,0,0:0:0:0:
165,246,189428,1,8,0:0:0:0:
0,204,189678,1,0,3:2:0:0:
162,384,189928,2,0,P|137:248|87:95,1,284.999992389679,2|0,0:0|3:2,0:0:0:0:
182,103,190428,2,0,B|222:158|222:241|142:298|68:231|86:159|146:145,1,284.999992389679,8|0,3:2|0:0,0:0:0:0:
234,164,190928,6,0,P|245:227|263:288,1,94.9999974632264,2|0,0:0|0:0,0:0:0:0:
44,293,191178,2,0,P|33:230|15:169,1,94.9999974632264,0|0,0:0|3:2,0:0:0:0:
88,36,191428,2,0,P|200:64|397:98,1,284.999992389679,8|2,0:2|0:3,0:0:0:0:
445,101,191928,2,0,B|512:104|543:51|515:-17|457:-21|401:28|478:104,1,189.999994926453,2|0,0:2|0:0,0:0:0:0:
469,228,192428,6,0,B|510:243|549:200|514:166|483:223,1,94.9999974632264,8|2,0:2|0:3,0:0:0:0:
422,348,192678,2,0,B|463:333|502:376|467:410|436:353,1,94.9999974632264,0|2,3:2|0:3,0:0:0:0:
215,325,192928,6,0,P|294:294|377:275,1,170.000003242493,6|0,0:0|0:0,0:0:0:0:
384,245,193303,1,0,0:0:0:0:
328,315,193428,2,0,P|282:277|289:235,1,85.0000016212464,8|0,0:0|0:0,0:0:0:0:
206,243,193678,2,0,P|185:279|145:288,1,85.0000016212464,0|0,3:2|0:0,0:0:0:0:
75,175,193928,6,0,B|76:118|40:93|34:100|5:68|18:7,1,170.000003242493,2|0,0:0|0:0,0:0:0:0:
43,1,194303,1,0,3:2:0:0:
77,90,194428,2,0,P|31:105|-16:135,1,85.0000016212464,8|2,3:2|0:3,0:0:0:0:
163,32,194678,2,0,P|203:45|245:51,1,85.0000016212464,0|2,3:2|0:3,0:0:0:0:
366,58,194928,6,0,B|378:14|403:-6|403:-6|309:-17|233:59|270:162,1,300.000011444092,2|8,0:0|0:2,0:0:0:0:
253,136,195553,1,0,0:0:0:0:
359,195,195678,2,0,P|396:199|432:209,1,75.0000028610231,0|0,3:2|0:0,0:0:0:0:
512,180,195928,2,0,P|368:219|269:263,1,225.000008583069,2|0,0:2|3:2,0:0:0:0:
228,276,196428,2,0,P|198:267|178:195,1,75.0000028610231,8|0,0:2|0:0,0:0:0:0:
80,255,196678,2,0,P|72:224|125:171,1,75.0000028610231,0|2,3:2|0:3,0:0:0:0:
244,179,196928,6,0,P|188:283|159:395,1,194.999991073609,6|0,0:0|0:0,0:0:0:0:
141,368,197428,1,8,0:0:0:0:
58,383,197678,1,0,3:2:0:0:
211,304,197928,1,2,0:0:0:0:
280,89,198178,2,0,P|317:73|342:56,1,64.9999970245363,0|0,0:0|3:2,0:0:0:0:
396,115,198428,2,0,B|338:105|300:70|311:64|291:37|213:39|195:10,1,194.999991073609,8|0,3:2|0:0,0:0:0:0:
140,4,198928,6,0,P|203:67|157:160,1,194.999991073609,2|0,0:0|3:2,0:0:0:0:
164,185,199428,2,0,P|88:202|-1:243,1,129.999994049073,8|0,0:2|3:2,0:0:0:0:
225,136,199928,1,2,0:2:0:0:
269,366,200178,1,8,0:2:0:0:
407,382,200428,1,8,0:2:0:0:
419,338,200553,1,0,0:0:0:0:
437,296,200678,1,8,3:2:0:0:
512,62,200928,6,0,B|488:47|488:47|394:65|293:39,1,225.000008583069,6|0,0:0|0:0,0:0:0:0:
267,27,201428,1,8,0:0:0:0:
25,33,201678,1,0,3:2:0:0:
133,74,201928,2,0,B|151:93|151:93|100:285,1,225.000008583069,2|0,0:0|3:2,0:0:0:0:
91,355,202428,2,0,P|127:361|165:357,1,75.0000028610231,8|0,3:2|0:0,0:0:0:0:
376,233,202678,1,0,3:2:0:0:
244,230,202928,5,2,0:0:0:0:
244,230,203178,1,0,0:0:0:0:
284,369,203428,1,8,0:2:0:0:
323,150,203678,1,0,3:2:0:0:
405,360,203928,2,0,B|430:350|430:350|450:152,1,225.000008583069,2|0,0:2|3:2,0:0:0:0:
487,86,204428,2,0,P|486:54|475:10,1,75.0000028610231,8|0,0:2|0:0,0:0:0:0:
403,18,204678,2,0,P|398:54|407:91,1,75.0000028610231,10|2,3:2|0:3,0:0:0:0:
326,276,204928,6,0,B|298:298|298:298|109:280,1,225.000008583069,6|0,0:0|0:0,0:0:0:0:
73,276,205428,1,8,0:0:0:0:
26,16,205678,1,0,3:2:0:0:
76,92,205928,2,0,B|135:121|198:79|232:48|291:52,1,225.000008583069,2|0,0:0|3:2,0:0:0:0:
362,56,206428,2,0,P|366:92|356:128,1,75.0000028610231,8|0,3:2|0:0,0:0:0:0:
254,328,206678,1,0,3:2:0:0:
207,194,206928,5,2,0:0:0:0:
207,194,207178,1,0,0:0:0:0:
386,363,207428,1,8,0:2:0:0:
168,282,207678,1,0,3:2:0:0:
489,225,207928,2,0,B|356:240|356:240|319:156,1,225.000008583069,2|0,0:2|3:2,0:0:0:0:
288,90,208428,2,0,P|250:92|214:84,1,75.0000028610231,8|0,0:2|0:0,0:0:0:0:
176,18,208678,2,0,P|141:29|115:56,1,75.0000028610231,10|2,3:2|0:3,0:0:0:0:
9,279,208928,6,0,B|38:296|38:296|227:271,1,225.000008583069,6|0,0:0|0:0,0:0:0:0:
260,267,209428,1,8,0:0:0:0:
393,77,209678,1,0,3:2:0:0:
300,137,209928,2,0,P|406:207|450:303,1,225.000008583069,2|0,0:0|3:2,0:0:0:0:
430,361,210428,2,0,P|396:373|360:363,1,75.0000028610231,8|0,3:2|0:0,0:0:0:0:
118,346,210678,1,0,3:2:0:0:
226,273,210928,5,2,0:0:0:0:
226,273,211178,1,0,0:0:0:0:
0,346,211428,1,8,0:2:0:0:
219,384,211678,1,0,3:2:0:0:
61,230,211928,2,0,B|41:212|41:212|78:17,1,225.000008583069,2|0,0:2|3:2,0:0:0:0:
148,2,212428,2,0,P|185:6|219:21,1,75.0000028610231,8|0,0:2|0:0,0:0:0:0:
136,96,212678,2,0,P|174:99|211:93,1,75.0000028610231,10|2,3:2|0:3,0:0:0:0:
421,15,212928,6,0,B|408:39|408:39|429:235,1,225.000008583069,6|0,0:0|0:0,0:0:0:0:
436,274,213428,1,8,0:0:0:0:
271,377,213678,1,0,3:2:0:0:
370,316,213928,2,0,P|263:293|205:200,1,225.000008583069,2|0,0:0|3:2,0:0:0:0:
139,181,214428,2,0,P|143:144|169:118,1,75.0000028610231,8|0,3:2|0:0,0:0:0:0:
343,0,214678,1,0,3:2:0:0:
329,130,214928,5,2,0:0:0:0:
329,130,215178,1,0,0:0:0:0:
157,4,215428,1,8,0:2:0:0:
295,210,215678,1,0,3:2:0:0:
78,112,215928,2,0,B|49:122|49:122|22:315,1,225.000008583069,2|0,0:2|3:2,0:0:0:0:
99,358,216428,2,0,P|135:363|171:351,1,75.0000028610231,8|2,0:2|0:3,0:0:0:0:
242,320,216678,2,0,P|278:314|314:326,1,75.0000028610231,8|2,0:2|0:3,0:0:0:0:
444,349,216928,6,0,P|302:328|253:194,1,300,2|0,0:0|0:0,0:0:0:0:
265,32,217928,2,0,P|233:170|94:203,1,300,2|0,0:0|0:0,0:0:0:0:
22,69,218928,2,0,P|140:63|197:167,1,250,2|0,0:0|0:0,0:0:0:0:
169,252,219678,1,0,0:0:0:0:
291,91,219928,2,0,P|298:166|308:241,1,150,2|0,0:0|0:0,0:0:0:0:
359,312,220428,1,0,0:0:0:0:
454,307,220678,1,0,0:0:0:0:
507,123,220928,5,2,0:0:0:0:
507,123,221428,1,0,0:0:0:0:
437,55,221678,1,0,0:0:0:0:
263,22,221928,2,0,P|190:35|115:36,1,150,2|0,0:0|0:0,0:0:0:0:
25,64,222428,2,0,P|48:136|54:210,1,150
14,289,222928,1,2,0:0:0:0:
153,110,223178,1,0,0:0:0:0:
197,352,223428,2,0,P|272:343|346:333,1,150,2|0,0:0|0:0,0:0:0:0:
419,301,223928,1,2,0:0:0:0:
419,301,224428,2,0,P|405:239|468:247,1,150,2|0,0:0|0:0,0:0:0:0:
512,135,224928,6,0,P|362:151|213:154,1,300,2|0,0:0|0:0,0:0:0:0:
47,113,225928,2,0,P|183:174|304:262,1,300,2|0,0:0|0:0,0:0:0:0:
503,372,226928,2,0,P|378:360|253:360,1,250,2|0,0:0|0:0,0:0:0:0:
171,375,227678,1,0,0:0:0:0:
32,384,227928,2,0,P|38:309|41:234,1,150,2|0,0:0|0:0,0:0:0:0:
3,168,228428,1,0,0:0:0:0:
147,282,228678,1,0,0:0:0:0:
112,60,228928,5,2,0:0:0:0:
112,60,229678,1,0,0:0:0:0:
178,100,229928,1,2,0:0:0:0:
238,48,230178,1,0,0:0:0:0:
167,11,230428,2,0,L|182:160,1,150,2|0,0:0|0:0,0:0:0:0:
220,244,230928,6,0,B|331:279|368:234|402:179|506:203,1,300,2|0,0:0|0:0,0:0:0:0:
336,372,231928,2,0,P|261:374|189:354,1,150,6|0,0:0|0:0,0:0:0:0:
103,355,232428,2,0,P|83:338|67:318,1,50,6|0,0:0|0:0,0:0:0:0:
16,198,232678,2,0,P|11:173|14:148,1,50,8|8,0:3|0:3,0:0:0:0:
118,1,232928,6,0,P|228:41|220:134,1,194.999991073609,6|0,0:0|0:0,0:0:0:0:
282,170,233428,2,0,P|191:132|143:122,1,129.999994049073,8|0,0:0|3:2,0:0:0:0:
318,92,233928,2,0,P|409:54|457:44,1,129.999994049073,2|2,0:0|0:3,0:0:0:0:
454,53,234303,1,0,3:2:0:0:
463,15,234428,1,8,3:2:0:0:
500,170,234678,2,0,P|492:162|507:170,1,64.9999970245363,0|2,3:2|0:3,0:0:0:0:
330,12,234928,6,0,B|348:83|380:177|383:169|411:203|419:277,1,259.999988098145,2|8,0:0|0:2,0:0:0:0:
491,338,235553,1,0,0:0:0:0:
507,302,235678,2,0,P|479:293|441:284,1,64.9999970245363,0|0,3:2|0:0,0:0:0:0:
358,193,235928,2,0,P|289:203|270:342,1,194.999991073609,2|0,0:2|3:2,0:0:0:0:
227,333,236428,5,8,0:2:0:0:
380,364,236678,1,0,3:2:0:0:
123,382,236928,6,0,P|109:297|65:144,1,194.999991073609,6|0,0:0|0:0,0:0:0:0:
0,188,237428,2,0,P|79:143|66:68,1,129.999994049073,8|0,0:0|3:2,0:0:0:0:
295,0,237928,1,2,0:0:0:0:
295,0,238428,2,0,P|268:107|254:210,1,194.999991073609,8|2,3:2|0:3,0:0:0:0:
229,207,238928,1,2,0:0:0:0:
148,15,239178,1,0,0:0:0:0:
319,237,239428,5,8,0:2:0:0:
439,260,239678,2,0,B|416:234|370:240|396:268|429:255,1,64.9999970245363,0|2,3:2|0:2,0:0:0:0:
489,129,239928,2,0,P|368:173|338:190,1,129.999994049073,8|2,0:2|0:3,0:0:0:0:
469,362,240428,6,0,P|424:343|368:337,1,64.9999970245363,8|0,0:2|0:0,0:0:0:0:
294,220,240678,2,0,P|248:238|204:273,1,64.9999970245363,0|2,3:2|0:3,0:0:0:0:
125,384,240928,6,0,P|35:362|67:233,1,225.000008583069,6|0,0:0|0:0,0:0:0:0:
0,180,241428,2,0,B|43:181|79:152|71:148|104:122|157:121,1,150.000005722046,8|0,0:0|3:2,0:0:0:0:
395,76,241928,2,0,B|352:77|316:48|324:44|291:18|238:17,1,150.000005722046,2|2,0:0|0:3,0:0:0:0:
233,33,242303,1,0,3:2:0:0:
239,77,242428,1,8,3:2:0:0:
491,64,242678,2,0,P|467:108|457:146,1,75.0000028610231,0|2,3:2|0:3,0:0:0:0:
320,242,242928,6,0,B|256:241|256:121|344:120|455:161|410:313,1,300.000011444092,2|8,0:0|0:2,0:0:0:0:
503,303,243553,1,0,0:0:0:0:
492,346,243678,2,0,P|446:361|394:394,1,75.0000028610231,0|0,3:2|0:0,0:0:0:0:
284,343,243928,2,0,P|167:339|156:234,1,225.000008583069,2|0,0:2|3:2,0:0:0:0:
132,222,244428,5,8,0:2:0:0:
320,242,244678,1,0,3:2:0:0:
118,220,244928,6,0,B|83:200|83:200|69:121|14:33,1,194.999991073609,6|0,0:0|0:0,0:0:0:0:
42,29,245428,1,8,0:0:0:0:
0,200,245678,1,0,3:2:0:0:
220,161,245928,2,0,P|235:113|251:78,1,64.9999970245363,2|0,0:0|0:0,0:0:0:0:
272,0,246178,2,0,B|266:24|270:41|303:41|305:28|285:15,1,64.9999970245363,2|0,0:3|3:2,0:0:0:0:
392,101,246428,1,8,3:2:0:0:
166,42,246678,1,0,3:2:0:0:
409,129,246928,6,0,P|422:76|533:59,1,150.000005722046,6|0,0:0|0:0,0:0:0:0:
512,72,247303,1,0,3:2:0:0:
499,115,247428,1,8,0:2:0:0:
302,146,247678,2,0,P|329:158|348:219,1,75.0000028610231,0|2,3:2|0:3,0:0:0:0:
452,271,247928,2,0,P|306:230|196:214,1,225.000008583069,2|0,0:2|3:2,0:0:0:0:
125,276,248428,1,8,0:2:0:0:
168,266,248553,1,0,0:0:0:0:
201,236,248678,1,0,3:2:0:0:
210,191,248803,1,0,0:0:0:0:
197,144,248928,6,0,P|97:175|5:187,1,160,6|0,0:0|0:0,0:0:0:0:
15,170,249303,1,0,0:0:0:0:
89,210,249428,2,0,P|99:151|119:84,1,80,8|0,0:0|0:0,0:0:0:0:
243,0,249678,2,0,P|253:59|273:126,1,80,0|0,3:2|0:0,0:0:0:0:
302,256,249928,1,2,0:0:0:0:
418,330,250178,1,2,0:3:0:0:
457,322,250303,1,0,3:2:0:0:
487,296,250428,2,0,P|408:316|413:420,1,160,8|0,3:2|3:2,0:0:0:0:
512,219,250928,6,0,B|460:220|429:197|438:195|417:157|334:160,1,160,2|0,0:0|0:0,0:0:0:0:
349,181,251303,1,0,3:2:0:0:
441,148,251428,2,0,P|483:138|503:85,1,80,8|0,0:2|0:0,0:0:0:0:
393,0,251678,2,0,P|339:17|291:27,1,80,0|2,3:2|0:3,0:0:0:0:
259,252,251928,1,2,0:2:0:0:
86,123,252303,1,2,0:3:0:0:
108,196,252428,2,0,P|175:218|223:244,1,80,8|0,0:2|0:0,0:0:0:0:
345,286,252678,2,0,P|351:279|344:294,1,80,0|0,3:2|0:0,0:0:0:0:
35,180,252928,6,0,P|27:113|2:20,1,160,6|0,0:0|0:0,0:0:0:0:
31,2,253303,1,0,0:0:0:0:
77,97,253428,2,0,P|69:164|44:257,1,160,8|0,0:0|3:2,0:0:0:0:
189,48,253928,1,2,0:0:0:0:
225,246,254178,1,2,0:3:0:0:
234,284,254303,1,0,3:2:0:0:
249,321,254428,1,8,3:2:0:0:
199,383,254678,6,0,B|173:343|120:342|146:380|168:366,1,80,0|2,3:2|0:3,0:0:0:0:
338,328,254928,2,0,B|318:294|329:248|402:207|448:283|372:306,1,160,2|0,0:0|0:0,0:0:0:0:
418,311,255303,1,0,3:2:0:0:
512,270,255428,2,0,B|492:304|447:317|375:275|418:197|475:251,1,160,8|0,0:2|3:2,0:0:0:0:
491,384,255928,5,2,0:2:0:0:
434,155,256178,2,0,P|427:127|405:87,1,50,2|2,0:3|0:3,0:0:0:0:
293,127,256428,2,0,P|313:106|337:67,1,59.9999981689454,8|0,0:2|0:0,0:0:0:0:
512,29,256678,2,0,P|484:21|438:20,1,69.9999978637696,0|2,3:2|0:3,0:0:0:0:
344,190,256928,6,0,P|267:142|156:102,1,160,6|0,0:0|0:0,0:0:0:0:
192,123,257303,1,0,0:0:0:0:
182,84,257428,1,8,0:0:0:0:
59,0,257678,1,0,3:2:0:0:
48,38,257803,1,0,0:0:0:0:
29,73,257928,2,0,P|60:60|116:52,1,80,2|0,0:0|0:0,0:0:0:0:
291,90,258178,1,2,0:3:0:0:
273,126,258303,1,0,3:2:0:0:
262,164,258428,1,8,3:2:0:0:
254,203,258553,1,0,0:0:0:0:
192,246,258678,2,0,P|169:262|186:240,1,80,0|2,3:2|0:3,0:0:0:0:
67,229,258928,6,0,P|183:258|291:310,1,240,2|0,0:0|3:2,0:0:0:0:
359,347,259428,2,0,P|409:339|429:299,1,80,8|0,0:2|0:0,0:0:0:0:
512,216,259678,2,0,P|459:228|410:244,1,80,0|2,3:2|0:3,0:0:0:0:
219,306,259928,1,2,0:2:0:0:
219,306,260428,6,0,B|241:295|241:295|279:146|332:68,1,240,8|0,0:2|0:0,0:0:0:0:
271,27,260928,6,0,P|218:15|169:-1,1,80,6|0,0:0|0:0,0:0:0:0:
407,146,261178,2,0,P|445:134|484:126,1,80
512,52,261428,1,8,0:0:0:0:
384,243,261678,1,0,3:2:0:0:
345,215,261803,1,0,0:0:0:0:
297,209,261928,2,0,P|213:165|224:74,1,160,2|2,0:0|0:3,0:0:0:0:
309,295,262428,6,0,P|257:300|213:309,1,80,8|0,3:2|0:0,0:0:0:0:
181,172,262678,2,0,P|138:191|124:234,1,80,0|2,3:2|0:3,0:0:0:0:
0,320,262928,2,0,P|100:347|183:383,1,160,2|0,0:0|0:0,0:0:0:0:
161,360,263303,1,0,3:2:0:0:
154,320,263428,1,8,0:2:0:0:
362,384,263678,2,0,P|374:344|402:283,1,80,0|2,3:2|0:3,0:0:0:0:
506,164,263928,2,0,P|420:189|259:218,1,240,2|2,0:2|0:3,0:0:0:0:
191,207,264428,6,0,P|173:196|200:201,1,80,8|2,0:2|0:3,0:0:0:0:
42,8,264678,2,0,P|60:-3|33:2,1,80,0|2,3:2|0:3,0:0:0:0:
94,336,264928,6,0,B|75:238|144:162|152:204|239:97|178:0,1,350,4|0,0:0|0:0,0:0:0:0:
111,76,265928,6,0,B|172:216|333:271|522:263|576:85|491:0|375:-20|317:23|288:108,1,719.999978027344,0|2,0:0|0:0,0:0:0:0:
