osu file format v14

[General]
AudioFilename: audio.mp3
AudioLeadIn: 0
PreviewTime: 56728
Countdown: 0
SampleSet: Soft
StackLeniency: 0.5
Mode: 0
LetterboxInBreaks: 0
WidescreenStoryboard: 0

[Editor]
Bookmarks: 592,56228,57865,84046,88955
DistanceSpacing: 1.5
BeatDivisor: 4
GridSize: 8
TimelineZoom: 1.4

[Metadata]
Title:Katayoku no Tori
TitleUnicode:片翼の鳥
Artist:Shikata Akiko
ArtistUnicode:志方あきこ
Creator:victorfernando
Version:Collab Insane
Source:うみねこのなく頃に
Tags:Umineko no naku koro ni Umineko: When They Cry opening Kalindraz Alexsander
BeatmapID:1631114
BeatmapSetID:775843

[Difficulty]
HPDrainRate:7
CircleSize:3.8
OverallDifficulty:7.5
ApproachRate:9
SliderMultiplier:1.6
SliderTickRate:1

[Events]
//Background and Video events
Video,0,"umineko op.mp4"
0,0,"umineko 4.jpg",0,0
//Break Periods
//Storyboard Layer 0 (Background)
//Storyboard Layer 1 (Fail)
//Storyboard Layer 2 (Pass)
//Storyboard Layer 3 (Foreground)
//Storyboard Layer 4 (Overlay)
//Storyboard Sound Samples

[TimingPoints]
592,272.727272727273,3,2,1,50,1,0
592,-100,3,2,1,50,0,0
5432,-100,3,2,1,5,0,0
5501,-100,3,2,1,50,0,0
13682,-166.666666666667,3,2,1,50,0,0
26501,-133.333333333333,3,2,1,50,0,0
26705,-133.333333333333,3,2,1,5,0,0
26773,-117.647058823529,3,2,1,50,0,0
31614,-117.647058823529,3,2,1,5,0,0
31682,-117.647058823529,3,2,1,50,0,0
39864,-90.9090909090909,3,2,1,50,0,0
40273,-100,3,2,1,50,0,0
40682,-111.111111111111,3,2,1,50,0,0
40955,-125,3,2,1,50,0,0
41228,-166.666666666667,3,2,1,35,0,0
43137,-90.9090909090909,3,2,1,50,0,0
43546,-100,3,2,1,50,0,0
43955,-111.111111111111,3,2,1,50,0,0
44228,-125,3,2,1,50,0,0
44501,-166.666666666667,3,2,1,35,0,0
46410,-125,3,2,1,50,0,0
47501,-111.111111111111,3,2,1,25,0,0
48046,-111.111111111111,3,2,1,50,0,0
48796,-111.111111111111,3,2,1,5,0,0
48864,-111.111111111111,3,2,1,50,0,0
49137,-111.111111111111,3,2,1,25,0,0
49614,-111.111111111111,3,2,1,5,0,0
49682,-111.111111111111,3,2,1,50,0,0
52955,-100,3,2,1,50,0,0
56728,285.714285714286,3,2,1,50,1,0
56728,-125,3,2,1,50,0,0
57013,-111.111111111111,3,2,1,50,0,0
57299,-125,3,2,1,50,0,0
57585,-142.857142857143,3,2,1,50,0,0
57865,272.727272727273,3,2,1,50,1,1
57865,-100,3,2,1,50,0,1
59705,-100,3,2,1,5,0,1
59774,-100,3,2,1,50,0,1
61342,-100,3,2,1,5,0,1
61410,-100,3,2,1,50,0,1
72796,-100,3,2,1,5,0,1
72865,-100,3,2,1,50,0,1
74433,-100,3,2,1,5,0,1
74501,-100,3,2,1,50,0,1
84046,-100,3,2,1,50,0,0
88955,-100,3,2,1,25,0,0

[Colours]
Combo1 : 251,96,96
Combo2 : 255,255,106
Combo3 : 237,118,141
Combo4 : 253,141,94
SliderBorder : 255,255,255
SliderTrackOverride : 40,50,70

[HitObjects]
88,128,592,6,0,B|168:96|168:160|264:120,1,160,12|0,0:0|0:0,0:0:0:0:
416,240,1001,2,0,P|360:216|256:272,1,160,8|0,0:0|0:0,0:0:0:0:
160,336,1410,6,0,L|168:248,1,80,8|0,0:0|0:0,0:0:0:0:
48,256,1682,2,0,L|56:344,1,80,8|0,0:0|0:0,0:0:0:0:
167,256,1955,2,0,L|159:168,1,80,8|0,0:0|0:0,0:0:0:0:
71,68,2228,6,0,B|136:88|136:88|247:68,1,160,4|0,0:0|0:0,0:0:0:0:
368,24,2637,2,0,P|337:104|376:192,1,160,8|0,0:0|0:0,0:0:0:0:
352,296,3046,5,8,0:0:0:0:
264,224,3182,1,0,0:0:0:0:
160,272,3319,2,0,P|184:336|200:360,1,80,8|0,0:0|0:0,0:0:0:0:
264,224,3592,2,0,P|272:176|272:128,1,80,12|0,0:0|0:0,0:0:0:0:
236,58,3864,6,0,B|124:42|124:42|156:66|164:98,1,160,12|0,0:0|0:0,0:0:0:0:
0,128,4273,2,0,B|112:144|112:144|80:120|72:88,1,160,8|0,0:0|0:0,0:0:0:0:
176,224,4682,6,0,P|184:184|200:128,1,80,8|0,0:0|0:0,0:0:0:0:
72,240,4955,2,0,P|88:296|96:328,1,80,8|0,0:0|0:0,0:0:0:0:
200,368,5228,2,0,B|256:360|336:352,1,120,8|0,0:0|0:0,0:0:0:0:
360,344,5501,6,0,P|344:280|352:248,1,80,12|0,0:0|0:0,0:0:0:0:
424,200,5773,2,0,P|432:160|416:112,1,80,8|0,0:0|0:0,0:0:0:0:
344,56,6046,2,0,L|256:48,1,80,0|0,0:0|0:0,0:0:0:0:
88,152,6319,6,0,P|168:176|240:104,1,160,8|8,0:0|0:0,0:0:0:0:
152,80,6728,1,0,0:0:0:0:
224,248,6864,2,0,P|232:288|240:352,1,80,12|8,0:0|0:0,0:0:0:0:
352,368,7137,6,0,P|352:304|368:192,1,160,12|0,0:0|0:0,0:0:0:0:
464,88,7546,2,0,B|432:96|388:72|388:72|354:95|288:88,1,160,8|0,0:0|0:0,0:0:0:0:
176,40,7955,6,0,P|112:32|72:32,1,80,8|0,0:0|0:0,0:0:0:0:
88,136,8228,2,0,P|160:144|192:152,1,80,8|0,0:0|0:0,0:0:0:0:
168,248,8501,2,0,P|112:240|72:240,1,80,8|0,0:0|0:0,0:0:0:0:
200,344,8773,6,0,P|272:336|384:320,1,160,12|0,0:0|0:0,0:0:0:0:
480,240,9182,2,0,P|392:224|296:208,1,160,8|0,0:0|0:0,0:0:0:0:
240,144,9592,6,0,B|232:112|232:112|248:64,1,80,8|0,0:0|0:0,0:0:0:0:
144,144,9864,2,0,B|152:192|152:192|136:232,1,80,8|0,0:0|0:0,0:0:0:0:
72,328,10137,1,12,0:0:0:0:
48,176,10273,1,8,0:0:0:0:
200,296,10410,6,0,B|280:272|280:344|384:296,1,160,12|0,0:0|0:0,0:0:0:0:
392,200,10819,2,0,B|376:88|376:88|392:112|424:120,1,160,8|0,0:0|0:0,0:0:0:0:
430,308,11228,6,0,P|374:316|334:284,1,80,8|0,0:0|0:0,0:0:0:0:
208,216,11501,2,0,P|264:208|304:224,1,80,8|0,0:0|0:0,0:0:0:0:
152,304,11773,2,0,P|112:312|48:288,1,80,8|0,0:0|0:0,0:0:0:0:
56,112,12046,6,0,P|96:128|112:240,2,160,12|8|8,0:0|0:0|0:0,0:0:0:0:
48,192,12728,1,0,0:0:0:0:
192,112,12864,2,0,B|272:128|272:56|368:96,2,160,8|0|8,0:0|0:0|0:0,0:0:0:0:
312,264,13682,6,0,L|320:152,1,95.9999970703126,14|0,0:0|0:0,0:0:0:0:
184,288,14228,1,0,0:0:0:0:
392,336,14501,2,0,L|400:232,1,95.9999970703126,10|0,0:0|0:0,0:0:0:0:
232,48,15046,2,0,P|256:80|280:96,1,47.9999985351563,0|0,0:0|0:0,0:0:0:0:
208,176,15319,6,0,P|192:144|136:112,1,95.9999970703126,10|0,0:0|0:0,0:0:0:0:
72,64,15728,1,2,0:0:0:0:
24,136,15864,2,0,P|32:160|48:200,1,47.9999985351563,2|0,0:0|0:0,0:0:0:0:
104,240,16137,1,0,0:0:0:0:
192,216,16273,1,2,0:0:0:0:
248,296,16410,2,0,P|259:316|273:336,1,47.9999985351563,10|0,0:0|0:0,0:0:0:0:
336,264,16682,2,0,P|344:232|344:200,1,47.9999985351563,2|0,0:0|0:0,0:0:0:0:
280,88,16955,6,0,P|304:104|384:96,1,95.9999970703126,14|0,0:0|0:0,0:0:0:0:
336,16,17364,1,2,0:0:0:0:
192,72,17501,2,0,P|200:104|208:128,1,47.9999985351563,2|0,0:0|0:0,0:0:0:0:
120,232,17773,6,0,P|120:184|112:128,2,95.9999970703126,10|0|0,0:0|0:0|0:0,0:0:0:0:
80,320,18455,1,0,0:0:0:0:
80,320,18592,2,0,L|192:312,1,95.9999970703126,10|0,0:0|0:0,0:0:0:0:
264,352,19001,1,0,0:0:0:0:
344,304,19137,2,0,L|336:248,1,47.9999985351563,2|0,0:0|0:0,0:0:0:0:
280,176,19410,5,10,0:0:0:0:
320,104,19546,1,0,0:0:0:0:
264,32,19682,1,0,0:0:0:0:
400,56,19819,1,0,0:0:0:0:
440,136,19955,2,0,P|462:144|484:153,1,47.9999985351563,2|2,0:0|0:0,0:0:0:0:
432,240,20228,6,0,P|440:304|448:344,1,95.9999970703126,14|0,0:0|0:0,0:0:0:0:
352,344,20637,1,0,0:0:0:0:
352,344,20773,2,0,P|344:312|344:280,1,47.9999985351563,2|0,0:0|0:0,0:0:0:0:
264,240,21046,6,0,B|224:248|168:241,1,95.9999970703126,10|0,0:0|0:0,0:0:0:0:
96,176,21455,1,0,0:0:0:0:
200,136,21592,2,0,P|208:104|200:72,1,47.9999985351563
102,80,21864,6,0,L|94:192,1,95.9999970703126,10|0,0:0|0:0,0:0:0:0:
168,241,22273,1,0,0:0:0:0:
80,288,22410,2,0,P|80:312|88:344,1,47.9999985351563,2|0,0:0|0:0,0:0:0:0:
172,288,22682,6,0,P|172:256|164:232,1,47.9999985351563,10|0,0:0|0:0,0:0:0:0:
95,175,22955,2,0,L|47:183,1,47.9999985351563
102,80,23228,2,0,L|150:88,1,47.9999985351563
248,144,23501,6,0,P|240:96|264:40,1,95.9999970703126,14|0,0:0|0:0,0:0:0:0:
336,104,23910,1,0,0:0:0:0:
248,144,24046,2,0,P|192:144|184:144,1,47.9999985351563
102,80,24319,6,0,P|110:112|110:176,2,95.9999970703126,10|0|0,0:0|0:0|0:0,0:0:0:0:
56,336,25137,6,0,P|48:296|48:232,2,95.9999970703126,10|0|0,0:0|0:0|0:0,0:0:0:0:
112,160,25955,5,6,0:0:0:0:
104,152,26228,1,6,0:0:0:0:
96,144,26501,2,0,L|176:152,1,60.0000022888184,6|0,0:0|0:0,0:0:0:0:
272,120,26773,6,0,P|280:184|288:280,1,136.000002593994,14|0,0:0|0:0,0:0:0:0:
328,352,27182,1,0,0:0:0:0:
400,280,27319,2,0,L|488:288,1,68.0000012969971,2|0,0:0|0:0,0:0:0:0:
440,176,27592,6,0,L|344:168,1,68.0000012969971,10|0,0:0|0:0,0:0:0:0:
286,255,27864,1,0,0:0:0:0:
208,192,28001,1,0,0:0:0:0:
272,120,28137,2,0,B|256:88|256:88|269:53,1,68.0000012969971,2|0,0:0|0:0,0:0:0:0:
176,32,28410,6,0,L|40:38,1,136.000002593994,10|0,0:0|0:0,0:0:0:0:
24,136,28819,1,0,0:0:0:0:
24,136,28955,2,0,P|24:176|32:216,1,68.0000012969971,2|0,0:0|0:0,0:0:0:0:
128,320,29228,2,0,P|128:272|112:168,1,136.000002593994,8|0,0:0|0:0,0:0:0:0:
288,72,29773,2,0,P|328:64|368:48,1,68.0000012969971,2|0,0:0|0:0,0:0:0:0:
448,104,30046,6,0,P|440:152|432:248,1,136.000002593994,10|0,0:0|0:0,0:0:0:0:
376,344,30455,1,0,0:0:0:0:
272,280,30592,2,0,P|232:272|192:264,1,68.0000012969971
128,160,30864,6,0,P|192:144|224:152,1,68.0000012969971,10|0,0:0|0:0,0:0:0:0:
160,344,31137,2,0,P|112:336|95:326,1,68.0000012969971
40,232,31410,2,0,P|32:184|40:120,1,102.000001945496
32,88,31682,6,0,B|120:96|80:48|184:72,1,136.000002593994,10|0,0:0|0:0,0:0:0:0:
264,152,32092,1,0,0:0:0:0:
184,208,32228,2,0,P|176:240|184:280,1,68.0000012969971,2|0,0:0|0:0,0:0:0:0:
288,336,32501,2,0,B|384:320|328:368|432:344,2,136.000002593994
448,176,33319,6,0,P|472:120|432:40,1,136.000002593994,14|0,0:0|0:0,0:0:0:0:
336,96,33728,1,0,0:0:0:0:
336,96,33864,2,0,P|328:160|328:192,1,68.0000012969971,0|0,0:0|0:0,0:0:0:0:
240,256,34137,2,0,P|224:176|200:112,2,136.000002593994,0|0|0,0:0|0:0|0:0,0:0:0:0:
264,56,34955,6,0,P|224:40|136:64,1,136.000002593994,10|0,0:0|0:0,0:0:0:0:
80,144,35364,1,0,0:0:0:0:
80,144,35501,2,0,P|32:152|0:152,1,68.0000012969971,2|0,0:0|0:0,0:0:0:0:
137,62,35773,6,0,P|192:56|216:64,1,68.0000012969971,10|0,0:0|0:0,0:0:0:0:
248,176,36046,2,0,P|192:176|168:160,1,68.0000012969971
312,80,36319,2,0,P|352:72|400:88,1,68.0000012969971
456,144,36592,6,0,B|480:216|424:216|445:287|445:287|496:248,1,204.000003890991,14|0,0:0|0:0,0:0:0:0:
368,176,37137,2,0,P|334:183|301:181,1,68.0000012969971
200,96,37410,6,0,B|136:80|88:96|88:96|72:144|104:184,1,204.000003890991,10|0,0:0|0:0,0:0:0:0:
160,240,37955,2,0,P|184:192|176:152,1,68.0000012969971,2|0,0:0|0:0,0:0:0:0:
96,296,38228,6,0,B|152:352|224:304|224:304|288:336|344:312|344:312|296:288|280:240,1,340.000006484985,14|0,0:0|0:0,0:0:0:0:
352,208,39046,6,0,P|400:248|368:128,1,340.000006484985,14|0,0:0|0:0,0:0:0:0:
312,32,39864,6,0,B|272:48|272:48|232:32|232:32|192:48|192:48|128:32,1,176.000005371094,4|0,0:0|0:0,0:0:0:0:
32,96,40273,6,0,B|64:128|64:128|48:264,1,160,4|0,0:0|0:0,0:0:0:0:
120,328,40682,6,0,P|168:304|231:313,1,107.999996704102,4|0,0:0|0:0,0:0:0:0:
256,328,40955,2,0,P|312:344|372:327,1,96,4|0,0:0|0:0,0:0:0:0:
376,312,41228,2,0,L|368:251,1,47.9999985351563,10|0,0:0|0:0,0:0:0:0:
448,176,41501,6,0,L|456:224,1,47.9999985351563,10|0,0:0|0:0,0:0:0:0:
352,168,41773,2,0,L|344:104,1,47.9999985351563
368,32,42046,2,0,P|336:32|304:40,1,47.9999985351563,2|0,0:0|0:0,0:0:0:0:
200,112,42319,6,0,P|232:112|264:104,1,47.9999985351563,10|0,0:0|0:0,0:0:0:0:
136,40,42592,2,0,P|106:35|83:38,1,47.9999985351563,2|0,0:0|0:0,0:0:0:0:
32,120,42864,1,0,0:0:0:0:
416,352,43137,6,0,B|376:264|376:264|416:184,1,176.000005371094,4|0,0:0|0:0,0:0:0:0:
432,64,43546,6,0,L|250:101,1,160,4|0,0:0|0:0,0:0:0:0:
176,32,43955,6,0,P|128:16|56:48,1,107.999996704102,4|0,0:0|0:0,0:0:0:0:
40,64,44228,2,0,L|48:160,1,96,4|0,0:0|0:0,0:0:0:0:
80,184,44501,2,0,L|72:232,1,47.9999985351563,10|0,0:0|0:0,0:0:0:0:
136,304,44773,6,0,P|168:296|192:296,1,47.9999985351563,10|0,0:0|0:0,0:0:0:0:
312,352,45046,2,0,P|288:349|264:343,1,47.9999985351563
392,296,45319,2,0,L|384:192,2,95.9999970703126,10|2|2,0:0|0:0|0:0,0:0:0:0:
384,200,46137,1,8,0:0:0:0:
192,40,46410,5,14,0:0:0:0:
208,56,46682,1,0,0:0:0:0:
224,72,46955,1,0,0:0:0:0:
248,344,47228,5,10,0:0:0:0:
264,328,47501,1,0,0:0:0:0:
280,312,47773,1,0,0:0:0:0:
445,133,48046,6,0,L|461:285,1,143.999995605469,10|0,0:0|0:0,0:0:0:0:
384,336,48455,1,0,0:0:0:0:
384,336,48592,2,0,L|264:328,1,107.999996704102
232,320,48864,6,0,P|223:285|232:248,1,71.9999978027344,10|0,0:0|0:0,0:0:0:0:
304,176,49137,2,0,P|312:128|288:88,1,71.9999978027344
192,48,49410,2,0,L|66:38,1,107.999996704102
72,48,49682,6,0,P|128:64|200:112,1,143.999995605469,10|0,0:0|0:0,0:0:0:0:
304,176,50092,1,0,0:0:0:0:
432,216,50228,2,0,B|424:184|424:184|432:144,1,71.9999978027344,2|0,0:0|0:0,0:0:0:0:
416,16,50501,6,0,P|328:40|256:56,1,143.999995605469,10|0,0:0|0:0,0:0:0:0:
198,111,50910,1,0,0:0:0:0:
198,111,51046,2,0,P|126:103|102:95,1,71.9999978027344,2|0,0:0|0:0,0:0:0:0:
40,176,51319,6,0,B|72:216|72:216|48:320,2,143.999995605469,10|0|0,0:0|0:0|0:0,0:0:0:0:
126,103,52001,1,0,0:0:0:0:
200,200,52137,6,0,B|288:168|288:248|351:198|351:198|327:182|319:142,1,215.999993408203,10|0,0:0|0:0,0:0:0:0:
400,80,52682,2,0,P|440:72|488:88,1,71.9999978027344,2|0,0:0|0:0,0:0:0:0:
440,160,52955,1,14,0:0:0:0:
256,192,53023,12,0,56228,0:0:0:0:
88,96,56728,6,0,P|152:88|208:80,1,96,2|0,0:0|0:0,0:0:0:0:
216,128,57013,6,0,L|88:144,1,107.999996704102,0|0,0:0|0:0,0:0:0:0:
112,192,57299,6,0,L|224:176,1,96,0|0,0:0|0:0,0:0:0:0:
224,216,57585,6,0,L|120:232,1,83.9999974365235,2|0,0:0|0:0,0:0:0:0:
72,285,57865,6,0,L|247:258,1,160,14|0,0:0|0:0,0:0:0:0:
169,384,58274,1,8,0:0:0:0:
72,285,58410,2,0,B|63:241|63:241|72:181,1,80,0|0,0:0|0:0,0:0:0:0:
203,99,58683,2,0,B|212:143|212:143|203:203,1,80,10|0,0:0|0:0,0:0:0:0:
25,138,58955,2,0,P|66:128|113:137,1,80,8|0,0:0|0:0,0:0:0:0:
249,243,59228,2,0,P|208:253|161:244,1,80,8|0,0:0|0:0,0:0:0:0:
138,42,59501,6,0,B|185:17|185:17|261:31,1,120,14|0,0:0|0:0,0:0:0:0:
268,34,59774,2,0,B|312:39|312:39|352:29,1,80,0|0,0:0|0:0,0:0:0:0:
432,156,60046,2,0,B|388:151|388:151|348:161,1,80,8|0,0:0|0:0,0:0:0:0:
289,306,60319,1,10,0:0:0:0:
391,235,60455,1,0,0:0:0:0:
230,188,60592,2,0,L|139:192,1,80,8|0,0:0|0:0,0:0:0:0:
14,102,60865,2,0,L|93:98,1,80,8|0,0:0|0:0,0:0:0:0:
194,272,61137,6,0,L|47:278,1,120,14|0,0:0|0:0,0:0:0:0:
49,294,61410,2,0,P|55:335|38:377,1,80,0|8,0:0|0:0,0:0:0:0:
194,272,61683,2,0,P|188:231|205:189,1,80,0|2,0:0|0:0,0:0:0:0:
372,221,61955,2,0,L|373:386,1,160,10|8,0:0|0:0,0:0:0:0:
289,295,62365,1,0,0:0:0:0:
456,295,62501,2,0,L|455:179,1,80,8|0,0:0|0:0,0:0:0:0:
279,115,62774,6,0,B|336:130|366:86|366:86|393:79|442:97,2,160,14|0|8,0:0|0:0|0:0,0:0:0:0:
167,53,63455,1,0,0:0:0:0:
107,207,63592,2,0,B|151:278|80:294|126:366,1,160,10|8,0:0|0:0,0:0:0:0:
37,260,64001,1,0,0:0:0:0:
199,315,64137,1,0,0:0:0:0:
29,370,64274,1,2,0:0:0:0:
232,237,64410,6,0,P|267:265|283:312,1,80,14|0,0:0|0:0,0:0:0:0:
242,158,64683,2,0,P|197:164|160:197,1,80,0|0,0:0|0:0,0:0:0:0:
108,238,64955,2,0,P|91:196|101:147,1,80,8|0,0:0|0:0,0:0:0:0:
251,78,65228,6,0,L|240:173,1,80,10|0,0:0|0:0,0:0:0:0:
86,82,65501,2,0,L|97:177,1,80,8|0,0:0|0:0,0:0:0:0:
242,158,65774,2,0,L|231:253,1,80,8|0,0:0|0:0,0:0:0:0:
301,376,66046,6,0,P|341:356|364:307,1,80,14|0,0:0|0:0,0:0:0:0:
346,160,66319,2,0,P|343:204|374:249,1,80,0|8,0:0|0:0,0:0:0:0:
509,307,66592,2,0,P|471:282|417:286,1,80,0|2,0:0|0:0,0:0:0:0:
279,242,66865,6,0,L|367:234,1,80,10|0,0:0|0:0,0:0:0:0:
503,192,67137,2,0,L|415:184,1,80,8|0,0:0|0:0,0:0:0:0:
324,78,67410,2,0,L|316:166,1,80,8|8,0:0|0:0,0:0:0:0:
164,309,67683,6,0,B|90:347|79:275|4:316,2,160,14|0|0,0:0|0:0|0:0,0:0:0:0:
279,242,68364,1,2,0:0:0:0:
437,374,68501,2,0,P|479:296|435:221,1,160,14|0,0:0|0:0,0:0:0:0:
367,152,68910,1,8,0:0:0:0:
328,300,69046,2,0,P|375:307|417:292,1,80,0|2,0:0|0:0,0:0:0:0:
213,145,69319,6,0,L|28:148,1,160,14|0,0:0|0:0,0:0:0:0:
142,276,69728,1,8,0:0:0:0:
292,143,69865,6,0,L|176:144,1,80,8|2,0:0|0:0,0:0:0:0:
356,256,70137,2,0,P|398:225|419:179,1,80,14|0,0:0|0:0,0:0:0:0:
212,144,70410,2,0,L|210:259,1,80,8|0,0:0|0:0,0:0:0:0:
99,80,70682,2,0,P|130:38|176:17,1,80,8|0,0:0|0:0,0:0:0:0:
279,276,70955,6,0,L|102:279,1,160,14|0,0:0|0:0,0:0:0:0:
206,384,71365,1,8,0:0:0:0:
279,276,71501,2,0,L|277:179,1,80,0|0,0:0|0:0,0:0:0:0:
401,96,71774,2,0,L|402:175,1,80,10|0,0:0|0:0,0:0:0:0:
225,137,72046,2,0,P|262:118|307:124,1,80,8|0,0:0|0:0,0:0:0:0:
454,233,72319,2,0,P|417:252|372:246,1,80,8|0,0:0|0:0,0:0:0:0:
163,186,72592,6,0,B|148:136|148:136|165:46,1,120,14|0,0:0|0:0,0:0:0:0:
171,44,72865,2,0,L|74:42,1,80,0|0,0:0|0:0,0:0:0:0:
83,184,73137,2,0,L|162:185,1,80,8|0,0:0|0:0,0:0:0:0:
311,264,73410,1,10,0:0:0:0:
263,161,73546,1,0,0:0:0:0:
233,317,73683,2,0,P|270:348|324:354,1,80,8|0,0:0|0:0,0:0:0:0:
444,251,73955,2,0,P|407:220|353:214,1,80,8|2,0:0|0:0,0:0:0:0:
196,113,74228,6,0,P|242:85|320:101,1,120,14|0,0:0|0:0,0:0:0:0:
327,94,74501,2,0,P|334:46|319:12,1,80,0|8,0:0|0:0,0:0:0:0:
196,113,74774,2,0,P|188:160|203:194,1,80,8|2,0:0|0:0,0:0:0:0:
378,290,75046,2,0,L|212:293,1,160,10|8,0:0|0:0,0:0:0:0:
120,351,75455,1,0,0:0:0:0:
120,190,75592,2,0,L|230:187,1,80,8|0,0:0|0:0,0:0:0:0:
364,93,75865,6,0,P|299:65|220:108,2,160,4|0|0,0:0|0:0|0:0,0:0:0:0:
371,226,76546,1,0,0:0:0:0:
199,188,76683,2,0,P|141:135|144:58,1,160,10|8,0:0|0:0,0:0:0:0:
223,102,77092,1,0,0:0:0:0:
97,206,77228,2,0,L|-19:203,1,80,8|2,0:0|0:0,0:0:0:0:
78,369,77501,6,0,L|247:373,1,160,14|0,0:0|0:0,0:0:0:0:
340,323,77910,1,2,0:0:0:0:
254,242,78046,2,0,P|246:199|256:156,1,80,0|8,0:0|0:0,0:0:0:0:
416,89,78319,6,0,L|404:170,1,80,14|0,0:0|0:0,0:0:0:0:
467,306,78592,2,0,L|402:255,1,80,10|0,0:0|0:0,0:0:0:0:
254,242,78865,2,0,L|330:211,1,80,8|0,0:0|0:0,0:0:0:0:
246,379,79137,6,0,P|199:382|156:360,1,80,14|0,0:0|0:0,0:0:0:0:
138,202,79410,2,0,P|164:241|166:289,1,80,8|0,0:0|0:0,0:0:0:0:
39,384,79683,2,0,P|59:341|100:315,1,80,10|0,0:0|0:0,0:0:0:0:
210,155,79955,6,0,P|168:126|60:161,1,160,10|8,0:0|0:0,0:0:0:0:
4,256,80365,1,0,0:0:0:0:
68,150,80501,2,0,P|73:105|61:62,1,80,8|2,0:0|0:0,0:0:0:0:
210,155,80774,2,0,B|266:167|266:167|370:131,1,160,14|0,0:0|0:0,0:0:0:0:
259,78,81183,1,8,0:0:0:0:
320,229,81319,2,0,L|413:198,1,80,0|2,0:0|0:0,0:0:0:0:
335,384,81592,6,0,L|160:325,1,160,14|8,0:0|0:0,0:0:0:0:
79,270,82001,1,8,0:0:0:0:
222,182,82137,2,0,P|232:226|220:274,1,80,0|2,0:0|0:0,0:0:0:0:
133,109,82410,2,0,P|175:72|287:91,1,160,14|0,0:0|0:0,0:0:0:0:
360,184,82819,1,8,0:0:0:0:
222,182,82955,1,0,0:0:0:0:
353,101,83092,1,2,0:0:0:0:
260,264,83228,6,0,P|209:271|132:196,2,160,14|0|8,0:0|0:0|0:0,0:0:0:0:
222,182,83910,1,4,0:0:0:0:
64,144,84046,6,0,P|48:176|56:240,1,80,14|0,0:0|0:0,0:0:0:0:
222,182,84319,2,0,P|222:142|190:78,1,80,10|0,0:0|0:0,0:0:0:0:
320,32,84592,2,0,L|424:32,1,80,8|0,0:0|0:0,0:0:0:0:
472,152,84865,2,0,L|384:152,1,80,8|0,0:0|0:0,0:0:0:0:
312,240,85137,2,0,P|306:279|314:318,1,80,12|0,0:0|0:0,0:0:0:0:
416,272,85410,1,12,0:0:0:0:
392,152,85546,1,0,0:0:0:0:
232,192,85683,6,0,P|168:176|56:160,1,160,14|8,0:0|0:0,0:0:0:0:
8,8,86092,2,0,P|56:32|96:48,1,80
200,80,86365,1,8,0:0:0:0:
75,161,86501,2,0,P|67:209|67:249,1,80,14|0,0:0|0:0,0:0:0:0:
264,360,86774,2,0,P|272:304|272:256,1,80,8|0,0:0|0:0,0:0:0:0:
8,296,87046,2,0,P|48:320|88:320,1,80,8|0,0:0|0:0,0:0:0:0:
360,272,87319,6,0,P|304:200|224:208,1,160,14|14,0:0|0:0,0:0:0:0:
66,240,87728,1,0,0:0:0:0:
241,199,87865,2,0,L|225:95,1,80,8|0,0:0|0:0,0:0:0:0:
104,64,88137,2,0,L|120:144,1,80,14|0,0:0|0:0,0:0:0:0:
168,344,88410,2,0,L|153:265,1,80,14|0,0:0|0:0,0:0:0:0:
315,43,88683,2,0,L|330:128,1,80,14|0,0:0|0:0,0:0:0:0:
241,199,88955,5,14,0:0:0:0:
