osu file format v14

[General]
AudioFilename: audio.mp3
AudioLeadIn: 0
PreviewTime: 56645
Countdown: 0
SampleSet: Soft
StackLeniency: 0.2
Mode: 0
LetterboxInBreaks: 0
WidescreenStoryboard: 1

[Editor]
Bookmarks: 39872
DistanceSpacing: 1.6
BeatDivisor: 4
GridSize: 8
TimelineZoom: 3.199999

[Metadata]
Title:Katayoku no Tori
TitleUnicode:片翼の鳥
Artist:Shikata Akiko
ArtistUnicode:志方あきこ
Creator:tohooz
Version:Insane
Source:Umineko no Naku Koro ni
Tags:Umineko tv size
BeatmapID:1532241
BeatmapSetID:717364

[Difficulty]
HPDrainRate:5
CircleSize:4
OverallDifficulty:8
ApproachRate:9
SliderMultiplier:1.7
SliderTickRate:1

[Events]
//Background and Video events
0,0,"UminekoBG.jpg",0,0
//Break Periods
//Storyboard Layer 0 (Background)
//Storyboard Layer 1 (Fail)
//Storyboard Layer 2 (Pass)
//Storyboard Layer 3 (Foreground)
//Storyboard Sound Samples

[TimingPoints]
600,272.727272727273,3,2,1,30,1,0
13690,-133.333333333333,3,2,1,30,0,0
25963,-111.111111111111,3,2,1,30,0,0
26781,-125,3,2,1,30,0,0
39872,-90.9090909090909,3,2,1,30,0,0
41509,-125,3,2,1,30,0,0
43145,-90.9090909090909,3,2,1,30,0,0
44781,-125,3,2,1,30,0,0
46418,-111.111111111111,3,2,1,30,0,0
55895,-111.111111111111,3,2,1,10,0,0
57872,-90.9090909090908,3,2,1,40,0,1
84054,-90.9090909090908,3,2,1,40,0,0

[HitObjects]
35,344,463,5,0,0:0:0:0:
35,344,531,1,0,0:0:0:0:
35,344,600,2,0,B|106:350|106:350|139:345|139:345|204:350,1,170,2|0,0:0|0:0,0:0:0:0:
358,272,1009,2,0,B|230:260|230:260|254:252|266:240,1,170,2|0,0:0|0:0,0:0:0:0:
324,133,1418,6,0,L|408:140,1,85,8|0,0:0|0:0,0:0:0:0:
202,171,1690,2,0,L|117:162,1,85,8|0,0:0|0:0,0:0:0:0:
230,46,1963,1,8,0:0:0:0:
461,46,2236,6,0,P|512:111|501:194,1,170,2|0,0:0|0:0,0:0:0:0:
364,209,2645,2,0,B|369:241|358:272|358:272|371:306|371:306|360:337|364:374,1,170,2|0,0:0|0:0,0:0:0:0:
250,316,3054,6,0,P|212:300|170:305,1,85,8|0,0:0|0:0,0:0:0:0:
81,370,3327,2,0,P|39:375|1:359,1,85,8|0,0:0|0:0,0:0:0:0:
2,166,3600,1,8,0:0:0:0:
53,282,3736,1,0,0:0:0:0:
130,173,3872,6,0,B|126:136|137:105|137:105|124:71|124:71|135:40|130:8,1,170,2|0,0:0|0:0,0:0:0:0:
220,93,4281,2,0,P|295:127|373:99,1,170,2|0,0:0|0:0,0:0:0:0:
443,0,4690,2,0,L|452:103,1,85,8|0,0:0|0:0,0:0:0:0:
512,171,4963,2,0,L|502:274,1,85,8|0,0:0|0:0,0:0:0:0:
443,342,5236,1,8,0:0:0:0:
202,260,5509,6,0,P|178:325|253:294,1,170,10|0,0:0|0:0,0:0:0:0:
289,196,5918,1,2,0:0:0:0:
191,153,6054,2,0,P|142:160|92:147,1,85
19,95,6327,6,0,P|12:46|25:-4,1,85,8|0,0:0|0:0,0:0:0:0:
279,11,6600,2,0,P|286:53|279:95,1,85,8|0,0:0|0:0,0:0:0:0:
147,53,6872,1,8,0:0:0:0:
191,153,7009,1,0,0:0:0:0:
306,0,7145,6,0,B|362:32|362:32|474:32,1,170,10|0,0:0|0:0,0:0:0:0:
367,122,7554,2,0,P|335:198|362:277,1,170,2|0,0:0|0:0,0:0:0:0:
463,367,7963,6,0,L|293:367,1,170,8|0,0:0|0:0,0:0:0:0:
123,367,8509,1,8,0:0:0:0:
222,134,8781,6,0,B|227:197|227:197|214:231|214:231|220:302,1,170,10|0,0:0|0:0,0:0:0:0:
123,367,9190,2,0,B|111:239|111:239|102:260|86:272,1,170,2|0,0:0|0:0,0:0:0:0:
52,148,9600,6,0,L|171:137,1,85,8|0,0:0|0:0,0:0:0:0:
275,22,9872,2,0,L|155:32,1,85,8|0,0:0|0:0,0:0:0:0:
222,134,10145,1,8,0:0:0:0:
105,36,10281,1,0,0:0:0:0:
312,108,10418,6,0,B|358:86|367:39|367:39|404:60|458:61,1,170,10|0,0:0|0:0,0:0:0:0:
499,197,10827,2,0,B|487:260|499:325|499:325|483:309|464:302,1,170,2|0,0:0|0:0,0:0:0:0:
363,237,11236,2,0,P|284:256|251:331,1,170,10|0,0:0|0:0,0:0:0:0:
343,329,11645,1,0,0:0:0:0:
189,384,11781,2,0,L|85:374,1,85,2|0,0:0|0:0,0:0:0:0:
20,200,12054,6,0,B|25:263|25:263|13:304|13:304|18:367,1,170,10|0,0:0|0:0,0:0:0:0:
126,270,12463,1,0,0:0:0:0:
114,142,12600,2,0,L|106:57,1,85,2|0,0:0|0:0,0:0:0:0:
230,195,12872,2,0,P|271:208|313:201,1,85,8|0,0:0|0:0,0:0:0:0:
471,24,13145,2,0,P|430:11|388:18,1,85,8|0,0:0|0:0,0:0:0:0:
277,115,13418,1,8,0:0:0:0:
424,104,13554,1,0,0:0:0:0:
311,200,13690,6,0,P|290:260|306:321,1,127.500004863739,2|0,0:0|0:0,0:0:0:0:
396,264,14236,1,0,0:0:0:0:
277,115,14509,6,0,P|217:94|156:110,1,127.500004863739
106,203,15054,1,0,0:0:0:0:
213,200,15191,1,0,0:0:0:0:
54,142,15327,6,0,P|27:199|47:257,1,127.500004863739
106,203,15736,1,0,0:0:0:0:
162,294,15872,2,0,P|171:329|164:367,1,63.7500024318696
253,384,16145,6,0,P|284:386|315:378,1,63.7500024318696
406,287,16418,2,0,P|397:322|404:360,1,63.7500024318696
490,326,16690,1,0,0:0:0:0:
482,234,16827,1,0,0:0:0:0:
399,195,16963,6,0,P|361:144|358:81,1,127.500004863739
461,109,17372,1,0,0:0:0:0:
396,0,17509,2,0,P|365:8|333:6,1,63.7500024318696
250,78,17781,5,0,0:0:0:0:
145,40,17918,1,0,0:0:0:0:
164,148,18054,6,0,P|160:210|123:261,1,127.500004863739
60,176,18463,1,0,0:0:0:0:
38,326,18600,6,0,P|88:363|151:366,1,127.500004863739
242,311,19009,1,0,0:0:0:0:
334,361,19145,2,0,P|365:369|397:367,1,63.7500024318696
498,218,19418,6,0,P|500:250|493:281,1,63.7500024318696
401,163,19690,2,0,P|398:131|406:100,1,63.7500024318696
490,140,19963,1,0,0:0:0:0:
409,241,20100,1,0,0:0:0:0:
405,100,20236,6,0,P|350:68|289:77,1,127.500004863739
239,156,20645,1,0,0:3:0:0:
333,160,20781,1,0,0:0:0:0:
282,239,20918,1,0,0:0:0:0:
188,234,21054,6,0,P|156:230|125:237,1,63.7500024318696
44,341,21327,2,0,L|27:273,1,63.7500024318696
43,134,21600,2,0,L|26:202,1,63.7500024318696
132,156,21872,6,0,P|128:93|83:49,1,127.500004863739
43,134,22281,1,0,0:0:0:0:
132,156,22418,1,0,0:0:0:0:
188,234,22554,1,0,0:0:0:0:
201,333,22690,6,0,P|232:341|264:342,1,63.7500024318696
402,244,22963,2,0,P|371:236|339:235,1,63.7500024318696
354,342,23236,1,0,0:0:0:0:
463,335,23372,1,0,0:0:0:0:
512,238,23509,6,0,P|485:180|487:117,1,127.500004863739
511,19,23918,1,0,0:0:0:0:
414,47,24054,2,0,P|382:46|352:39,1,63.7500024318696
254,9,24327,6,0,P|223:1|191:0,1,63.7500024318696
58,168,24600,2,0,P|88:175|120:176,1,63.7500024318696
205,106,24872,1,0,0:0:0:0:
107,71,25009,1,0,0:0:0:0:
205,188,25145,6,0,P|223:249|204:309,1,127.500004863739
117,248,25554,1,0,0:0:0:0:
30,309,25690,2,0,P|22:339|21:371,1,63.7500024318696
204,308,25963,6,0,B|268:308|268:308|292:316|292:316|356:316,2,152.999995330811,4|0|0,0:0|0:0|0:0,0:0:0:0:
117,248,26645,1,4,0:0:0:0:
204,187,26781,6,0,P|268:207|333:188,1,136,4|0,0:0|0:0,0:0:0:0:
394,118,27190,1,0,0:0:0:0:
414,219,27327,1,0,0:0:0:0:
269,99,27600,6,0,P|262:65|269:32,1,68
482,85,27872,2,0,P|488:118|482:151,1,68
414,219,28145,1,0,0:0:0:0:
434,320,28281,1,0,0:0:0:0:
335,285,28418,6,0,P|273:261|211:284,1,136
271,355,28827,1,0,0:0:0:0:
180,370,28963,2,0,P|146:376|113:370,1,68
16,264,29236,6,0,L|23:351,1,68
108,267,29509,2,0,L|100:179,1,68
155,120,29781,1,0,0:0:0:0:
36,131,29918,1,0,0:0:0:0:
90,52,30054,6,0,P|151:27|214:48,1,136
247,137,30463,1,0,0:0:0:0:
307,65,30600,2,0,P|341:70|374:65,1,68
480,0,30872,6,0,L|473:79,1,68
422,151,31145,2,0,L|428:230,1,68
480,302,31418,1,0,0:0:0:0:
400,367,31554,1,0,0:0:0:0:
302,329,31690,6,0,P|238:312|172:328,1,136
87,384,32100,1,0,0:0:0:0:
17,287,32236,2,0,P|9:254|12:220,1,68
101,248,32509,6,0,P|134:251|167:243,1,68
262,64,32781,2,0,P|228:60|195:68,1,68
129,159,33054,1,0,0:0:0:0:
234,153,33190,1,0,0:0:0:0:
105,68,33327,6,0,P|52:107|37:172,1,136
129,159,33736,1,0,0:0:0:0:
167,243,33872,2,0,L|159:330,1,68
247,376,34145,6,0,P|280:383|314:379,1,68
408,368,34418,2,0,P|397:335|377:308,1,68
322,232,34690,2,0,P|299:257|286:289,1,68
414,221,34963,6,0,P|385:162|323:138,1,136
322,232,35372,1,0,0:0:0:0:
240,183,35509,2,0,P|231:151|233:117,1,68
369,45,35781,6,0,L|289:38,1,68
165,111,36054,2,0,L|244:117,1,68
83,67,36327,2,0,P|73:100|76:134,1,68
140,200,36600,6,0,P|79:226|17:203,1,136
165,111,37009,1,0,0:0:0:0:
205,265,37145,1,0,0:0:0:0:
412,119,37418,6,0,P|438:180|415:242,1,136
344,182,37827,1,0,0:0:0:0:
397,334,37963,2,0,P|431:336|463:324,1,68
326,274,38236,6,0,B|298:311|310:363|310:363|284:351|249:348,1,136
152,329,38645,2,0,P|90:355|28:332,1,136
87,261,39054,6,0,L|75:125,1,136
201,11,39600,1,0,0:0:0:0:
66,23,39737,1,0,0:0:0:0:
210,113,39872,6,0,B|289:106|289:106|320:87|320:87|391:81,1,187.000005706787,6|0,0:0|0:0,0:0:0:0:
415,153,40281,2,0,B|344:159|344:159|313:178|313:178|234:185,1,187.000005706787,6|0,0:0|0:0,0:0:0:0:
258,255,40690,6,0,L|351:246,1,93.5000028533936,6|0,0:0|0:0,0:0:0:0:
375,317,40963,2,0,L|282:326,1,93.5000028533936,6|0,0:0|0:0,0:0:0:0:
188,334,41236,1,8,0:0:0:0:
402,194,41509,6,0,B|445:249|452:365|452:365|405:321|351:312,1,272
310,188,42327,2,0,P|397:100|494:177,1,272
258,255,43145,6,0,B|220:244|188:249|188:249|157:230|157:230|125:235|77:223,1,187.000005706787,6|0,0:0|0:0,0:0:0:0:
15,125,43554,2,0,B|63:137|95:132|95:132|126:151|126:151|158:146|196:157,1,187.000005706787,6|0,0:0|0:0,0:0:0:0:
77,222,43963,6,0,P|60:266|65:312,1,93.5000028533936,6|0,0:0|0:0,0:0:0:0:
195,156,44236,2,0,P|211:112|206:66,1,93.5000028533936,6|0,0:0|0:0,0:0:0:0:
114,15,44509,1,8,0:0:0:0:
337,50,44781,6,0,B|418:73|489:7|489:7|472:68|489:124,1,272
411,267,45600,6,0,P|391:202|408:137,2,136
497,303,46418,6,0,P|444:355|370:350,1,152.999995330811,4|0,0:0|0:0,0:0:0:0:
317,272,46963,1,0,0:0:0:0:
178,241,47236,6,0,P|230:294|225:368,1,152.999995330811
142,326,47781,1,0,0:0:0:0:
63,154,48054,6,0,B|126:148|126:148|149:138|149:138|213:132,1,152.999995330811
315,123,48463,1,0,0:0:0:0:
271,215,48600,1,0,0:0:0:0:
269,40,48872,6,0,P|342:32|399:81,1,152.999995330811
392,174,49418,1,0,0:0:0:0:
213,132,49690,6,0,P|168:71|173:-3,1,152.999995330811
269,40,50100,1,0,0:0:0:0:
315,123,50236,1,0,0:0:0:0:
182,296,50509,6,0,P|121:341|47:336,1,152.999995330811
90,240,50919,1,0,0:0:0:0:
184,188,51054,1,0,0:0:0:0:
304,352,51327,6,0,B|423:362|423:362|394:327,1,152.999995330811
340,253,51736,1,0,0:0:0:0:
443,239,51872,2,0,P|480:231|511:209,1,76.4999976654053
444,145,52145,6,0,B|388:140|388:140|349:120|349:120|293:115,1,152.999995330811
181,104,52690,1,0,0:0:0:0:
296,24,52963,6,0,L|463:38,1,152.999995330811
296,115,53509,1,0,0:0:0:0:
181,13,53781,6,0,L|13:27,1,152.999995330811
181,104,54327,1,0,0:0:0:0:
37,196,54600,1,12,0:0:0:0:
256,192,54668,12,0,55895,0:0:0:0:
488,56,57872,6,0,B|481:135|481:135|455:157|455:157|448:237,1,187.000005706787,6|0,0:0|0:0,0:0:0:0:
435,369,58281,1,0,0:0:0:0:
321,288,58418,2,0,P|276:277|229:281,1,93.5000028533936
128,376,58690,6,0,L|137:272,1,93.5000028533936,8|0,0:0|0:0,0:0:0:0:
67,248,58963,2,0,L|76:144,1,93.5000028533936,8|0,0:0|0:0,0:0:0:0:
6,120,59236,2,0,L|15:16,1,93.5000028533936,8|0,0:0|0:0,0:0:0:0:
75,154,59509,6,0,P|156:193|238:155,1,187.000005706787,6|0,0:0|0:0,0:0:0:0:
157,87,59918,1,0,0:0:0:0:
255,49,60054,2,0,P|298:67|330:101,1,93.5000028533936
422,199,60327,6,0,L|328:207,1,93.5000028533936,8|0,0:0|0:0,0:0:0:0:
147,290,60600,2,0,L|240:298,1,93.5000028533936,8|0,0:0|0:0,0:0:0:0:
333,306,60872,1,8,0:0:0:0:
235,215,61009,1,0,0:0:0:0:
422,199,61145,6,0,P|470:277|457:367,1,187.000005706787,6|0,0:0|0:0,0:0:0:0:
333,306,61554,1,0,0:0:0:0:
226,384,61690,2,0,L|133:376,1,93.5000028533936
32,255,61963,6,0,P|13:298|18:344,1,93.5000028533936,8|0,0:0|0:0,0:0:0:0:
131,215,62236,2,0,P|149:172|144:126,1,93.5000028533936,8|0,0:0|0:0,0:0:0:0:
16,46,62509,1,8,0:0:0:0:
58,157,62645,1,0,0:0:0:0:
102,15,62781,6,0,L|195:23,1,93.5000028533936,6|0,0:0|0:0,0:0:0:0:
334,35,63054,1,0,0:0:0:0:
254,150,63190,1,0,0:0:0:0:
394,163,63327,1,0,0:0:0:0:
313,277,63463,1,0,0:0:0:0:
475,212,63600,6,0,P|478:122|406:68,2,187.000005706787,6|0|8,0:0|0:0|0:0,0:0:0:0:
394,163,64281,1,8,0:0:0:0:
313,277,64418,6,0,B|384:283|384:283|423:302|423:302|494:308,1,187.000005706787,6|0,0:0|0:0,0:0:0:0:
370,378,64827,1,0,0:0:0:0:
197,275,64963,1,0,0:0:0:0:
406,68,65236,6,0,L|310:59,1,93.5000028533936,2|0,0:0|0:0,0:0:0:0:
255,123,65509,2,0,L|159:114,1,93.5000028533936,0|2,0:0|0:0,0:0:0:0:
115,42,65781,2,0,L|22:34,1,93.5000028533936,2|0,0:0|0:0,0:0:0:0:
74,150,66054,6,0,P|110:234|69:315,1,187.000005706787,6|0,0:0|0:0,0:0:0:0:
3,231,66463,1,0,0:0:0:0:
0,381,66600,1,0,0:0:0:0:
241,238,66872,6,0,L|344:247,1,93.5000028533936,6|0,0:0|0:0,0:0:0:0:
507,351,67145,2,0,L|403:360,1,93.5000028533936,2|0,0:0|0:0,0:0:0:0:
320,367,67418,1,8,0:0:0:0:
427,254,67554,1,8,0:0:0:0:
241,238,67690,6,0,B|253:208|237:168|237:168|261:144|261:144|245:104|261:64,1,187.000005706787,6|0,0:0|0:0,0:0:0:0:
346,105,68100,1,0,0:0:0:0:
431,1,68236,2,0,L|327:10,1,93.5000028533936
150,25,68509,6,0,P|99:98|132:182,1,187.000005706787,6|0,0:0|0:0,0:0:0:0:
241,238,68918,1,0,0:0:0:0:
88,290,69054,1,0,0:0:0:0:
191,109,69190,1,0,0:0:0:0:
181,325,69327,6,0,P|269:341|337:281,1,187.000005706787,6|0,0:0|0:0,0:0:0:0:
241,238,69736,1,0,0:0:0:0:
393,185,69872,2,0,P|428:217|445:260,1,93.5000028533936
305,158,70145,6,0,P|328:117|368:95,1,93.5000028533936,6|0,0:0|0:0,0:0:0:0:
496,152,70418,2,0,L|486:48,1,93.5000028533936,8|0,0:0|0:0,0:0:0:0:
393,185,70690,1,8,0:0:0:0:
343,6,70827,1,8,0:0:0:0:
214,139,70963,6,0,B|142:145|142:145|101:132|101:132|29:139,1,187.000005706787,6|0,0:0|0:0,0:0:0:0:
72,32,71372,1,0,0:0:0:0:
88,236,71509,2,0,L|97:330,1,93.5000028533936
220,362,71781,6,0,P|266:372|310:359,1,93.5000028533936,10|0,0:0|0:0,0:0:0:0:
482,181,72054,2,0,P|436:171|392:184,1,93.5000028533936,10|0,0:0|0:0,0:0:0:0:
263,279,72327,1,8,0:0:0:0:
439,264,72463,1,0,0:0:0:0:
300,193,72600,6,0,P|265:111|314:36,1,187.000005706787,6|0,0:0|0:0,0:0:0:0:
358,119,73009,1,0,0:0:0:0:
504,16,73145,2,0,L|410:7,1,93.5000028533936
358,119,73418,6,0,L|451:127,1,93.5000028533936,8|0,0:0|0:0,0:0:0:0:
300,193,73690,2,0,L|206:201,1,93.5000028533936,8|0,0:0|0:0,0:0:0:0:
66,213,73963,1,8,0:0:0:0:
125,84,74100,1,0,0:0:0:0:
142,288,74236,6,0,P|194:361|285:366,1,187.000005706787,6|0,0:0|0:0,0:0:0:0:
245,268,74645,1,0,0:0:0:0:
388,280,74781,2,0,L|482:289,1,93.5000028533936,2|0,0:0|0:0,0:0:0:0:
419,110,75054,6,0,P|492:141|437:198,2,187.000005706787,6|0|0,0:0|0:0|0:0,0:0:0:0:
232,96,75872,6,0,L|240:0,1,93.5000028533936,6|0,0:0|0:0,0:0:0:0:
303,155,76145,2,0,P|265:182|219:188,1,93.5000028533936,2|0,0:0|0:0,0:0:0:0:
61,162,76418,2,0,P|98:135|144:129,1,93.5000028533936,2|0,0:0|0:0,0:0:0:0:
124,315,76690,6,0,L|133:222,1,93.5000028533936,10|0,0:0|0:0,0:0:0:0:
213,337,76963,2,0,L|208:383,3,46.7500014266968,2|0|0|0,0:0|0:0|0:0|0:0,0:0:0:0:
298,285,77236,2,0,L|293:331,3,46.7500014266968,6|0|0|0,0:0|0:0|0:0|0:0,0:0:0:0:
373,351,77509,6,0,P|463:344|516:271,1,187.000005706787,6|0,0:0|0:0,0:0:0:0:
411,251,77918,1,0,0:0:0:0:
480,169,78054,1,0,0:0:0:0:
332,34,78327,6,0,B|260:40|260:40|221:59|221:59|150:65,1,187.000005706787,6|0,0:0|0:0,0:0:0:0:
10,77,78736,1,0,0:0:0:0:
90,192,78872,1,0,0:0:0:0:
150,65,79009,1,0,0:0:0:0:
2,165,79145,6,0,P|20:252|103:284,1,187.000005706787,6|0,0:0|0:0,0:0:0:0:
177,225,79554,1,0,0:0:0:0:
263,257,79690,2,0,L|356:248,1,93.5000028533936
413,157,79963,6,0,P|462:233|434:320,1,187.000005706787,8|0,0:0|0:0,0:0:0:0:
306,153,80509,1,8,0:0:0:0:
356,247,80645,1,8,0:0:0:0:
431,68,80781,6,0,B|359:74|359:74|318:61|318:61|246:68,1,187.000005706787,6|0,0:0|0:0,0:0:0:0:
106,80,81190,1,0,0:0:0:0:
186,196,81327,2,0,P|201:239|195:285,1,93.5000028533936,8|0,0:0|0:0,0:0:0:0:
15,257,81600,6,0,B|108:249|108:249|90:301|117:338,1,187.000005706787,12|0,0:0|0:0,0:0:0:0:
195,285,82009,1,0,0:0:0:0:
294,369,82145,2,0,L|190:378,1,93.5000028533936,12|0,0:0|0:0,0:0:0:0:
288,276,82418,6,0,B|360:269|360:269|401:282|401:282|473:276,1,187.000005706787,12|0,0:0|0:0,0:0:0:0:
447,368,82827,1,0,0:0:0:0:
430,189,82963,2,0,L|421:95,1,93.5000028533936,2|0,0:0|0:0,0:0:0:0:
311,41,83236,6,0,L|302:135,1,93.5000028533936,10|0,0:0|0:0,0:0:0:0:
186,210,83509,2,0,L|178:115,1,93.5000028533936,10|0,0:0|0:0,0:0:0:0:
170,22,83781,1,8,0:0:0:0:
302,134,83918,1,0,0:0:0:0:
178,116,84054,6,0,B|34:128|34:128|77:164,1,187.000005706787,10|0,0:0|0:0,0:0:0:0:
79,295,84463,1,0,0:0:0:0:
2,234,84600,1,0,0:0:0:0:
156,356,84872,6,0,L|251:347,1,93.5000028533936,10|0,0:0|0:0,0:0:0:0:
266,269,85145,2,0,L|360:278,1,93.5000028533936,10|0,0:0|0:0,0:0:0:0:
377,356,85418,2,0,L|470:347,1,93.5000028533936,10|0,0:0|0:0,0:0:0:0:
369,181,85690,6,0,P|406:122|413:206,1,187.000005706787,12|0,0:0|0:0,0:0:0:0:
360,278,86100,1,0,0:0:0:0:
289,124,86236,1,0,0:0:0:0:
369,181,86372,1,0,0:0:0:0:
198,163,86509,6,0,P|202:74|277:24,2,187.000005706787,2|0|0,0:0|0:0|0:0,0:0:0:0:
289,124,87190,1,0,0:0:0:0:
278,220,87327,6,0,P|198:262|119:218,1,187.000005706787,6|0,0:0|0:0,0:0:0:0:
198,163,87736,1,0,0:0:0:0:
45,161,87872,2,0,P|28:203|31:249,1,93.5000028533936,4|0,0:0|0:0,0:0:0:0:
185,372,88145,6,0,B|113:365|113:365|74:346|74:346|3:340,2,187.000005706787,4|0|4,0:0|0:0|0:0,0:0:0:0:
324,384,88827,1,0,0:0:0:0:
265,258,88963,1,4,0:0:0:0:
