osu file format v14

[General]
AudioFilename: audio.mp3
AudioLeadIn: 0
PreviewTime: 56645
Countdown: 0
SampleSet: Soft
StackLeniency: 0.2
Mode: 0
LetterboxInBreaks: 0
WidescreenStoryboard: 0

[Editor]
Bookmarks: 39872
DistanceSpacing: 0.8
BeatDivisor: 4
GridSize: 8
TimelineZoom: 2.3

[Metadata]
Title:Katayoku no Tori
TitleUnicode:片翼の鳥
Artist:Shikata Akiko
ArtistUnicode:志方あきこ
Creator:tohooz
Version:Extra
Source:Umineko no Naku Koro ni
Tags:Umineko tv size
BeatmapID:1515560
BeatmapSetID:717364

[Difficulty]
HPDrainRate:5
CircleSize:4
OverallDifficulty:9
ApproachRate:9.5
SliderMultiplier:1.8
SliderTickRate:1

[Events]
//Background and Video events
0,0,"UminekoBG.jpg",0,0
//Break Periods
//Storyboard Layer 0 (Background)
//Storyboard Layer 1 (Fail)
//Storyboard Layer 2 (Pass)
//Storyboard Layer 3 (Foreground)
//Storyboard Sound Samples

[TimingPoints]
600,272.727272727273,3,2,1,30,1,0
6122,-100,3,2,1,10,0,0
6327,-100,3,2,1,30,0,0
13690,-133.333333333333,3,2,1,30,0,0
25963,-111.111111111111,3,2,1,30,0,0
26781,-125,3,2,1,30,0,0
39872,-76.9230769230769,3,2,1,30,0,0
41509,-125,3,2,1,30,0,0
43145,-76.9230769230769,3,2,1,30,0,0
44781,-125,3,2,1,30,0,0
46418,-111.111111111111,3,2,1,30,0,0
55895,-111.111111111111,3,2,1,10,0,0
57872,-90.9090909090908,3,2,1,40,0,1
84054,-90.9090909090908,3,2,1,40,0,0

[HitObjects]
413,92,463,5,0,0:0:0:0:
413,92,531,1,0,0:0:0:0:
413,92,600,2,0,B|406:171|406:171|387:202|387:202|381:266,1,180,10|0,0:0|0:0,0:0:0:0:
461,313,1009,2,0,P|389:359|310:324,1,180
224,208,1418,6,0,L|216:297,1,90,8|0,0:0|0:0,0:0:0:0:
110,220,1690,2,0,L|125:308,1,90,8|0,0:0|0:0,0:0:0:0:
2,261,1963,2,0,L|40:342,1,90,8|0,0:0|0:0,0:0:0:0:
277,98,2236,6,0,B|236:93|197:104|197:104|172:99|172:99|133:110|99:107,1,180
320,181,2645,2,0,P|369:107|339:26,1,180
238,225,3054,6,0,P|269:258|310:274,1,90,8|0,0:0|0:0,0:0:0:0:
512,237,3327,2,0,P|481:204|440:188,1,90,8|0,0:0|0:0,0:0:0:0:
299,384,3600,1,8,0:0:0:0:
428,281,3736,1,8,0:0:0:0:
206,338,3872,6,0,B|134:354|134:354|94:338|94:338|32:351,1,180,8|0,0:0|0:0,0:0:0:0:
238,224,4281,2,0,P|280:149|245:70,1,180
51,255,4690,6,0,P|95:265|139:256,1,90,8|0,0:0|0:0,0:0:0:0:
139,32,4963,2,0,P|95:23|52:33,1,90
96,144,5236,2,0,L|186:144,1,90
488,8,5509,6,0,B|476:47|481:79|481:79|470:110|470:110|475:151|465:184,1,180,8|0,0:0|0:0,0:0:0:0:
425,384,5918,1,0,0:0:0:0:
325,225,6054,2,0,P|281:215|237:224,1,90
94,372,6327,6,0,P|50:380|6:370,1,90,8|0,0:0|0:0,0:0:0:0:
237,223,6600,2,0,L|237:321,1,90,8|0,0:0|0:0,0:0:0:0:
52,273,6872,1,8,0:0:0:0:
237,178,7009,1,8,0:0:0:0:
52,83,7145,6,0,B|116:50|116:50|159:46|159:46|216:17,1,180,8|0,0:0|0:0,0:0:0:0:
512,122,7554,2,0,B|472:133|447:154|447:154|404:158|404:158|380:180|347:187,1,180
400,48,7963,2,0,L|480:7,1,90,8|0,0:0|0:0,0:0:0:0:
460,261,8236,2,0,L|379:301,1,90
319,88,8509,1,0,0:0:0:0:
40,341,8781,6,0,P|117:380|199:349,1,180,8|0,0:0|0:0,0:0:0:0:
138,96,9190,2,0,B|138:176|138:176|122:208|122:208|122:288,1,180
184,15,9600,6,0,P|142:2|99:11,1,90,8|0,0:0|0:0,0:0:0:0:
317,154,9872,2,0,P|359:167|402:158,1,90,8|0,0:0|0:0,0:0:0:0:
492,17,10145,1,8,0:0:0:0:
495,258,10281,1,8,0:0:0:0:
363,73,10418,6,0,P|276:69|225:139,1,180,8|0,0:0|0:0,0:0:0:0:
329,343,10827,2,0,B|351:348|399:340|399:340|423:356|423:356|463:348|503:356,1,180
250,297,11236,6,0,P|237:339|246:382,1,90
329,251,11509,1,0,0:0:0:0:
171,251,11645,1,0,0:0:0:0:
249,114,11781,1,0,0:0:0:0:
250,297,11918,1,0,0:0:0:0:
90,204,12054,6,0,P|77:162|81:117,1,90
249,114,12327,2,0,P|279:80|319:62,1,90
406,205,12600,2,0,P|449:214|486:240,1,90
195,372,12872,6,0,B|123:372|123:372|91:356|91:356|19:356,2,180
90,204,13554,1,0,0:0:0:0:
249,296,13690,6,0,P|302:336|369:334,1,135.000005149842
335,234,14236,1,0,0:0:0:0:
334,233,14509,6,0,P|332:166|372:114,1,135.000005149842
434,200,15055,1,0,0:0:0:0:
478,104,15190,1,0,0:0:0:0:
371,113,15327,6,0,P|304:115|252:76,1,135.000005149842
337,13,15736,1,0,0:0:0:0:
205,11,15872,2,0,P|178:31|146:41,1,67.5000025749208
11,75,16145,6,0,P|37:95|69:105,1,67.5000025749208
146,41,16418,1,0,0:0:0:0:
146,343,16690,1,0,0:0:0:0:
11,309,16827,1,0,0:0:0:0:
170,252,16963,6,0,P|224:291|238:355,1,135.000005149842
146,343,17372,1,0,0:0:0:0:
104,184,17509,2,0,P|131:166|164:158,1,67.5000025749208
335,168,17781,6,0,P|307:186|274:196,1,67.5000025749208
265,87,18054,2,0,P|325:61|390:75,1,135.000005149842
335,168,18463,1,0,0:0:0:0:
503,199,18600,6,0,P|447:231|454:294,1,135.000005149842
510,377,19009,1,0,0:0:0:0:
375,347,19145,2,0,P|343:374|311:383,1,67.5000025749208
72,345,19418,6,0,P|103:317|135:308,1,67.5000025749208
300,291,19690,2,0,P|287:259|264:235,1,67.5000025749208
113,221,19963,1,0,0:0:0:0:
214,147,20100,1,0,0:0:0:0:
99,97,20236,6,0,P|141:44|203:21,1,135.000005149842
214,147,20645,1,0,0:0:0:0:
318,75,20781,2,0,P|359:77|388:94,1,67.5000025749208
450,250,21054,6,0,P|463:219|464:185,1,67.5000025749208
474,91,21327,1,0,0:0:0:0:
290,247,21600,1,0,0:0:0:0:
449,249,21872,6,0,P|478:309|464:374,1,135.000005149842
387,321,22281,1,0,0:0:0:0:
273,368,22418,2,0,P|241:374|207:370,1,67.5000025749208
139,200,22690,6,0,P|145:232|141:266,1,67.5000025749208,0|0,0:3|0:3,0:3:0:0:
11,384,22963,2,0,P|4:351|8:317,1,67.5000025749208,0|0,0:3|0:3,0:3:0:0:
53,236,23236,1,0,0:0:0:0:
97,348,23372,1,0,0:0:0:0:
138,199,23509,6,0,P|200:225|264:207,1,135.000005149842
206,118,23918,1,0,0:0:0:0:
312,112,24054,2,0,P|339:131|359:158,1,67.5000025749208
412,337,24327,6,0,P|384:317|364:290,1,67.5000025749208
460,242,24600,1,0,0:0:0:0:
264,207,24872,1,0,0:0:0:0:
481,153,25145,6,0,P|498:88|472:27,1,135.000005149842
392,96,25554,1,0,0:0:0:0:
303,15,25690,2,0,P|269:9|236:11,1,67.5000025749208
45,177,25963,6,0,P|35:139|39:99,1,80.9999975280763,4|0,0:0|0:0,0:0:0:0:
182,253,26236,2,0,P|192:291|188:331,1,80.9999975280763,4|0,0:0|0:0,0:0:0:0:
86,302,26509,1,4,0:0:0:0:
141,128,26645,1,4,0:0:0:0:
322,335,26781,6,0,P|254:355|188:331,1,144,2|0,0:0|0:0,0:0:0:0:
259,235,27190,1,0,0:0:0:0:
402,288,27327,2,0,P|414:322|412:358,1,72
354,209,27600,6,0,P|387:196|423:198,1,72,2|0,0:0|0:0,0:0:0:0:
491,262,27872,1,0,0:0:0:0:
259,235,28145,1,0,0:0:0:0:
354,209,28281,1,0,0:0:0:0:
187,165,28418,6,0,P|159:229|179:297,1,144,2|0,0:0|0:0,0:0:0:0:
259,235,28827,1,0,0:0:0:0:
211,66,28963,2,0,P|176:65|141:75,1,72
283,136,29236,6,0,P|318:137|353:127,1,72,2|0,0:0|0:0,0:0:0:0:
427,15,29509,2,0,P|461:4|497:6,1,72
474,98,29781,1,0,0:0:0:0:
306,44,29918,1,0,0:0:0:0:
431,179,30054,6,0,P|441:248|403:308,1,144,2|0,0:0|0:0,0:0:0:0:
350,230,30463,1,0,0:0:0:0:
307,313,30600,2,0,P|272:323|237:322,1,72
155,163,30872,6,0,P|165:197|163:233,1,72,2|0,0:0|0:0,0:0:0:0:
30,317,31145,2,0,P|19:282|21:246,1,72
58,167,31418,1,0,0:0:0:0:
127,313,31554,1,0,0:0:0:0:
155,163,31690,6,0,P|224:176|288:146,1,144,2|0,0:0|0:0,0:0:0:0:
212,71,32100,1,0,0:0:0:0:
315,41,32236,2,0,P|351:34|385:39,1,72
375,177,32509,6,0,P|411:182|446:175,1,72,2|0,0:0|0:0,0:0:0:0:
288,145,32781,2,0,P|283:181|291:216,1,72
411,301,33054,1,0,0:0:0:0:
376,178,33190,1,0,0:0:0:0:
150,328,33327,6,0,P|218:348|284:325,1,144,2|0,0:0|0:0,0:0:0:0:
215,242,33736,1,0,0:0:0:0:
66,287,33872,2,0,P|58:321|62:357,1,72
215,242,34145,6,0,P|223:207|219:171,1,72,2|0,0:0|0:0,0:0:0:0:
24,13,34418,2,0,P|15:47|19:83,1,72
131,201,34690,1,0,0:0:0:0:
108,54,34827,1,0,0:0:0:0:
219,171,34963,6,0,P|285:194|354:176,1,144,2|0,0:0|0:0,0:0:0:0:
291,74,35372,1,0,0:0:0:0:
441,140,35509,2,0,P|447:175|441:209,1,72
407,53,35781,6,0,P|442:46|476:52,1,72,2|0,0:0|0:0,0:0:0:0:
474,297,36054,2,0,P|438:303|404:297,1,72
354,176,36327,1,0,0:0:0:0:
283,291,36463,1,0,0:0:0:0:
219,171,36600,6,0,P|152:147|83:165,1,144,2|0,0:0|0:0,0:0:0:0:
145,267,37009,1,0,0:0:0:0:
283,291,37145,1,0,0:0:0:0:
89,29,37418,6,0,P|65:95|83:164,1,144,2|0,0:0|0:0,0:0:0:0:
219,171,37827,1,0,0:0:0:0:
24,269,37963,1,0,2:0:0:0:
324,165,38236,6,0,P|298:99|236:66,1,144,2|0,0:0|0:0,0:0:0:0:
219,171,38645,1,0,0:0:0:0:
283,291,38781,2,0,P|318:297|353:295,1,72
485,110,39054,5,2,0:0:0:0:
465,114,39327,1,2,0:0:0:0:
445,118,39600,1,0,0:0:0:0:
353,295,39736,1,0,0:0:0:0:
236,66,39872,6,0,B|140:74|140:74|91:62|91:62|-4:70,1,233.999989288331,4|0,0:0|0:0,0:0:0:0:
29,361,40281,2,0,B|116:353|116:353|165:365|165:365|261:357,1,233.999989288331,4|0,0:0|0:0,0:0:0:0:
4,70,40690,6,0,L|17:221,1,116.999994644165,4|0,0:0|0:0,0:0:0:0:
261,357,40963,2,0,L|250:240,1,116.999994644165,4|0,0:0|0:0,0:0:0:0:
236,66,41236,1,0,0:0:0:0:
410,51,41509,6,0,P|427:166|324:110,1,288
499,221,42327,2,0,P|366:261|254:179,1,288
512,352,43145,6,0,B|463:348|416:360|416:360|383:347|383:347|335:359|282:356,1,233.999989288331,4|0,0:0|0:0,0:0:0:0:
0,32,43554,2,0,B|48:35|95:23|95:23|128:36|128:36|176:24|229:27,1,233.999989288331,4|0,0:0|0:0,0:0:0:0:
95,234,43963,2,0,P|79:178|94:123,1,116.999994644165,4|0,0:0|0:0,0:0:0:0:
416,260,44236,2,0,P|432:204|416:149,1,116.999994644165,4|0,0:0|0:0,0:0:0:0:
185,178,44509,1,0,0:0:0:0:
325,205,44781,6,0,P|344:337|476:349,1,288
416,260,45600,1,0,0:0:0:0:
499,174,45872,2,0,P|501:104|461:45,1,144
397,133,46418,6,0,P|320:150|247:118,1,161.999995056153,4|0,0:0|0:0,0:0:0:0:
331,31,46963,1,0,0:0:0:0:
159,34,47236,6,0,P|127:107|145:185,1,161.999995056153
247,118,47781,1,0,0:0:0:0:
212,287,48054,6,0,P|134:305|62:273,1,161.999995056153
145,184,48463,1,0,0:0:0:0:
27,157,48600,1,0,0:0:0:0:
316,220,48872,6,0,P|333:297|301:370,1,161.999995056153
212,287,49418,1,0,0:0:0:0:
249,116,49690,6,0,P|326:98|399:130,1,161.999995056153
316,220,50100,1,0,0:0:0:0:
436,247,50236,1,0,0:0:0:0:
212,286,50509,6,0,P|134:304|61:272,1,161.999995056153
145,184,50918,1,0,0:0:0:0:
128,384,51054,1,0,0:0:0:0:
78,81,51327,6,0,P|155:63|228:95,1,161.999995056153
145,184,51736,1,0,0:0:0:0:
212,287,51872,2,0,P|238:317|273:337,1,80.9999975280763
419,153,52145,6,0,P|437:230|405:303,1,161.999995056153
316,220,52690,1,0,0:0:0:0:
352,50,52963,6,0,P|429:32|502:64,1,161.999995056153,2|0,0:0|0:0,0:0:0:0:
419,153,53508,1,0,0:0:0:0:
229,56,53781,6,0,P|152:38|79:70,1,161.999995056153,2|0,0:0|0:0,0:0:0:0:
162,159,54326,1,0,0:0:0:0:
284,0,54600,1,6,0:0:0:0:
256,192,54668,12,0,55963,0:0:0:0:
426,165,57872,6,0,P|459:257|412:343,1,198.000006042481,4|0,0:0|0:0,0:0:0:0:
339,248,58281,1,0,0:0:0:0:
249,382,58418,1,0,0:0:0:0:
291,135,58554,1,0,0:0:0:0:
201,268,58690,6,0,P|153:280|105:268,1,99.0000030212403,8|0,0:0|0:0,0:0:0:0:
380,69,58963,2,0,P|427:57|475:69,1,99.0000030212403,8|0,0:0|0:0,0:0:0:0:
426,165,59236,1,8,0:0:0:0:
245,39,59372,1,0,0:0:0:0:
443,366,59509,6,0,B|360:366|360:366|320:382|320:382|248:382,1,198.000006042481,4|0,2:0|0:0,0:0:0:0:
153,155,59918,1,0,0:0:0:0:
339,248,60054,2,0,L|454:248,1,99.0000030212403
105,268,60327,6,0,P|93:315|105:363,1,99.0000030212403,8|0,0:0|0:0,0:0:0:0:
355,108,60600,2,0,P|366:60|354:12,1,99.0000030212403,8|0,0:0|0:0,0:0:0:0:
83,13,60872,1,8,0:0:0:0:
273,60,61009,1,0,0:0:0:0:
13,138,61145,6,0,B|5:186|13:226|13:226|-3:258|-3:258|5:298|0:331,1,198.000006042481,4|0,0:0|0:0,0:0:0:0:
153,155,61554,1,0,0:0:0:0:
291,368,61690,2,0,L|192:368,1,99.0000030212403
482,283,61963,6,0,P|493:330|482:378,1,99.0000030212403,8|0,0:0|0:0,0:0:0:0:
354,107,62236,2,0,P|342:59|354:12,1,99.0000030212403,8|0,0:0|0:0,0:0:0:0:
495,191,62509,1,8,0:0:0:0:
505,0,62645,1,0,0:0:0:0:
262,271,62781,6,0,P|214:282|166:271,1,99.0000030212403,12|0,0:0|0:0,0:0:0:0:
35,23,63054,1,0,0:0:0:0:
213,176,63190,1,0,0:0:0:0:
13,138,63327,1,0,0:0:0:0:
234,60,63463,1,0,0:0:0:0:
0,330,63600,6,0,L|97:339,1,99.0000030212403,12|0,0:0|0:0,0:0:0:0:
311,184,63872,2,0,L|212:175,1,99.0000030212403
402,291,64145,1,0,0:0:0:0:
419,93,64281,1,0,0:0:0:0:
344,365,64418,6,0,P|438:376|495:300,1,198.000006042481,12|0,0:0|0:0,0:0:0:0:
311,184,64827,1,0,0:0:0:0:
182,284,64963,2,0,L|173:383,1,99.0000030212403
311,184,65236,6,0,L|320:85,1,99.0000030212403,8|0,0:0|0:0,0:0:0:0:
182,284,65509,2,0,P|135:295|86:285,1,99.0000030212403,8|0,0:0|0:0,0:0:0:0:
29,25,65781,1,8,0:0:0:0:
132,188,65918,1,0,0:0:0:0:
282,12,66054,6,0,B|361:18|361:18|394:5|394:5|476:12,1,198.000006042481,12|0,0:0|0:0,0:3:0:0:
458,209,66463,1,0,0:0:0:0:
282,12,66600,1,0,0:0:0:0:
281,355,66872,6,0,P|329:364|377:353,1,99.0000030212403,8|0,0:0|0:0,0:0:0:0:
132,188,67145,2,0,P|83:178|35:189,1,99.0000030212403,8|0,0:0|0:0,0:0:0:0:
239,215,67418,1,8,0:0:0:0:
100,22,67554,1,8,0:0:0:0:
82,285,67690,6,0,P|178:287|239:213,1,198.000006042481,12|0,0:0|0:0,0:0:0:0:
35,188,68100,1,0,0:0:0:0:
251,121,68236,2,0,P|296:139|325:178,1,99.0000030212403
447,384,68509,6,0,B|453:304|453:304|472:273|472:273|479:191,1,198.000006042481,12|0,0:0|0:0,0:0:0:0:
491,43,68918,1,0,0:0:0:0:
325,178,69054,1,8,0:0:0:0:
478,191,69190,1,0,0:0:0:0:
239,23,69327,6,0,P|163:81|172:175,1,198.000006042481,12|0,0:0|0:0,0:0:0:0:
366,319,69736,1,0,0:0:0:0:
251,121,69872,1,8,0:0:0:0:
138,320,70009,1,0,0:0:0:0:
22,121,70145,6,0,P|19:72|35:26,1,99.0000030212403,8|0,0:0|0:0,0:0:0:0:
433,0,70418,2,0,P|436:49|420:95,1,99.0000030212403,8|0,0:0|0:0,0:0:0:0:
124,85,70690,1,8,0:0:0:0:
330,35,70827,1,8,0:0:0:0:
188,217,70963,6,0,B|147:223|112:244|112:244|69:243|69:243|34:264|0:269,1,198.000006042481,12|0,0:0|0:0,0:0:0:0:
124,85,71372,1,0,0:0:0:0:
291,182,71509,2,0,P|294:231|278:277,1,99.0000030212403
10,376,71781,6,0,L|108:384,1,99.0000030212403,8|0,0:0|0:0,0:0:0:0:
389,190,72054,2,0,L|290:181,1,99.0000030212403,8|0,0:0|0:0,0:0:0:0:
437,308,72327,1,8,0:0:0:0:
456,81,72463,1,0,0:0:0:0:
277,277,72600,6,0,P|201:219|211:125,1,198.000006042481,12|0,0:0|0:0,0:0:0:0:
389,190,73009,1,0,0:0:0:0:
279,10,73145,2,0,L|181:18,1,99.0000030212403
277,277,73418,6,0,P|284:325|269:372,1,99.0000030212403,8|0,0:0|0:0,0:0:0:0:
0,192,73690,2,0,P|-7:143|7:96,1,99.0000030212403,8|0,0:0|0:0,0:0:0:0:
290,181,73963,1,8,0:0:0:0:
86,150,74100,1,0,0:0:0:0:
400,37,74236,6,0,B|406:116|406:116|426:155|426:155|432:229,1,198.000006042481,12|0,0:0|0:0,0:0:0:0:
444,376,74645,1,0,0:0:0:0:
275,270,74781,2,0,P|228:254|179:262,1,99.0000030212403
8,384,75054,6,0,L|17:280,1,99.0000030212403,12|0,0:0|0:0,0:0:0:0:
180,18,75327,2,0,L|170:121,1,99.0000030212403,8|0,0:0|0:0,0:0:0:0:
32,5,75600,1,8,0:0:0:0:
160,214,75736,1,0,0:0:0:0:
328,31,75872,6,0,L|431:40,1,99.0000030212403,12|0,0:0|0:0,0:0:0:0:
499,235,76145,1,0,0:0:0:0:
301,217,76281,1,0,0:0:0:0:
511,125,76418,1,8,0:0:0:0:
487,344,76554,1,0,0:0:0:0:
345,136,76690,6,0,P|297:123|251:138,1,99.0000030212403,2|0,0:0|0:0,0:0:0:0:
159,372,76963,1,2,0:0:0:0:
192,378,77031,1,0,0:0:0:0:
224,367,77099,1,0,0:0:0:0:
246,340,77167,1,0,0:0:0:0:
251,306,77235,1,4,0:0:0:0:
238,275,77303,1,0,0:0:0:0:
211,254,77372,1,0,0:0:0:0:
177,251,77440,1,0,0:0:0:0:
146,265,77509,6,4,P|52:274|0:194,1,198.000006042481,12|0,0:0|0:0,0:0:0:0:
5,2,77918,1,0,0:0:0:0:
186,160,78054,2,0,L|92:189,1,99.0000030212403
304,28,78327,6,0,L|398:0,1,99.0000030212403,8|0,0:0|0:0,0:0:0:0:
329,134,78600,1,0,0:0:0:0:
161,53,78736,1,0,0:0:0:0:
413,92,78872,2,0,P|422:140|407:187,1,99.0000030212403,8|0,0:0|0:0,0:0:0:0:
224,368,79145,6,0,B|255:357|287:362|287:362|326:350|326:350|367:355|367:355|423:350,1,198.000006042481,12|0,0:0|0:0,0:0:0:0:
329,134,79554,1,0,0:0:0:0:
512,286,79690,2,0,L|502:397,1,99.0000030212403,8|0,0:0|0:0,0:0:0:0:
233,128,79963,6,0,P|281:118|328:133,1,99.0000030212403,8|0,0:0|0:0,0:0:0:0:
127,371,80236,2,0,P|78:380|31:365,1,99.0000030212403,8|0,0:0|0:0,0:0:0:0:
21,77,80509,1,8,0:0:0:0:
83,286,80645,1,8,0:0:0:0:
233,128,80781,6,0,P|189:42|95:27,1,198.000006042481,12|0,0:0|0:0,0:0:0:0:
126,130,81190,1,0,0:0:0:0:
310,38,81327,2,0,L|408:46,1,99.0000030212403,12|0,0:0|0:0,0:0:0:0:
356,379,81600,6,0,B|349:304|349:304|330:265|330:265|323:186,1,198.000006042481,12|0,0:0|0:0,0:0:0:0:
310,38,82009,1,0,0:0:0:0:
512,148,82145,1,12,0:0:0:0:
499,0,82281,1,0,0:0:0:0:
323,185,82418,6,0,P|240:234|152:198,1,198.000006042481,12|0,0:0|0:0,0:0:0:0:
233,128,82827,1,0,0:0:0:0:
20,157,82963,1,0,0:0:0:0:
150,9,83100,1,0,0:0:0:0:
103,276,83236,6,0,L|95:375,1,99.0000030212403,8|0,0:0|0:0,0:0:0:0:
314,284,83509,2,0,L|322:185,1,99.0000030212403,8|0,0:0|0:0,0:0:0:0:
334,37,83781,1,0,0:0:0:0:
152,198,83918,1,0,0:0:0:0:
414,142,84054,6,0,P|463:136|423:235,1,198.000006042481,12|0,0:0|0:0,0:0:0:0:
244,118,84463,1,0,0:0:0:0:
314,284,84600,1,8,0:0:0:0:
65,95,84872,6,0,P|76:47|129:2,1,99.0000030212403,8|0,0:0|0:0,0:0:0:0:
244,118,85145,2,0,P|277:81|345:69,1,99.0000030212403,8|0,0:0|0:0,0:0:0:0:
314,284,85418,1,8,0:0:0:0:
65,95,85690,6,0,L|54:214,1,99.0000030212403,12|0,0:0|0:0,0:0:0:0:
43,340,85963,1,0,0:0:0:0:
314,284,86100,1,8,0:0:0:0:
163,192,86236,1,0,0:0:0:0:
159,369,86372,1,8,0:0:0:0:
332,191,86509,6,0,P|375:213|402:253,1,99.0000030212403,8|0,0:0|0:0,0:0:0:0:
163,192,86781,1,0,0:0:0:0:
415,44,87054,1,8,0:0:0:0:
332,191,87190,1,0,0:0:0:0:
197,39,87327,6,0,B|117:32|117:32|78:12|78:12|4:6,1,198.000006042481,12|0,0:0|0:0,0:0:0:0:
163,192,87736,1,0,0:0:0:0:
315,99,87872,2,0,L|323:0,1,99.0000030212403,12|0,0:0|0:0,0:0:0:0:
410,240,88145,6,0,P|370:276|325:284,1,99.0000030212403,12|0,0:0|0:0,0:0:0:0:
84,144,88418,2,0,P|123:107|168:99,1,99.0000030212403,8|0,0:0|0:0,0:0:0:0:
246,350,88690,1,12,0:0:0:0:
163,192,88827,1,0,0:0:0:0:
326,284,88963,1,12,0:0:0:0:
