osu file format v14

[General]
AudioFilename: audio.ogg
AudioLeadIn: 0
PreviewTime: 56679
Countdown: 0
SampleSet: Soft
StackLeniency: 0.7
Mode: 0
LetterboxInBreaks: 0
WidescreenStoryboard: 0

[Editor]
Bookmarks: 13724,26815,39906,46452,57906,70997,84088
DistanceSpacing: 0.4
BeatDivisor: 4
GridSize: 4
TimelineZoom: 1.7

[Metadata]
Title:Katayoku no Tori (TV Size)
TitleUnicode:片翼の鳥 (TV Size)
Artist:Shikata Akiko
ArtistUnicode:志方あきこ
Creator:Kurumiism
Version:When They Cry
Source:うみねこのなく頃に
Tags:kafaka umineko no naku koro ni henyoku 竜騎士07 ryukishi07 one winged bird one-winged bird eagle visual novel vn video game vgm when the seagulls cry when they cry 07th expansion folk jp jpop pop j-pop japanese italian female vocal vocalist op opening theme anime
BeatmapID:4353437
BeatmapSetID:2079060

[Difficulty]
HPDrainRate:5.5
CircleSize:4.5
OverallDifficulty:8.7
ApproachRate:9.4
SliderMultiplier:1.4
SliderTickRate:1

[Events]
//Background and Video events
0,0,"bg.jpg",0,0
Video,-235,"op.avi"
//Break Periods
//Storyboard Layer 0 (Background)
//Storyboard Layer 1 (Fail)
//Storyboard Layer 2 (Pass)
//Storyboard Layer 3 (Foreground)
//Storyboard Layer 4 (Overlay)
//Storyboard Sound Samples

[TimingPoints]
634,272.727272727273,3,2,2,65,1,0
634,-80,3,2,2,65,0,0
838,-80,3,2,2,5,0,0
906,-80,3,2,1,65,0,0
1043,-100,3,2,1,65,0,0
1452,-100,3,2,1,65,0,0
2270,-100,3,2,2,65,0,0
2474,-100,3,2,2,5,0,0
2543,-100,3,2,1,65,0,0
3088,-100,3,2,1,65,0,0
3634,-100,3,2,1,65,0,0
3906,-80,3,2,2,65,0,0
4111,-80,3,2,2,5,0,0
4179,-80,3,2,1,65,0,0
4315,-100,3,2,1,65,0,0
4724,-100,3,2,1,65,0,0
5270,-133.333333333333,3,2,1,65,0,0
5474,-133.333333333333,3,2,1,5,0,0
5543,-100,3,2,2,65,0,0
5815,-100,3,2,1,65,0,0
6361,-100,3,2,1,65,0,0
7179,-80,3,2,2,65,0,0
7384,-80,3,2,2,5,0,0
7452,-80,3,2,1,65,0,0
7588,-100,3,2,1,65,0,0
7997,-100,3,2,1,65,0,0
8815,-100,3,2,2,65,0,0
9020,-100,3,2,2,5,0,0
9088,-100,3,2,1,65,0,0
9634,-100,3,2,1,65,0,0
10179,-100,3,2,1,65,0,0
10452,-80,3,2,2,65,0,0
10656,-80,3,2,2,5,0,0
10724,-80,3,2,1,65,0,0
10861,-100,3,2,1,65,0,0
11270,-100,3,2,1,65,0,0
11815,-66.6666666666667,3,2,1,65,0,0
12020,-66.6666666666667,3,2,1,5,0,0
12088,-100,3,2,2,65,0,0
12361,-100,3,2,1,65,0,0
12906,-100,3,2,1,65,0,0
13724,-133.333333333333,3,2,2,45,0,0
14270,-133.333333333333,3,2,1,45,0,0
14747,-133.333333333333,3,2,1,5,0,0
14815,-133.333333333333,3,2,1,45,0,0
15361,-133.333333333333,3,2,2,45,0,0
15770,-133.333333333333,3,2,1,45,0,0
16997,-133.333333333333,3,2,2,45,0,0
17406,-133.333333333333,3,2,1,45,0,0
18634,-133.333333333333,3,2,2,45,0,0
18906,-133.333333333333,3,2,1,45,0,0
20270,-133.333333333333,3,2,2,45,0,0
20543,-133.333333333333,3,2,1,45,0,0
21906,-133.333333333333,3,2,2,45,0,0
22315,-133.333333333333,3,2,1,45,0,0
22929,-133.333333333333,3,2,1,5,0,0
22997,-133.333333333333,3,2,1,45,0,0
23543,-100,3,2,2,45,0,0
23815,-100,3,2,1,45,0,0
24361,-133.333333333333,3,2,1,45,0,0
24838,-133.333333333333,3,2,1,5,0,0
24906,-133.333333333333,3,2,1,45,0,0
25179,-100,3,2,2,45,0,0
25452,-100,3,2,1,45,0,0
25997,-66.6666666666667,3,2,1,45,0,0
26815,-111.111111111111,3,2,2,45,0,0
27224,-111.111111111111,3,2,1,45,0,0
28452,-111.111111111111,3,2,2,45,0,0
28861,-111.111111111111,3,2,1,45,0,0
30088,-111.111111111111,3,2,2,45,0,0
30497,-111.111111111111,3,2,1,45,0,0
31724,-111.111111111111,3,2,2,45,0,0
32134,-111.111111111111,3,2,1,45,0,0
32747,-111.111111111111,3,2,1,5,0,0
32815,-111.111111111111,3,2,1,45,0,0
33361,-111.111111111111,3,2,2,45,0,0
33770,-111.111111111111,3,2,1,45,0,0
34384,-111.111111111111,3,2,1,5,0,0
34452,-111.111111111111,3,2,1,45,0,0
34997,-111.111111111111,3,2,2,45,0,0
35406,-111.111111111111,3,2,1,45,0,0
35747,-111.111111111111,3,2,1,5,0,0
35815,-111.111111111111,3,2,1,45,0,0
36634,-86.9565217391304,3,2,2,45,0,0
37043,-86.9565217391304,3,2,1,45,0,0
37179,-111.111111111111,3,2,1,45,0,0
37384,-111.111111111111,3,2,1,5,0,0
37452,-111.111111111111,3,2,1,45,0,0
37656,-111.111111111111,3,2,1,5,0,0
37724,-111.111111111111,3,2,1,45,0,0
38202,-111.111111111111,3,2,1,5,0,0
38270,-111.111111111111,3,2,2,45,0,0
38679,-111.111111111111,3,2,1,45,0,0
39088,-166.666666666667,3,2,1,45,0,0
39906,-50,3,2,2,60,0,0
40315,-50,3,2,2,60,0,0
40724,-50,3,2,2,60,0,0
40929,-50,3,2,2,5,0,0
40997,-50,3,2,2,60,0,0
41202,-50,3,2,2,5,0,0
41270,-50,3,2,2,60,0,0
41543,-50,3,2,2,40,0,0
43179,-50,3,2,2,60,0,0
43588,-50,3,2,2,60,0,0
43997,-50,3,2,2,60,0,0
44202,-50,3,2,2,5,0,0
44270,-50,3,2,2,60,0,0
44474,-50,3,2,2,5,0,0
44543,-50,3,2,2,60,0,0
44815,-50,3,2,1,45,0,0
46452,-100,3,2,1,40,0,0
47270,-100,3,2,1,35,0,0
48088,-133.333333333333,3,2,1,35,0,0
49724,-133.333333333333,3,2,1,40,0,0
52384,-133.333333333333,3,2,1,5,0,0
52452,-133.333333333333,3,2,1,40,0,0
52656,-133.333333333333,3,2,1,5,0,0
52724,-133.333333333333,3,2,1,40,0,0
52997,-133.333333333333,3,2,2,40,0,0
54634,-133.333333333333,3,2,2,40,0,0
56763,280.373831775701,3,2,1,50,1,0
56763,-200,3,2,1,50,0,0
56903,-200,3,2,1,5,0,0
57043,306.122448979592,3,2,1,50,1,0
57043,-153.846153846154,3,2,1,50,0,0
57196,-153.846153846154,3,2,1,5,0,0
57349,289.855072463768,3,2,1,50,1,0
57349,-125,3,2,1,50,0,0
57493,-125,3,2,1,5,0,0
57638,-100,3,2,1,50,0,0
57783,-100,3,2,1,5,0,0
57906,272.727272727273,3,2,2,70,1,0
57906,-68.9655172413793,3,2,2,70,0,1
58042,-68.9655172413793,3,2,2,70,0,1
58178,-68.9655172413793,3,2,1,70,0,1
59542,-68.9655172413793,3,2,2,70,0,1
59815,-68.9655172413793,3,2,1,70,0,1
60292,-68.9655172413793,3,2,1,5,0,1
60360,-68.9655172413793,3,2,1,70,0,1
60565,-68.9655172413793,3,2,1,5,0,1
60633,-68.9655172413793,3,2,1,70,0,1
61178,-68.9655172413793,3,2,2,70,0,1
61451,-68.9655172413793,3,2,1,70,0,1
61928,-68.9655172413793,3,2,1,5,0,1
61996,-68.9655172413793,3,2,1,70,0,1
62815,-68.9655172413793,3,2,2,70,0,1
63087,-68.9655172413793,3,2,1,70,0,1
63633,-68.9655172413793,3,2,2,70,0,1
63906,-68.9655172413793,3,2,1,70,0,1
64451,-86.9565217391304,3,2,2,70,0,1
64724,-100,3,2,1,70,0,1
64996,-117.647058823529,3,2,1,70,0,1
65269,-68.9655172413793,3,2,1,70,0,1
65542,-76.9230769230769,3,2,1,70,0,1
66087,-68.9655172413793,3,2,2,70,0,1
66360,-68.9655172413793,3,2,1,70,0,1
67451,-68.9655172413793,3,2,2,70,0,1
67587,-68.9655172413793,3,2,1,70,0,1
67724,-68.9655172413793,3,2,2,70,0,1
67996,-68.9655172413793,3,2,1,70,0,1
68542,-68.9655172413793,3,2,2,70,0,1
68815,-68.9655172413793,3,2,1,70,0,1
69360,-68.9655172413793,3,2,2,70,0,1
69633,-68.9655172413793,3,2,1,70,0,1
70178,-68.9655172413793,3,2,1,70,0,0
70996,-64.5161290322581,3,2,2,70,0,1
71133,-64.5161290322581,3,2,2,70,0,1
71269,-64.5161290322581,3,2,1,70,0,1
72633,-64.5161290322581,3,2,2,70,0,1
72906,-64.5161290322581,3,2,1,70,0,1
73383,-64.5161290322581,3,2,1,5,0,1
73451,-64.5161290322581,3,2,1,70,0,1
73656,-64.5161290322581,3,2,1,5,0,1
73724,-64.5161290322581,3,2,1,70,0,1
74269,-64.5161290322581,3,2,2,70,0,1
74542,-64.5161290322581,3,2,1,70,0,1
75019,-64.5161290322581,3,2,1,5,0,1
75087,-64.5161290322581,3,2,1,70,0,1
75906,-64.5161290322581,3,2,2,70,0,1
76178,-64.5161290322581,3,2,1,70,0,1
76724,-64.5161290322581,3,2,2,70,0,1
76996,-64.5161290322581,3,2,1,70,0,1
77542,-64.5161290322581,3,2,2,70,0,1
77815,-64.5161290322581,3,2,1,70,0,1
78360,-80,3,2,1,70,0,1
78633,-90.9090909090909,3,2,1,70,0,1
78906,-105.263157894737,3,2,1,70,0,1
79178,-64.5161290322581,3,2,2,70,0,1
79451,-71.4285714285714,3,2,1,70,0,1
79724,-80.3212851405623,3,2,1,70,0,1
79996,-64.5161290322581,3,2,1,70,0,1
80542,-64.5161290322581,3,2,2,70,0,1
80678,-64.5161290322581,3,2,1,70,0,1
80746,-64.5161290322581,3,2,1,5,0,1
80815,-64.5161290322581,3,2,2,70,0,1
81087,-64.5161290322581,3,2,1,70,0,1
81633,-64.5161290322581,3,2,2,70,0,1
81906,-64.5161290322581,3,2,1,70,0,1
82451,-64.5161290322581,3,2,2,70,0,1
82724,-64.5161290322581,3,2,1,70,0,1
83474,-64.5161290322581,3,2,1,5,0,1
83542,-64.5161290322581,3,2,1,70,0,1
84087,-71.4285714285714,3,2,2,60,0,0
84224,-71.4285714285714,3,2,2,60,0,0
84360,-71.4285714285714,3,2,1,60,0,0
85110,-71.4285714285714,3,2,1,5,0,0
85178,-71.4285714285714,3,2,1,60,0,0
85451,-142.857142857143,3,2,1,60,0,0
85656,-142.857142857143,3,2,1,5,0,0
85724,-71.4285714285714,3,2,2,60,0,0
85996,-71.4285714285714,3,2,1,60,0,0
87360,-71.4285714285714,3,2,2,60,0,0
87633,-71.4285714285714,3,2,1,60,0,0
88451,-90.9090909090909,3,2,1,60,0,0
88724,-125,3,2,1,60,0,0
88996,-125,3,2,2,60,0,0

[Colours]
Combo1 : 53,53,59
Combo2 : 196,194,161
Combo3 : 144,173,173
Combo4 : 123,120,116
Combo5 : 126,142,165

[HitObjects]
75,5,634,6,0,P|103:63|120:142,1,131.25,6|0,3:2|0:0,0:0:0:0:
102,150,906,1,0,3:0:0:0:
250,264,1043,2,0,P|219:218|132:228,1,140,2|0,0:2|0:0,0:0:0:0:
242,343,1452,2,0,P|290:338|310:313,1,70,2|0,3:2|0:0,0:0:0:0:
118,340,1724,2,0,P|146:379|177:383,1,70,2|0,0:2|0:0,0:0:0:0:
57,213,1997,2,0,P|37:257|48:286,1,70,2|0,0:2|0:0,0:0:0:0:
318,212,2270,6,0,B|307:162|360:165|354:113,1,105,2|0,3:2|0:0,0:0:0:0:
339,91,2543,1,0,3:0:0:0:
504,236,2679,2,0,P|425:253|353:287,1,140,2|0,0:2|0:0,0:0:0:0:
467,339,3088,2,0,P|474:355|472:343,1,70,2|0,3:2|0:0,0:0:0:0:
445,163,3361,2,0,P|438:147|440:159,1,70,2|0,3:2|0:0,0:0:0:0:
371,277,3634,1,10,3:2:0:0:
504,236,3770,1,8,3:2:0:0:
297,375,3906,6,0,P|223:358|156:327,1,131.25,6|0,3:2|0:0,0:0:0:0:
147,349,4179,1,0,3:0:0:0:
45,235,4315,2,0,P|98:254|158:201,1,140,2|0,0:2|0:0,0:0:0:0:
69,119,4724,2,0,B|92:130|92:130|98:149|98:149|87:173,1,70,2|0,3:2|0:0,0:0:0:0:
196,74,4997,2,0,B|174:88|174:88|155:84|155:84|140:62,1,70,2|0,0:2|0:0,0:0:0:0:
167,205,5270,2,0,P|216:215|261:237,1,78.7500030040742,2|0,3:2|0:0,0:0:0:0:
261,253,5543,6,0,P|315:263|308:178,1,140,2|0,3:2|0:2,0:0:0:0:
267,147,5952,1,0,0:0:0:0:
267,147,6088,1,2,0:2:0:0:
499,21,6361,6,0,P|455:30|416:49,1,70,2|0,3:2|0:0,0:0:0:0:
351,10,6634,1,0,3:0:0:0:
351,10,6770,1,0,0:0:0:0:
422,161,6906,5,8,3:2:0:0:
265,52,7043,1,8,3:2:0:0:
361,315,7179,6,0,P|298:305|294:225,1,131.25,6|0,3:2|0:0,0:0:0:0:
307,227,7452,1,0,3:0:0:0:
211,375,7588,2,0,P|190:310|106:322,1,140,2|0,0:2|0:0,0:0:0:0:
4,384,7997,2,0,P|47:374|86:355,1,70,2|0,3:2|0:0,0:0:0:0:
30,226,8270,2,0,P|39:269|58:308,1,70,2|0,0:2|0:0,0:0:0:0:
143,143,8543,2,0,P|99:152|60:171,1,70,2|0,0:2|0:0,0:0:0:0:
21,0,8815,6,0,B|70:-16|61:41|124:34,1,105,2|0,3:2|0:0,0:0:0:0:
138,17,9088,1,0,3:0:0:0:
322,122,9224,2,0,P|248:105|181:74,1,140,2|0,0:2|0:0,0:0:0:0:
302,221,9634,2,0,P|332:196|383:215,1,70,2|0,3:2|0:0,0:0:0:0:
351,15,9906,2,0,P|321:40|270:21,1,70,2|0,3:2|0:0,0:0:0:0:
189,78,10179,1,10,3:2:0:0:
322,122,10315,1,8,3:2:0:0:
220,352,10452,6,0,B|239:307|240:277|240:277|216:254|216:224,1,131.25,6|0,3:2|0:0,0:0:0:0:
228,201,10724,1,0,3:0:0:0:
157,301,10861,2,0,P|88:309|48:243,1,140,2|0,0:2|0:0,0:0:0:0:
296,384,11270,2,0,P|339:374|378:355,1,70,2|0,3:2|0:0,0:0:0:0:
488,269,11543,2,0,P|444:259|405:240,1,70,2|0,0:2|0:0,0:0:0:0:
334,98,11815,2,0,B|305:61|361:24|416:39|445:92,1,157.500006008148,2|0,3:2|0:0,0:0:0:0:
435,122,12088,6,0,B|383:155|368:80|294:133,1,140,2|0,3:2|3:2,0:0:0:0:
237,85,12497,1,0,0:0:0:0:
237,85,12634,1,2,0:2:0:0:
36,366,12906,6,0,P|45:322|64:283,1,70,2|0,3:2|0:0,0:0:0:0:
23,232,13179,1,0,3:0:0:0:
111,166,13315,1,0,3:0:0:0:
15,147,13452,5,8,3:2:0:0:
190,247,13588,1,8,3:2:0:0:
252,178,13724,6,0,P|239:121|215:69,1,105.000004005432,2|0,3:2|0:0,0:0:0:0:
289,25,14270,1,2,0:2:0:0:
289,25,14543,2,0,P|313:56|362:48,1,78.7500030040742,2|0,3:2|0:0,0:0:0:0:
375,35,14815,1,2,0:2:0:0:
252,178,15088,1,2,3:2:0:0:
497,148,15361,6,0,P|448:127|397:116,1,105.000004005432,10|0,3:2|0:0,0:0:0:0:
334,155,15770,1,2,0:2:0:0:
334,155,15906,2,0,P|347:187|355:221,1,52.5000020027161,2|0,0:2|0:0,0:0:0:0:
448,314,16179,5,2,3:2:0:0:
387,273,16315,1,2,0:2:0:0:
323,311,16452,1,2,3:2:0:0:
102,292,16724,1,2,3:2:0:0:
111,301,16861,1,2,3:2:0:0:
182,373,16997,6,0,P|195:316|219:264,1,105.000004005432,10|0,3:2|0:0,0:0:0:0:
180,207,17406,1,2,0:2:0:0:
273,328,17543,2,0,P|306:315|340:307,1,52.5000020027161,2|0,0:2|0:0,0:0:0:0:
266,148,17815,2,0,P|240:140|216:129,1,52.5000020027161,2|0,3:2|0:0,0:0:0:0:
345,203,18088,2,0,P|326:221|304:236,1,52.5000020027161,2|0,0:2|0:0,0:0:0:0:
416,175,18361,2,0,P|422:200|424:226,1,52.5000020027161,2|0,3:2|0:0,0:0:0:0:
509,120,18634,6,0,P|457:108|409:88,1,105.000004005432,10|0,3:2|0:0,0:0:0:0:
334,120,19043,1,0,0:0:0:0:
334,120,19179,1,2,0:2:0:0:
460,364,19452,5,2,3:2:0:0:
512,317,19588,1,2,0:2:0:0:
485,251,19724,1,2,3:2:0:0:
415,258,19861,1,2,0:2:0:0:
400,300,19997,1,2,3:2:0:0:
376,315,20134,1,2,3:2:0:0:
357,310,20270,6,0,P|308:330|257:341,1,105.000004005432,10|0,3:2|3:0,0:0:0:0:
211,273,20679,1,2,0:2:0:0:
211,273,20815,1,2,0:2:0:0:
0,371,21088,2,0,P|33:369|55:391,1,52.5000020027161,0|0,3:0|0:0,0:0:0:0:
64,279,21361,2,0,P|31:281|9:259,1,52.5000020027161,0|0,3:0|0:0,0:0:0:0:
126,373,21634,2,0,P|133:347|144:323,1,52.5000020027161,0|0,3:0|0:0,0:0:0:0:
101,134,21906,6,0,P|121:182|132:233,1,105.000004005432,10|0,3:2|0:0,0:0:0:0:
211,273,22315,1,2,0:2:0:0:
242,171,22452,2,0,P|216:163|192:152,1,52.5000020027161,2|0,3:2|0:0,0:0:0:0:
295,253,22724,2,0,P|324:223|368:235,1,78.7500030040742,2|0,3:2|0:0,0:0:0:0:
389,258,22997,2,0,P|378:281|370:307,1,52.5000020027161,2|0,3:2|0:0,0:0:0:0:
454,318,23270,2,0,P|464:341|472:367,1,52.5000020027161,2|0,3:2|0:0,0:0:0:0:
512,209,23543,6,0,B|451:209|455:141|370:156,1,140,10|0,3:2|0:0,0:0:0:0:
319,124,23952,1,0,0:0:0:0:
319,124,24088,1,2,0:2:0:0:
504,9,24361,2,0,P|478:16|454:27,1,52.5000020027161,2|0,3:2|0:0,0:0:0:0:
315,44,24634,2,0,P|359:49|386:96,1,78.7500030040742,2|0,3:2|0:0,0:0:0:0:
394,98,24906,1,0,3:0:0:0:
220,18,25179,6,0,B|152:33|152:33|138:30|138:30|71:44,1,140,10|0,3:2|3:0,0:0:0:0:
8,14,25588,1,0,3:0:0:0:
8,14,25724,1,0,3:0:0:0:
45,359,25997,6,0,P|29:291|2:227,1,105.000004005432,4|0,3:2|0:0,0:0:0:0:
190,128,26270,2,0,P|165:188|150:251,1,105.000004005432,4|0,3:2|0:0,0:0:0:0:
30,151,26543,5,6,3:2:0:0:
165,335,26679,1,0,0:0:0:0:
52,373,26815,6,0,P|70:344|158:356,1,125.999996154785,8|0,3:2|0:0,0:0:0:0:
231,383,27224,1,0,3:0:0:0:
231,383,27361,2,0,P|260:370|294:359,1,62.9999980773926,2|0,0:2|0:0,0:0:0:0:
251,273,27634,2,0,P|183:257|119:230,2,125.999996154785,2|0|0,3:2|3:2|3:2,0:0:0:0:
512,265,28452,6,0,P|444:281|380:308,1,125.999996154785,2|0,3:2|0:0,0:0:0:0:
406,145,28861,1,2,3:2:0:0:
406,145,28997,2,0,P|435:158|469:169,1,62.9999980773926,2|0,0:2|0:0,0:0:0:0:
498,20,29270,2,0,B|443:11|436:74|375:52,1,125.999996154785,2|0,3:2|3:0,0:0:0:0:
58,21,29815,1,2,3:2:0:0:
49,12,29952,1,2,0:2:0:0:
6,121,30088,6,0,P|66:95|131:81,1,125.999996154785,2|2,3:2|0:2,0:0:0:0:
176,23,30497,1,2,3:2:0:0:
189,155,30634,2,0,P|198:125|211:96,1,62.9999980773926,2|0,0:2|0:0,0:0:0:0:
114,201,30906,2,0,P|80:195|60:163,1,62.9999980773926,2|0,3:2|0:0,0:0:0:0:
171,285,31179,2,0,P|156:316|120:327,1,62.9999980773926,2|0,3:2|0:0,0:0:0:0:
239,241,31452,2,0,P|265:263|266:300,1,62.9999980773926,2|0,3:2|0:0,0:0:0:0:
359,338,31724,6,0,P|377:286|454:291,1,125.999996154785,2|0,3:2|0:0,0:0:0:0:
505,384,32134,1,0,3:0:0:0:
505,384,32270,2,0,P|475:374|446:361,1,62.9999980773926,2|0,0:2|0:0,0:0:0:0:
377,175,32543,2,0,P|428:197|483:208,1,94.499997116089,2|0,3:2|0:0,0:0:0:0:
498,200,32815,1,0,3:0:0:0:
505,209,33088,1,0,3:0:0:0:
421,18,33361,6,0,P|386:53|299:28,1,125.999996154785,2|0,3:2|0:0,0:0:0:0:
234,0,33770,1,2,3:2:0:0:
234,0,33906,2,0,P|204:9|175:22,1,62.9999980773926,2|0,0:2|0:0,0:0:0:0:
228,166,34179,2,0,P|262:160|264:98,1,94.499997116089,2|0,3:2|0:0,0:0:0:0:
242,83,34452,1,0,3:0:0:0:
242,83,34588,1,0,0:0:0:0:
126,213,34724,2,0,P|155:222|184:235,1,62.9999980773926,0|0,3:0|0:0,0:0:0:0:
166,119,34997,6,0,P|105:144|41:157,1,125.999996154785,2|0,3:2|0:0,0:0:0:0:
119,218,35406,1,2,3:2:0:0:
11,323,35543,2,0,P|48:284|104:299,1,94.499997116089,2|0,0:2|0:0,0:0:0:0:
129,297,35815,2,0,P|116:325|106:355,1,62.9999980773926,2|0,3:2|0:0,0:0:0:0:
184,235,36088,2,0,P|155:222|125:212,1,62.9999980773926,2|0,3:2|0:0,0:0:0:0:
274,248,36361,2,0,P|286:219|296:189,1,62.9999980773926,2|0,3:2|0:0,0:0:0:0:
218,384,36634,6,0,P|298:350|383:332,1,161.000003070831,2|0,3:2|0:0,0:0:0:0:
440,368,37043,1,0,3:0:0:0:
512,219,37179,2,0,P|465:227|449:281,1,94.499997116089,2|0,0:2|0:0,0:0:0:0:
425,276,37452,2,0,P|409:230|390:186,1,94.499997116089,2|0,3:2|0:0,0:0:0:0:
421,156,37724,1,0,3:0:0:0:
421,156,37861,1,0,0:0:0:0:
249,214,37997,2,0,P|296:206|312:152,1,94.499997116089,2|0,3:2|0:0,0:0:0:0:
256,115,38270,6,0,P|226:124|197:137,1,62.9999980773926,2|0,3:2|0:0,0:0:0:0:
143,84,38543,1,0,0:0:0:0:
11,157,38679,2,0,P|71:173|129:198,1,125.999996154785,0|0,3:0|0:0,0:0:0:0:
102,339,39088,6,0,B|75:339|56:362|56:362|24:328|25:289|69:256,1,167.999994873047,2|0,3:2|3:0,0:0:0:0:
196,339,39770,1,2,3:0:0:0:
198,346,39838,1,2,0:0:0:0:
201,354,39906,6,0,B|269:339|269:339|283:342|283:342|350:328,1,140,6|0,3:2|0:0,0:0:0:0:
397,374,40179,1,0,0:0:0:0:
508,205,40315,6,0,B|440:190|440:190|426:193|426:193|359:179,1,140,6|0,3:2|0:0,0:0:0:0:
312,225,40588,1,0,0:0:0:0:
65,108,40724,6,0,B|109:106|140:41|140:41|176:96|232:111,1,210,6|0,3:2|0:0,0:0:0:0:
223,202,40997,2,0,B|179:204|148:269|148:269|112:214|56:199,1,210,6|0,3:2|0:0,0:0:0:0:
145,156,41270,1,2,0:2:0:0:
234,23,41543,5,2,0:2:0:0:
300,0,41815,1,2,0:2:0:0:
353,45,42088,1,2,0:2:0:0:
339,115,42361,5,2,0:2:0:0:
274,137,42633,1,2,0:2:0:0:
220,91,42906,1,2,0:2:0:0:
202,384,43179,6,0,B|187:316|187:316|190:302|190:302|176:235,1,140,6|0,3:2|0:0,0:0:0:0:
222,188,43452,1,0,0:0:0:0:
99,24,43588,6,0,B|114:92|114:92|111:106|111:106|125:173,1,140,6|0,3:2|0:0,0:0:0:0:
79,220,43861,1,0,0:0:0:0:
283,322,43997,6,0,P|362:323|441:207,1,210,6|0,3:2|0:0,0:0:0:0:
333,60,44270,2,0,P|292:127|353:254,1,210,6|0,3:2|0:0,0:0:0:0:
374,145,44543,1,2,0:2:0:0:
120,27,44815,5,2,0:2:0:0:
46,38,45088,1,2,0:2:0:0:
162,92,45361,1,2,0:2:0:0:
137,162,45634,5,2,0:2:0:0:
63,173,45907,1,2,0:2:0:0:
21,108,46180,1,2,0:2:0:0:
16,280,46452,6,0,P|98:307|177:342,1,140,2|2,0:2|0:2,0:0:0:0:
212,285,46861,1,0,0:2:0:0:
212,285,46997,1,0,0:2:0:0:
349,383,47270,5,2,0:2:0:0:
414,345,47543,1,2,0:2:0:0:
376,280,47815,1,2,0:2:0:0:
311,318,48088,6,0,P|293:266|271:217,1,105.000004005432,2|2,0:2|0:2,0:0:0:0:
317,153,48497,1,0,0:2:0:0:
317,153,48634,1,0,0:2:0:0:
106,46,48906,5,2,0:2:0:0:
79,149,49179,1,2,0:2:0:0:
41,84,49451,1,2,0:2:0:0:
144,111,49724,6,0,P|195:128|244:150,1,105.000004005432,2|0,0:2|0:0,0:0:0:0:
302,49,50134,1,2,0:2:0:0:
302,49,50270,2,0,P|267:60|234:75,1,52.5000020027161,2|0,0:2|0:0,0:0:0:0:
304,213,50543,6,0,P|321:161|343:112,1,105.000004005432,2|0,0:2|0:0,0:0:0:0:
403,64,50952,1,2,0:2:0:0:
403,64,51088,2,0,P|437:75|470:90,1,52.5000020027161,2|0,0:2|0:0,0:0:0:0:
502,223,51361,6,0,P|473:182|411:194,1,105.000004005432,2|0,0:2|0:0,0:0:0:0:
378,262,51770,1,0,0:0:0:0:
125,349,52043,5,0,0:0:0:0:
125,349,52179,2,0,P|147:317|195:326,1,78.7500030040742,2|0,0:2|0:0,0:0:0:0:
212,345,52452,2,0,P|234:376|282:367,1,78.7500030040742
300,350,52724,1,2,0:2:0:0:
276,266,52860,1,2,0:2:0:0:
276,266,52929,1,0,0:2:0:0:
276,266,52997,5,2,3:2:0:0:
351,298,53270,1,0,0:2:0:0:
424,256,53543,1,0,0:2:0:0:
363,72,53815,5,2,0:2:0:0:
310,130,54088,1,0,0:2:0:0:
327,203,54361,1,0,0:2:0:0:
338,200,54497,1,0,0:0:0:0:
232,51,54634,5,6,0:2:0:0:
150,6,54906,1,0,0:2:0:0:
84,34,55179,1,0,0:2:0:0:
66,63,55452,1,2,0:2:0:0:
209,285,56763,6,0,P|216:306|225:329,1,35,2|0,0:2|0:0,0:0:0:0:
307,368,57043,6,0,P|316:337|328:306,1,45.4999979171754,2|0,0:2|0:0,0:0:0:0:
329,220,57349,6,0,P|289:235|250:247,1,56,2|0,0:2|0:0,0:0:0:0:
394,282,57638,6,0,P|435:299|479:314,1,70,2|0,0:2|0:0,0:0:0:0:
499,105,57906,6,0,P|459:64|405:75,1,101.500003097534,6|0,0:2|0:0,0:0:0:0:
354,19,58178,1,8,0:2:0:0:
161,149,58315,2,0,B|231:103|304:135|304:135|316:106|347:87,1,203.000006195069,0|0,3:0|0:0,0:0:0:0:
253,234,58724,2,0,P|260:203|259:230,1,101.500003097534,0|0,3:0|0:0,0:0:0:0:
346,332,58996,2,0,P|297:349|250:370,1,101.500003097534,2|0,3:2|0:0,0:0:0:0:
87,232,59269,1,10,0:2:0:0:
201,301,59406,1,8,0:2:0:0:
38,384,59542,6,0,P|20:335|-1:288,1,101.500003097534,10|0,3:2|0:0,0:0:0:0:
79,88,59815,1,10,0:2:0:0:
2,185,59951,1,0,3:0:0:0:
24,25,60087,2,0,P|85:4|158:67,1,152.250004646301,10|0,0:2|0:0,0:0:0:0:
198,112,60360,2,0,B|233:74|225:33|225:33|249:68|230:105,1,152.250004646301,0|0,3:0|0:0,0:0:0:0:
229,185,60633,2,0,P|275:164|323:147,1,101.500003097534,2|0,3:2|0:0,0:0:0:0:
494,79,60906,1,10,0:2:0:0:
359,0,61042,1,8,0:2:0:0:
359,0,61110,1,8,0:0:0:0:
359,0,61178,6,0,B|348:49|396:38|393:93,1,101.500003097534,10|0,3:2|0:0,0:0:0:0:
512,228,61451,1,10,0:2:0:0:
417,162,61587,1,0,3:0:0:0:
343,331,61724,2,0,P|435:363|524:404,1,152.250004646301,10|0,0:2|0:0,0:0:0:0:
512,310,61996,2,0,P|449:287|388:260,1,101.500003097534,0|0,3:0|0:0,0:0:0:0:
184,334,62269,2,0,P|231:353|279:371,1,101.500003097534,0|0,3:0|0:0,0:0:0:0:
20,207,62542,1,10,0:2:0:0:
110,374,62678,1,8,0:2:0:0:
217,245,62815,6,0,P|157:231|123:269,1,101.500003097534,10|0,3:2|0:0,0:0:0:0:
64,305,63087,1,8,0:2:0:0:
0,80,63224,2,0,B|90:50|73:155|186:139,1,203.000006195069,0|0,3:0|0:0,0:0:0:0:
250,24,63633,2,0,P|187:47|126:74,1,101.500003097534,2|0,3:2|0:0,0:0:0:0:
286,182,63906,2,0,P|332:162|380:145,1,101.500003097534,0|0,3:0|0:0,0:0:0:0:
506,208,64178,1,8,0:2:0:0:
405,11,64315,1,8,0:2:0:0:
318,269,64451,6,0,P|265:287|213:308,1,80.5000015354157,6|0,0:2|0:0,0:0:0:0:
369,205,64724,2,0,P|376:156|383:106,1,70,10|0,0:2|3:0,0:0:0:0:
399,276,64996,2,0,P|429:301|461:326,1,59.5000011348725,10|0,0:2|0:0,0:0:0:0:
245,176,65269,6,0,P|238:145|239:172,1,101.500003097534,2|0,3:2|0:0,0:0:0:0:
366,365,65542,2,0,P|343:384|365:371,1,90.9999958343508,2|0,3:2|0:0,0:0:0:0:
459,219,65815,1,10,0:2:0:0:
459,219,65952,1,8,0:2:0:0:
239,297,66087,6,0,P|190:280|143:259,1,101.500003097534,10|0,3:2|0:0,0:0:0:0:
73,303,66360,1,10,0:2:0:0:
23,60,66496,2,0,P|60:128|182:118,1,203.000006195069,0|0,3:0|0:0,0:0:0:0:
346,29,66906,2,0,P|290:17|254:52,1,101.500003097534,2|0,3:2|0:0,0:0:0:0:
257,221,67178,2,0,P|295:178|283:129,1,101.500003097534,2|0,3:2|0:0,0:0:0:0:
170,41,67451,1,10,3:2:0:0:
391,167,67587,1,8,0:2:0:0:
174,375,67724,6,0,B|152:275|152:275|155:259|155:259|135:158,1,203.000006195069,10|8,3:2|0:2,0:0:0:0:
49,129,68133,1,0,3:0:0:0:
259,234,68269,2,0,P|308:251|355:272,1,101.500003097534,10|0,0:2|0:0,0:0:0:0:
512,65,68542,6,0,P|475:133|353:123,1,203.000006195069,2|0,3:2|3:0,0:0:0:0:
387,39,68951,1,0,0:0:0:0:
449,262,69087,2,0,P|428:308|411:356,1,101.500003097534,8|8,0:2|0:2,0:0:0:0:
227,86,69360,6,0,P|276:196|315:310,1,203.000006195069,8|8,3:2|0:2,0:0:0:0:
373,228,69769,1,0,3:0:0:0:
280,370,69906,5,10,0:2:0:0:
205,308,70042,1,0,0:0:0:0:
150,378,70178,5,2,3:2:0:0:
313,296,70315,1,8,0:2:0:0:
136,382,70451,1,2,3:2:0:0:
368,364,70587,5,8,0:2:0:0:
173,230,70724,1,10,0:2:0:0:
382,362,70860,1,8,0:2:0:0:
504,91,70996,6,0,P|450:109|400:132,1,108.500000827789,6|0,0:2|0:0,0:0:0:0:
300,51,71269,1,8,0:2:0:0:
161,153,71406,2,0,B|223:146|253:204|253:204|276:144|326:133,1,217.000001655579,0|0,3:0|0:0,0:0:0:0:
357,247,71815,2,0,P|364:216|363:243,1,108.500000827789,0|0,3:0|0:0,0:0:0:0:
361,384,72087,2,0,P|413:359|469:340,1,108.500000827789,2|0,3:2|0:0,0:0:0:0:
265,303,72360,1,10,0:2:0:0:
153,384,72496,1,8,0:2:0:0:
131,160,72633,6,0,P|153:209|170:260,1,108.500000827789,10|0,3:2|0:0,0:0:0:0:
208,108,72906,1,10,0:2:0:0:
71,46,73042,1,0,3:0:0:0:
213,121,73178,2,0,P|274:142|342:80,1,162.750001241684,10|0,0:2|0:0,0:0:0:0:
329,10,73451,2,0,B|279:24|265:64|265:64|262:22|297:0,1,162.750001241684,0|0,3:0|0:0,0:0:0:0:
405,33,73724,6,0,P|454:55|505:72,1,108.500000827789,2|0,3:2|0:0,0:0:0:0:
343,202,73996,1,10,0:2:0:0:
509,184,74133,1,8,0:2:0:0:
509,184,74201,1,8,0:0:0:0:
509,184,74269,6,0,P|466:144|417:158,1,108.500000827789,10|0,3:2|0:0,0:0:0:0:
451,361,74542,1,10,0:2:0:0:
512,267,74678,1,0,3:0:0:0:
313,312,74815,2,0,P|221:344|132:385,1,162.750001241684,10|0,0:2|0:0,0:0:0:0:
122,268,75087,2,0,P|173:276|209:238,1,108.500000827789,0|0,3:0|0:0,0:0:0:0:
443,353,75360,2,0,P|391:344|355:382,1,108.500000827789,0|0,3:0|0:0,0:0:0:0:
259,155,75633,1,10,0:2:0:0:
355,381,75769,1,8,0:2:0:0:
508,178,75906,6,0,P|456:195|407:217,1,108.500000827789,10|0,3:2|0:0,0:0:0:0:
332,305,76178,1,8,0:2:0:0:
239,58,76315,2,0,B|329:28|334:140|440:115,1,217.000001655579,0|0,3:0|0:0,0:0:0:0:
509,0,76724,2,0,P|446:23|385:50,1,108.500000827789,2|0,3:2|0:0,0:0:0:0:
259,155,76996,2,0,P|196:132|135:105,1,108.500000827789,0|0,3:0|0:0,0:0:0:0:
115,246,77269,1,10,0:2:0:0:
16,21,77406,1,8,0:2:0:0:
242,226,77542,6,0,P|293:234|329:196,1,108.500000827789,6|0,0:2|0:0,0:0:0:0:
363,123,77815,1,8,0:2:0:0:
510,251,77951,2,0,P|406:286|307:332,1,217.000001655579,0|0,3:0|0:0,0:0:0:0:
115,246,78360,6,0,P|168:265|222:288,1,87.5,2|0,3:2|0:0,0:0:0:0:
289,139,78633,2,0,P|247:172|204:203,1,77.0000023498536,2|0,3:2|0:0,0:0:0:0:
307,320,78906,2,0,P|298:271|293:223,1,66.4999982242585,10|8,0:2|0:2,0:0:0:0:
150,166,79178,6,0,B|140:131|112:121|112:121|141:119|156:143,1,108.500000827789,10|0,3:2|0:0,0:0:0:0:
295,254,79451,2,0,B|327:261|348:243|348:243|336:268|309:270,1,97.9999970092774,10|0,0:2|3:0,0:0:0:0:
235,348,79724,2,0,B|215:369|220:392|220:392|206:372|216:351,1,87.1500040226557,10|0,0:2|0:0,0:0:0:0:
319,144,79996,6,0,P|336:92|358:43,1,108.500000827789,2|0,3:2|0:0,0:0:0:0:
291,0,80269,1,0,3:0:0:0:
465,137,80406,1,0,0:0:0:0:
232,195,80542,2,0,P|197:132|85:141,1,162.750001241684,10|0,3:2|0:0,0:0:0:0:
0,257,80815,6,0,B|100:279|100:279|116:276|116:276|217:296,1,217.000001655579,10|8,3:2|0:2,0:0:0:0:
240,370,81224,1,0,3:0:0:0:
419,264,81360,2,0,P|367:280|317:303,1,108.500000827789,10|0,0:2|0:0,0:0:0:0:
491,321,81633,2,0,B|559:215|411:215|504:96,1,217.000001655579,2|0,3:2|3:0,0:0:0:0:
512,30,82042,1,0,0:0:0:0:
309,8,82178,2,0,P|344:50|404:45,1,108.500000827789,8|8,0:2|0:2,0:0:0:0:
370,199,82451,6,0,P|304:120|193:130,1,217.000001655579,8|8,3:2|0:2,0:0:0:0:
225,229,82860,1,0,3:0:0:0:
37,17,82996,2,0,P|89:33|139:56,1,108.500000827789,8|0,0:2|0:0,0:0:0:0:
103,275,83269,6,0,P|77:190|39:109,1,162.750001241684,2|0,3:2|0:0,0:0:0:0:
29,107,83542,1,0,3:0:0:0:
230,238,83678,1,0,3:0:0:0:
18,365,83815,1,10,0:2:0:0:
114,185,83951,1,8,0:2:0:0:
291,360,84087,6,0,P|364:356|385:318,1,97.9999970092774,6|0,0:2|0:0,0:0:0:0:
491,209,84360,2,0,P|441:231|389:247,1,97.9999970092774,2|0,0:2|3:0,0:0:0:0:
263,129,84633,2,0,P|312:151|364:167,1,97.9999970092774,2|0,0:2|0:0,0:0:0:0:
512,15,84906,2,0,P|432:51|348:77,1,146.999995513916,2|0,3:2|0:0,0:0:0:0:
297,56,85178,2,0,P|250:40|205:20,1,97.9999970092774,2|0,3:2|0:0,0:0:0:0:
18,194,85451,2,0,P|54:222|91:216,1,73.4999977569581,10|0,3:2|0:0,0:0:0:0:
115,235,85724,6,0,P|99:183|76:133,1,97.9999970092774,2|0,3:2|0:0,0:0:0:0:
263,129,85996,1,2,0:2:0:0:
147,96,86133,2,0,P|196:118|248:134,1,97.9999970092774,2|0,3:2|0:0,0:0:0:0:
331,186,86406,1,2,0:2:0:0:
271,297,86542,2,0,P|286:245|309:195,1,97.9999970092774,2|0,3:2|0:0,0:0:0:0:
203,349,86815,2,0,P|164:313|112:320,1,97.9999970092774,2|0,3:2|0:0,0:0:0:0:
315,369,87087,2,0,P|353:333|405:340,1,97.9999970092774,10|8,3:2|3:2,0:0:0:0:
476,169,87360,6,0,B|418:175|390:121|390:121|368:177|321:187,1,195.999994018555,2|0,3:2|0:2,0:0:0:0:
398,225,87769,1,0,3:0:0:0:
311,113,87906,2,0,P|295:61|272:11,1,97.9999970092774,2|0,0:2|0:0,0:0:0:0:
175,196,88178,6,0,P|213:160|265:167,1,97.9999970092774,2|0,3:2|0:0,0:0:0:0:
65,238,88451,2,0,P|14:222|-4:173,1,77.0000023498536,2|0,3:2|0:0,0:0:0:0:
172,311,88724,2,0,P|179:347|156:377,1,56,10|8,3:2|3:2,0:0:0:0:
133,255,88996,5,2,3:2:0:0:
