osu file format v14

[General]
AudioFilename: audio.ogg
AudioLeadIn: 0
PreviewTime: 56679
Countdown: 0
SampleSet: Soft
StackLeniency: 0.7
Mode: 0
LetterboxInBreaks: 0
WidescreenStoryboard: 1

[Editor]
Bookmarks: 13724,26815,39906,46452,57906,64451,70997,84088
DistanceSpacing: 1
BeatDivisor: 4
GridSize: 4
TimelineZoom: 1.7

[Metadata]
Title:Katayoku no Tori (TV Size)
TitleUnicode:片翼の鳥 (TV Size)
Artist:Shikata Akiko
ArtistUnicode:志方あきこ
Creator:Kurumiism
Version:Normal
Source:うみねこのなく頃に
Tags:kafaka umineko no naku koro ni henyoku 竜騎士07 ryukishi07 one winged bird one-winged bird eagle visual novel vn video game vgm when the seagulls cry when they cry 07th expansion folk jp jpop pop j-pop japanese italian female vocal vocalist op opening theme anime
BeatmapID:4361659
BeatmapSetID:2079060

[Difficulty]
HPDrainRate:3
CircleSize:3
OverallDifficulty:4.5
ApproachRate:5.5
SliderMultiplier:1
SliderTickRate:1

[Events]
//Background and Video events
0,0,"bg.jpg",0,0
Video,-235,"op.avi"
//Break Periods
//Storyboard Layer 0 (Background)
//Storyboard Layer 1 (Fail)
//Storyboard Layer 2 (Pass)
//Storyboard Layer 3 (Foreground)
//Storyboard Layer 4 (Overlay)
//Storyboard Sound Samples

[TimingPoints]
634,272.727272727273,3,2,2,65,1,0
634,-100,3,2,2,65,0,0
906,-100,3,2,1,65,0,0
1043,-100,3,2,1,65,0,0
1452,-100,3,2,1,65,0,0
2270,-100,3,2,2,65,0,0
2543,-100,3,2,1,65,0,0
3088,-100,3,2,1,65,0,0
3634,-100,3,2,1,65,0,0
3906,-100,3,2,2,65,0,0
4179,-100,3,2,1,65,0,0
4315,-100,3,2,1,65,0,0
4724,-100,3,2,1,65,0,0
5270,-100,3,2,1,65,0,0
5543,-100,3,2,2,65,0,0
5815,-100,3,2,1,65,0,0
6361,-100,3,2,1,65,0,0
7179,-100,3,2,2,65,0,0
7452,-100,3,2,1,65,0,0
7588,-100,3,2,1,65,0,0
7997,-100,3,2,1,65,0,0
8815,-100,3,2,2,65,0,0
9088,-100,3,2,1,65,0,0
9634,-100,3,2,1,65,0,0
10179,-100,3,2,1,65,0,0
10452,-100,3,2,2,65,0,0
10724,-100,3,2,1,65,0,0
10861,-100,3,2,1,65,0,0
11270,-100,3,2,1,65,0,0
11815,-100,3,2,1,65,0,0
12088,-100,3,2,2,65,0,0
12361,-100,3,2,1,65,0,0
12906,-100,3,2,1,65,0,0
13179,-100,3,2,1,65,0,0
13724,-111.111111111111,3,2,2,45,0,0
14270,-111.111111111111,3,2,1,45,0,0
15361,-111.111111111111,3,2,2,45,0,0
15770,-111.111111111111,3,2,1,45,0,0
16997,-111.111111111111,3,2,2,45,0,0
17406,-111.111111111111,3,2,1,45,0,0
18634,-111.111111111111,3,2,2,45,0,0
18906,-111.111111111111,3,2,1,45,0,0
20270,-111.111111111111,3,2,2,45,0,0
20543,-111.111111111111,3,2,1,45,0,0
21906,-111.111111111111,3,2,2,45,0,0
22315,-111.111111111111,3,2,1,45,0,0
22997,-111.111111111111,3,2,1,45,0,0
23543,-111.111111111111,3,2,2,45,0,0
23815,-111.111111111111,3,2,1,45,0,0
24361,-111.111111111111,3,2,1,45,0,0
24906,-111.111111111111,3,2,1,45,0,0
25179,-111.111111111111,3,2,2,45,0,0
25452,-111.111111111111,3,2,1,45,0,0
25997,-111.111111111111,3,2,1,45,0,0
26270,-111.111111111111,3,2,1,45,0,0
26543,-111.111111111111,3,2,1,45,0,0
26815,-111.111111111111,3,2,2,45,0,0
27224,-111.111111111111,3,2,1,45,0,0
28452,-111.111111111111,3,2,2,45,0,0
28861,-111.111111111111,3,2,1,45,0,0
30088,-111.111111111111,3,2,2,45,0,0
30497,-111.111111111111,3,2,1,45,0,0
31724,-111.111111111111,3,2,2,45,0,0
32134,-111.111111111111,3,2,1,45,0,0
32747,-111.111111111111,3,2,1,45,0,0
32815,-111.111111111111,3,2,1,45,0,0
33361,-111.111111111111,3,2,2,45,0,0
33770,-111.111111111111,3,2,1,45,0,0
34997,-111.111111111111,3,2,2,45,0,0
35406,-111.111111111111,3,2,1,45,0,0
35815,-111.111111111111,3,2,1,45,0,0
36634,-111.111111111111,3,2,2,45,0,0
37043,-111.111111111111,3,2,1,45,0,0
37179,-111.111111111111,3,2,1,45,0,0
37452,-111.111111111111,3,2,1,45,0,0
38270,-111.111111111111,3,2,2,45,0,0
38679,-111.111111111111,3,2,1,45,0,0
39088,-111.111111111111,3,2,1,45,0,0
39906,-90.9090909090908,3,2,2,60,0,0
40315,-90.9090909090908,3,2,2,60,0,0
40724,-90.9090909090908,3,2,2,60,0,0
40929,-90.9090909090908,3,2,2,60,0,0
40997,-100,3,2,2,60,0,0
41202,-100,3,2,2,60,0,0
41270,-100,3,2,2,60,0,0
41543,-100,3,2,2,40,0,0
43179,-90.9090909090908,3,2,2,60,0,0
43588,-90.9090909090908,3,2,2,60,0,0
43997,-90.9090909090908,3,2,2,60,0,0
44270,-100,3,2,2,60,0,0
44543,-100,3,2,2,60,0,0
44815,-100,3,2,1,45,0,0
46452,-111.111111111111,3,2,1,40,0,0
47270,-111.111111111111,3,2,1,35,0,0
48088,-111.111111111111,3,2,1,35,0,0
49724,-111.111111111111,3,2,1,40,0,0
52997,-111.111111111111,3,2,2,40,0,0
54634,-111.111111111111,3,2,2,40,0,0
56763,280.373831775701,3,2,1,50,1,0
56763,-111.111111111111,3,2,1,50,0,0
57043,306.122448979592,3,2,1,50,1,0
57043,-111.111111111111,3,2,1,50,0,0
57349,289.855072463768,3,2,1,50,1,0
57349,-111.111111111111,3,2,1,50,0,0
57638,-111.111111111111,3,2,1,50,0,0
57906,272.727272727273,3,2,2,70,1,0
57906,-100,3,2,2,70,0,1
58042,-100,3,2,2,70,0,1
58178,-100,3,2,1,70,0,1
59542,-100,3,2,2,70,0,1
59815,-100,3,2,1,70,0,1
61178,-100,3,2,2,70,0,1
61451,-100,3,2,1,70,0,1
62815,-100,3,2,2,70,0,1
63087,-100,3,2,1,70,0,1
63633,-100,3,2,2,70,0,1
63906,-100,3,2,1,70,0,1
64451,-100,3,2,2,70,0,1
64724,-100,3,2,1,70,0,1
66087,-100,3,2,2,70,0,1
66360,-100,3,2,1,70,0,1
66906,-100,3,2,1,70,0,1
67451,-100,3,2,2,70,0,1
67587,-100,3,2,1,70,0,1
67724,-100,3,2,2,70,0,1
67996,-100,3,2,1,70,0,1
68542,-100,3,2,2,70,0,1
68815,-100,3,2,1,70,0,1
69360,-100,3,2,2,70,0,1
69633,-100,3,2,1,70,0,1
69906,-100,3,2,1,70,0,0
70996,-100,3,2,2,70,0,1
71133,-100,3,2,2,70,0,1
71269,-100,3,2,1,70,0,1
72633,-100,3,2,2,70,0,1
72906,-100,3,2,1,70,0,1
74269,-100,3,2,2,70,0,1
74542,-100,3,2,1,70,0,1
75906,-100,3,2,2,70,0,1
76178,-100,3,2,1,70,0,1
76724,-100,3,2,2,70,0,1
76996,-100,3,2,1,70,0,1
77542,-100,3,2,2,70,0,1
77815,-100,3,2,1,70,0,1
79178,-100,3,2,2,70,0,1
79451,-100,3,2,1,70,0,1
80542,-100,3,2,2,70,0,1
80678,-100,3,2,1,70,0,1
80815,-100,3,2,2,70,0,1
81087,-100,3,2,1,70,0,1
81633,-100,3,2,2,70,0,1
81906,-100,3,2,1,70,0,1
82451,-100,3,2,2,70,0,1
82724,-100,3,2,1,70,0,1
83542,-100,3,2,1,70,0,1
84087,-111.111111111111,3,2,2,60,0,0
84224,-111.111111111111,3,2,2,60,0,0
84360,-111.111111111111,3,2,1,60,0,0
85110,-111.111111111111,3,2,1,60,0,0
85178,-111.111111111111,3,2,1,60,0,0
85724,-111.111111111111,3,2,2,60,0,0
85996,-111.111111111111,3,2,1,60,0,0
87360,-111.111111111111,3,2,2,60,0,0
87633,-111.111111111111,3,2,1,60,0,0
88451,-111.111111111111,3,2,1,60,0,0
88724,-111.111111111111,3,2,1,60,0,0
88996,-111.111111111111,3,2,2,60,0,0

[Colours]
Combo1 : 53,53,59
Combo2 : 196,194,161
Combo3 : 144,173,173
Combo4 : 123,120,116
Combo5 : 126,142,165

[HitObjects]
500,285,634,6,0,P|470:242|418:248,1,100,6|0,3:2|3:0,0:0:0:0:
390,280,1043,2,0,P|360:322|308:316,1,100,2|0,0:2|0:0,0:0:0:0:
276,288,1452,1,2,3:2:0:0:
289,189,1724,1,2,0:2:0:0:
303,89,1997,1,2,0:2:0:0:
223,28,2270,6,0,B|146:10|146:10|82:54,1,150,2|2,3:2|0:2,0:0:0:0:
29,188,3088,2,0,P|67:225|131:217,1,100,2|2,3:2|3:2,0:0:0:0:
183,297,3634,2,0,P|172:329|164:363,1,50,10|8,3:2|3:2,0:0:0:0:
202,380,3906,6,0,P|257:370|309:349,1,100,6|0,3:2|3:0,0:0:0:0:
330,316,4315,2,0,P|385:326|437:347,1,100,2|0,0:2|0:0,0:0:0:0:
474,328,4724,1,2,3:2:0:0:
461,229,4996,1,2,0:2:0:0:
447,129,5269,1,2,3:2:0:0:
353,165,5543,6,0,P|323:207|271:201,2,100,2|2|2,3:2|0:2|0:2,0:0:0:0:
336,66,6361,2,0,P|238:48|145:10,1,200,2|8,3:2|3:2,0:0:0:0:
125,108,7179,6,0,B|113:159|113:159|115:170|115:170|104:221,1,100,6|0,3:2|3:0,0:0:0:0:
71,240,7588,2,0,B|82:291|82:291|80:302|80:302|91:353,1,100,2|0,0:2|0:0,0:0:0:0:
127,369,7997,1,2,3:2:0:0:
226,356,8269,1,2,0:2:0:0:
326,342,8542,1,2,0:2:0:0:
405,281,8815,6,0,P|369:241|407:150,1,150,2|2,3:2|0:2,0:0:0:0:
438,12,9634,2,0,P|380:45|342:35,1,100,2|2,3:2|3:2,0:0:0:0:
264,91,10179,2,0,P|275:123|283:157,1,50,10|8,3:2|3:2,0:0:0:0:
257,183,10452,6,0,B|208:201|208:201|157:179,1,100,6|0,3:2|3:0,0:0:0:0:
113,182,10861,1,2,0:2:0:0:
192,309,11270,1,2,3:2:0:0:
291,302,11543,1,2,0:2:0:0:
390,289,11815,1,2,3:2:0:0:
489,278,12088,2,0,B|477:329|477:329|479:340|479:340|468:391,2,100,2|2|2,3:2|3:2|0:2,0:0:0:0:
428,198,12906,2,0,P|468:162|518:178,1,100,2|0,3:2|3:0,0:0:0:0:
504,70,13452,1,8,3:2:0:0:
436,10,13724,6,0,P|351:40|262:55,1,179.999994506836,2|2,3:2|0:2,0:0:0:0:
173,37,14543,2,0,P|124:19|74:10,2,89.9999972534181,2|2|2,3:2|0:2|3:2,0:0:0:0:
132,117,15361,2,0,P|157:184|172:255,1,134.999995880127,10|2,3:2|0:2,0:0:0:0:
210,265,15906,1,2,0:2:0:0:
197,354,16179,1,2,3:2:0:0:
21,324,16724,2,0,P|13:301|6:277,1,44.999998626709,2|2,3:2|3:2,0:0:0:0:
32,243,16997,6,0,P|46:177|70:114,1,134.999995880127,10|2,3:2|0:2,0:0:0:0:
59,70,17543,1,2,0:2:0:0:
138,28,17815,2,0,P|167:60|210:60,1,89.9999972534181,2|2,3:2|0:2,0:0:0:0:
293,21,18361,1,2,3:2:0:0:
376,54,18634,6,0,P|460:95|453:175,1,179.999994506836,10|2,3:2|0:2,0:0:0:0:
510,242,19452,1,2,3:2:0:0:
263,351,20270,6,0,P|214:373|185:296,1,134.999995880127,10|2,3:2|0:2,0:0:0:0:
195,274,20815,1,2,0:2:0:0:
129,212,21088,2,0,P|65:188|0:174,1,134.999995880127,0|0,3:0|0:0,0:0:0:0:
83,68,21906,2,0,P|146:44|212:30,1,134.999995880127,10|2,3:2|0:2,0:0:0:0:
246,59,22452,1,2,3:2:0:0:
327,22,22724,2,0,P|360:56|353:104,1,89.9999972534181,2|2,3:2|3:2,0:0:0:0:
306,170,23270,1,2,3:2:0:0:
367,235,23543,6,0,P|426:228|414:324,1,179.999994506836,10|2,3:2|0:2,0:0:0:0:
343,366,24361,1,2,3:2:0:0:
280,300,24634,2,0,P|237:270|198:274,1,89.9999972534181,2|0,3:2|3:0,0:0:0:0:
146,344,25179,2,0,P|81:360|18:384,1,134.999995880127,10|0,3:2|3:0,0:0:0:0:
53,254,25997,5,4,3:2:0:0:
102,179,26270,1,4,3:2:0:0:
33,121,26543,2,0,P|43:90|56:60,1,44.999998626709,6|0,3:2|0:0,0:0:0:0:
79,46,26815,6,0,P|118:86|201:65,1,134.999995880127,8|0,3:2|3:0,0:0:0:0:
226,47,27361,1,2,0:2:0:0:
292,107,27634,2,0,P|341:125|391:134,2,89.9999972534181,2|2|2,3:2|3:2|3:2,0:0:0:0:
234,175,28452,2,0,P|258:238|274:303,1,134.999995880127,2|2,3:2|3:2,0:0:0:0:
304,337,28997,1,2,0:2:0:0:
383,379,29270,1,2,3:2:0:0:
486,232,29815,2,0,P|476:201|463:171,1,44.999998626709,2|2,3:2|0:2,0:0:0:0:
446,153,30088,6,0,P|399:173|340:114,1,134.999995880127,2|2,3:2|3:2,0:0:0:0:
351,79,30634,1,2,0:2:0:0:
279,24,30906,2,0,P|235:24|205:56,1,89.9999972534181,2|2,3:2|3:2,0:0:0:0:
121,89,31452,1,2,3:2:0:0:
49,31,31724,2,0,B|33:98|33:98|36:112|36:112|21:178,1,134.999995880127,2|0,3:2|3:0,0:0:0:0:
0,206,32270,1,2,0:2:0:0:
62,270,32543,1,2,3:2:0:0:
307,382,33361,6,0,P|345:347|324:264,1,134.999995880127,2|2,3:2|3:2,0:0:0:0:
294,245,33906,1,2,0:2:0:0:
363,187,34179,2,0,P|429:211|497:223,1,134.999995880127,2|0,3:2|0:0,0:0:0:0:
491,88,34997,2,0,P|462:33|394:39,1,134.999995880127,2|2,3:2|3:2,0:0:0:0:
363,67,35543,1,2,0:2:0:0:
280,32,35815,2,0,P|236:23|194:7,1,89.9999972534181,2|2,3:2|3:2,0:0:0:0:
112,47,36361,1,2,3:2:0:0:
37,97,36634,6,0,P|68:181|90:268,1,179.999994506836,2|2,3:2|0:2,0:0:0:0:
166,316,37452,2,0,P|260:293|349:259,1,179.999994506836,2|2,3:2|3:2,0:0:0:0:
377,183,38270,2,0,P|352:136|231:146,1,179.999994506836,2|0,3:2|0:0,0:0:0:0:
161,90,39088,1,2,3:2:0:0:
320,341,39906,6,0,P|355:354|405:289,1,110.000003356934,6|0,3:2|0:0,0:0:0:0:
447,275,40315,2,0,P|460:240|395:190,1,110.000003356934,6|0,3:2|0:0,0:0:0:0:
363,200,40724,1,6,3:2:0:0:
388,103,40997,1,6,3:2:0:0:
204,22,41543,5,2,0:2:0:0:
204,22,43179,6,0,L|180:142,1,110.000003356934,6|0,3:2|0:0,0:0:0:0:
131,150,43588,2,0,L|154:270,1,110.000003356934,6|0,3:2|0:0,0:0:0:0:
189,298,43997,1,6,3:2:0:0:
257,371,44270,1,6,3:2:0:0:
420,255,44815,5,2,0:2:0:0:
420,255,46452,6,0,P|327:278|238:312,1,179.999994506836,2|0,0:2|0:2,0:0:0:0:
174,255,47270,2,0,P|130:244|89:228,2,89.9999972534181,2|2|2,0:2|0:2|0:2,0:0:0:0:
240,193,48088,2,0,P|279:208|345:105,1,179.999994506836,2|0,0:2|0:2,0:0:0:0:
412,51,48906,2,0,P|440:80|500:65,2,89.9999972534181,2|2|2,0:2|0:2|0:2,0:0:0:0:
331,11,49724,6,0,P|264:37|194:54,1,134.999995880127,2|2,0:2|0:2,0:0:0:0:
160,36,50270,1,2,0:2:0:0:
71,17,50543,2,0,P|25:63|31:128,1,134.999995880127,2|2,0:2|0:2,0:0:0:0:
56,166,51088,1,2,0:2:0:0:
22,249,51361,1,2,0:2:0:0:
269,357,52179,6,0,B|361:380|347:296|438:314,1,179.999994506836,2|2,0:2|0:2,0:0:0:0:
503,254,52997,1,2,3:2:0:0:
256,192,53270,12,2,55452,0:2:0:0:
489,286,57906,6,0,P|410:303|335:332,1,150,6|0,0:2|3:0,0:0:0:0:
312,365,58451,1,8,0:2:0:0:
219,327,58724,1,0,3:0:0:0:
229,227,58996,2,0,P|236:203|245:179,1,50,2|0,3:2|0:0,0:0:0:0:
274,138,59269,1,10,0:2:0:0:
222,52,59542,6,0,P|190:83|128:62,1,100,10|10,3:2|0:2,0:0:0:0:
56,17,60087,1,10,0:2:0:0:
14,108,60360,1,0,3:0:0:0:
46,202,60633,2,0,P|35:234|27:268,1,50,2|0,3:2|0:0,0:0:0:0:
4,292,60906,1,10,0:2:0:0:
62,372,61178,6,0,P|93:340|157:361,1,100,10|10,3:2|0:2,0:0:0:0:
213,274,61724,2,0,P|202:225|185:178,2,100,10|0|0,0:2|3:0|3:0,0:0:0:0:
293,332,62541,1,10,0:2:0:0:
341,243,62815,6,0,P|406:251|499:150,1,200,10|8,3:2|0:2,0:0:0:0:
457,71,63633,1,2,3:2:0:0:
362,103,63906,1,0,3:0:0:0:
269,66,64178,2,0,P|246:74|222:81,1,50,8|8,0:2|0:2,0:0:0:0:
179,108,64451,6,0,P|144:52|164:18,2,100,6|10|10,0:2|0:2|0:2,0:0:0:0:
114,184,65269,2,0,P|56:220|22:200,2,100,2|2|10,3:2|3:2|0:2,0:0:0:0:
159,273,66087,6,0,P|206:289|254:303,1,100,10|10,3:2|0:2,0:0:0:0:
347,265,66633,1,10,0:2:0:0:
335,165,66906,2,0,P|287:179|239:196,1,100,2|2,3:2|3:2,0:0:0:0:
142,171,67451,1,10,3:2:0:0:
43,186,67724,6,0,B|25:100|103:114|95:42,1,150,10|0,3:2|3:0,0:0:0:0:
75,7,68269,1,10,0:2:0:0:
175,9,68542,2,0,P|275:38|373:75,1,200,2|8,3:2|0:2,0:0:0:0:
426,150,69360,2,0,P|354:171|283:197,1,150,8|0,3:2|3:0,0:0:0:0:
250,234,69906,1,10,0:2:0:0:
302,318,70178,1,2,3:2:0:0:
223,379,70451,2,0,P|200:371|176:364,1,50,2|8,3:2|0:2,0:0:0:0:
137,331,70724,2,0,P|114:339|90:346,1,50,10|8,0:2|0:2,0:0:0:0:
54,311,70996,6,0,P|70:237|96:167,1,150,6|0,0:2|3:0,0:0:0:0:
70,123,71542,1,8,0:2:0:0:
124,38,71815,1,0,3:0:0:0:
201,100,72087,2,0,P|225:107|249:116,1,50,2|0,3:2|0:0,0:0:0:0:
293,93,72360,1,10,0:2:0:0:
382,47,72633,6,0,B|395:70|414:81|414:81|391:141,1,100,10|10,3:2|0:2,0:0:0:0:
322,199,73178,1,10,0:2:0:0:
415,233,73451,1,0,3:0:0:0:
508,271,73724,2,0,P|497:303|489:337,1,50,2|0,3:2|0:0,0:0:0:0:
457,354,73996,1,10,0:2:0:0:
357,349,74269,6,0,P|325:317|262:338,1,100,10|10,3:2|0:2,0:0:0:0:
182,365,74815,1,10,0:2:0:0:
91,323,75087,2,0,P|74:276|56:230,1,100,0|0,3:0|3:0,0:0:0:0:
100,141,75633,1,10,0:2:0:0:
196,168,75906,6,0,B|254:177|278:227|278:227|295:176|357:166,1,200,10|8,3:2|0:2,0:0:0:0:
439,203,76724,1,2,3:2:0:0:
496,121,76996,1,0,3:0:0:0:
444,36,77269,2,0,P|421:44|397:51,1,50,10|8,0:2|0:2,0:0:0:0:
355,79,77542,6,0,P|252:49|151:12,1,200,6|8,0:2|0:2,0:0:0:0:
134,112,78360,2,0,P|190:128|245:148,2,100,2|2|10,3:2|3:2|0:2,0:0:0:0:
119,211,79178,2,0,P|62:227|7:247,1,100,10|10,3:2|0:2,0:0:0:0:
6,339,79724,1,10,0:2:0:0:
101,367,79996,2,0,P|140:376|173:317,1,100,2|0,3:2|3:0,0:0:0:0:
253,271,80542,1,10,3:2:0:0:
350,295,80815,6,0,B|390:228|305:222|349:154,1,150,10|0,3:2|3:0,0:0:0:0:
385,121,81360,1,10,0:2:0:0:
294,77,81633,2,0,P|247:88|167:15,1,150,2|0,3:2|0:0,0:0:0:0:
125,9,82178,1,8,0:2:0:0:
50,75,82451,2,0,B|67:147|67:147|64:163|64:163|79:235,1,150,8|0,3:2|3:0,0:0:0:0:
61,269,82996,1,8,0:2:0:0:
156,298,83269,2,0,P|193:239|314:268,1,200,2|10,3:2|0:2,0:0:0:0:
392,288,84087,5,6,0:2:0:0:
448,216,84360,2,0,P|433:165|415:116,1,89.9999972534181,2|2,0:2|0:2,0:0:0:0:
420,39,84906,2,0,P|462:53|505:66,2,89.9999972534181,2|2|10,3:2|3:2|3:2,0:0:0:0:
332,60,85724,2,0,P|295:94|247:84,1,89.9999972534181,2|2,3:2|0:2,0:0:0:0:
225,59,86133,2,0,P|188:25|140:35,1,89.9999972534181,2|2,3:2|0:2,0:0:0:0:
115,56,86542,1,2,3:2:0:0:
77,138,86815,2,0,P|92:189|110:238,1,89.9999972534181,2|10,3:2|3:2,0:0:0:0:
176,277,87360,6,0,P|161:319|148:362,2,89.9999972534181,2|2|2,3:2|0:2|0:2,0:0:0:0:
251,227,88178,1,2,3:2:0:0:
321,283,88451,2,0,P|364:283|394:252,1,89.9999972534181,2|10,3:2|3:2,0:0:0:0:
469,201,88996,5,2,3:2:0:0:
