osu file format v14

[General]
AudioFilename: audio.ogg
AudioLeadIn: 0
PreviewTime: 56679
Countdown: 0
SampleSet: Soft
StackLeniency: 0.7
Mode: 0
LetterboxInBreaks: 0
WidescreenStoryboard: 1

[Editor]
Bookmarks: 13724,26815,39906,46452,57906,70997,84088
DistanceSpacing: 0.8
BeatDivisor: 4
GridSize: 4
TimelineZoom: 1.7

[Metadata]
Title:Katayoku no Tori (TV Size)
TitleUnicode:片翼の鳥 (TV Size)
Artist:Shikata Akiko
ArtistUnicode:志方あきこ
Creator:Kurumiism
Version:Insane
Source:うみねこのなく頃に
Tags:kafaka umineko no naku koro ni henyoku 竜騎士07 ryukishi07 one winged bird one-winged bird eagle visual novel vn video game vgm when the seagulls cry when they cry 07th expansion folk jp jpop pop j-pop japanese italian female vocal vocalist op opening theme anime
BeatmapID:4355446
BeatmapSetID:2079060

[Difficulty]
HPDrainRate:5
CircleSize:4.2
OverallDifficulty:8
ApproachRate:9.1
SliderMultiplier:1.3
SliderTickRate:1

[Events]
//Background and Video events
0,0,"bg.jpg",0,0
Video,-235,"op.avi"
//Break Periods
//Storyboard Layer 0 (Background)
//Storyboard Layer 1 (Fail)
//Storyboard Layer 2 (Pass)
//Storyboard Layer 3 (Foreground)
//Storyboard Layer 4 (Overlay)
//Storyboard Sound Samples

[TimingPoints]
634,272.727272727273,3,2,2,65,1,0
634,-83.3333333333333,3,2,2,65,0,0
906,-83.3333333333333,3,2,1,65,0,0
1043,-100,3,2,1,65,0,0
1452,-100,3,2,1,65,0,0
2270,-100,3,2,2,65,0,0
2543,-100,3,2,1,65,0,0
3088,-100,3,2,1,65,0,0
3634,-100,3,2,1,65,0,0
3906,-80,3,2,2,65,0,0
4179,-80,3,2,1,65,0,0
4315,-100,3,2,1,65,0,0
4724,-100,3,2,1,65,0,0
5270,-100,3,2,1,65,0,0
5543,-100,3,2,2,65,0,0
5815,-100,3,2,1,65,0,0
6361,-100,3,2,1,65,0,0
7179,-80,3,2,2,65,0,0
7452,-80,3,2,1,65,0,0
7588,-100,3,2,1,65,0,0
7997,-100,3,2,1,65,0,0
8815,-100,3,2,2,65,0,0
9088,-100,3,2,1,65,0,0
9634,-100,3,2,1,65,0,0
10179,-100,3,2,1,65,0,0
10452,-80,3,2,2,65,0,0
10724,-80,3,2,1,65,0,0
10861,-100,3,2,1,65,0,0
11270,-100,3,2,1,65,0,0
11815,-100,3,2,1,65,0,0
12020,-66.6666666666667,3,2,1,65,0,0
12088,-100,3,2,2,65,0,0
12361,-100,3,2,1,65,0,0
12906,-100,3,2,1,65,0,0
13111,-100,3,2,1,65,0,0
13179,-100,3,2,1,65,0,0
13724,-133.333333333333,3,2,2,45,0,0
14270,-133.333333333333,3,2,1,45,0,0
15361,-133.333333333333,3,2,2,45,0,0
15770,-133.333333333333,3,2,1,45,0,0
16997,-133.333333333333,3,2,2,45,0,0
17406,-133.333333333333,3,2,1,45,0,0
18634,-133.333333333333,3,2,2,45,0,0
18906,-133.333333333333,3,2,1,45,0,0
20270,-133.333333333333,3,2,2,45,0,0
20543,-133.333333333333,3,2,1,45,0,0
21906,-133.333333333333,3,2,2,45,0,0
22315,-133.333333333333,3,2,1,45,0,0
22997,-133.333333333333,3,2,1,45,0,0
23543,-100,3,2,2,45,0,0
23815,-100,3,2,1,45,0,0
24361,-133.333333333333,3,2,1,45,0,0
24906,-133.333333333333,3,2,1,45,0,0
25179,-100,3,2,2,45,0,0
25452,-100,3,2,1,45,0,0
25997,-66.6666666666667,3,2,1,45,0,0
26202,-66.6666666666667,3,2,1,5,0,0
26270,-66.6666666666667,3,2,1,45,0,0
26474,-66.6666666666667,3,2,1,5,0,0
26543,-66.6666666666667,3,2,1,45,0,0
26815,-111.111111111111,3,2,2,45,0,0
27224,-111.111111111111,3,2,1,45,0,0
28452,-111.111111111111,3,2,2,45,0,0
28861,-111.111111111111,3,2,1,45,0,0
30088,-111.111111111111,3,2,2,45,0,0
30497,-111.111111111111,3,2,1,45,0,0
31724,-111.111111111111,3,2,2,45,0,0
32134,-111.111111111111,3,2,1,45,0,0
32747,-111.111111111111,3,2,1,5,0,0
32815,-111.111111111111,3,2,1,45,0,0
33361,-111.111111111111,3,2,2,45,0,0
33770,-111.111111111111,3,2,1,45,0,0
34997,-111.111111111111,3,2,2,45,0,0
35406,-111.111111111111,3,2,1,45,0,0
35815,-111.111111111111,3,2,1,45,0,0
36634,-86.9565217391304,3,2,2,45,0,0
37043,-86.9565217391304,3,2,1,45,0,0
37179,-111.111111111111,3,2,1,45,0,0
37452,-111.111111111111,3,2,1,45,0,0
38270,-111.111111111111,3,2,2,45,0,0
38679,-111.111111111111,3,2,1,45,0,0
39088,-166.666666666667,3,2,1,45,0,0
39906,-66.6666666666667,3,2,2,60,0,0
40315,-66.6666666666667,3,2,2,60,0,0
40724,-66.6666666666667,3,2,2,60,0,0
40929,-66.6666666666667,3,2,2,60,0,0
40997,-66.6666666666667,3,2,2,60,0,0
41202,-66.6666666666667,3,2,2,60,0,0
41270,-66.6666666666667,3,2,2,60,0,0
41543,-66.6666666666667,3,2,2,40,0,0
43179,-66.6666666666667,3,2,2,60,0,0
43588,-66.6666666666667,3,2,2,60,0,0
43997,-66.6666666666667,3,2,2,60,0,0
44270,-66.6666666666667,3,2,2,60,0,0
44474,-66.6666666666667,3,2,2,60,0,0
44543,-66.6666666666667,3,2,2,60,0,0
44815,-66.6666666666667,3,2,1,45,0,0
46452,-100,3,2,1,40,0,0
47270,-100,3,2,1,35,0,0
48088,-133.333333333333,3,2,1,35,0,0
49724,-133.333333333333,3,2,1,40,0,0
52384,-133.333333333333,3,2,1,5,0,0
52452,-133.333333333333,3,2,1,40,0,0
52656,-133.333333333333,3,2,1,5,0,0
52724,-133.333333333333,3,2,1,35,0,0
52997,-133.333333333333,3,2,2,35,0,0
54634,-133.333333333333,3,2,2,40,0,0
56763,280.373831775701,3,2,1,50,1,0
56763,-200,3,2,1,50,0,0
56903,-200,3,2,1,5,0,0
57043,306.122448979592,3,2,1,50,1,0
57043,-153.846153846154,3,2,1,50,0,0
57196,-153.846153846154,3,2,1,5,0,0
57349,289.855072463768,3,2,1,50,1,0
57349,-125,3,2,1,50,0,0
57493,-125,3,2,1,5,0,0
57638,-100,3,2,1,50,0,0
57783,-100,3,2,1,5,0,0
57906,272.727272727273,3,2,2,70,1,0
57906,-80,3,2,2,70,0,1
58042,-80,3,2,2,70,0,1
58178,-80,3,2,1,70,0,1
58928,-80,3,2,1,70,0,1
58996,-80,3,2,1,70,0,1
59201,-80,3,2,1,5,0,1
59269,-80,3,2,1,70,0,1
59542,-80,3,2,2,70,0,1
59815,-80,3,2,1,70,0,1
60565,-80,3,2,1,70,0,1
60633,-80,3,2,1,70,0,1
61178,-80,3,2,2,70,0,1
61451,-80,3,2,1,70,0,1
62201,-80,3,2,1,5,0,1
62269,-80,3,2,1,70,0,1
62815,-80,3,2,2,70,0,1
63087,-80,3,2,1,70,0,1
63633,-80,3,2,2,70,0,1
63837,-80,3,2,2,5,0,1
63906,-80,3,2,1,70,0,1
64451,-80,3,2,2,70,0,1
64724,-80,3,2,1,70,0,1
65269,-80,3,2,1,70,0,1
66019,-80,3,2,1,70,0,1
66087,-80,3,2,2,70,0,1
66360,-80,3,2,1,70,0,1
66837,-80,3,2,1,70,0,1
66906,-80,3,2,1,70,0,1
67110,-80,3,2,1,5,0,1
67178,-80,3,2,1,70,0,1
67451,-80,3,2,2,70,0,1
67587,-80,3,2,1,70,0,1
67724,-80,3,2,2,70,0,1
67996,-80,3,2,1,70,0,1
68542,-80,3,2,2,70,0,1
68815,-80,3,2,1,70,0,1
69360,-80,3,2,2,70,0,1
69633,-80,3,2,1,70,0,1
70178,-80,3,2,1,70,0,0
70996,-71.4285714285714,3,2,2,70,0,1
71133,-71.4285714285714,3,2,2,70,0,1
71269,-71.4285714285714,3,2,1,70,0,1
72019,-71.4285714285714,3,2,1,70,0,1
72087,-71.4285714285714,3,2,1,70,0,1
72292,-71.4285714285714,3,2,1,5,0,1
72360,-71.4285714285714,3,2,1,70,0,1
72633,-71.4285714285714,3,2,2,70,0,1
72906,-71.4285714285714,3,2,1,70,0,1
73656,-71.4285714285714,3,2,1,70,0,1
73724,-71.4285714285714,3,2,1,70,0,1
74269,-71.4285714285714,3,2,2,70,0,1
74542,-71.4285714285714,3,2,1,70,0,1
75292,-71.4285714285714,3,2,1,5,0,1
75360,-71.4285714285714,3,2,1,70,0,1
75906,-71.4285714285714,3,2,2,70,0,1
76178,-71.4285714285714,3,2,1,70,0,1
76724,-71.4285714285714,3,2,2,70,0,1
76928,-71.4285714285714,3,2,2,70,0,1
76996,-71.4285714285714,3,2,1,70,0,1
77542,-71.4285714285714,3,2,2,70,0,1
77815,-71.4285714285714,3,2,1,70,0,1
79178,-71.4285714285714,3,2,2,70,0,1
79451,-71.4285714285714,3,2,1,70,0,1
80542,-71.4285714285714,3,2,2,70,0,1
80678,-71.4285714285714,3,2,1,70,0,1
80746,-71.4285714285714,3,2,1,70,0,1
80815,-71.4285714285714,3,2,2,70,0,1
81087,-71.4285714285714,3,2,1,70,0,1
81565,-71.4285714285714,3,2,1,70,0,1
81633,-71.4285714285714,3,2,2,70,0,1
81906,-71.4285714285714,3,2,1,70,0,1
82382,-71.4285714285714,3,2,1,70,0,1
82451,-71.4285714285714,3,2,2,70,0,1
82724,-71.4285714285714,3,2,1,70,0,1
83474,-71.4285714285714,3,2,1,5,0,1
83542,-71.4285714285714,3,2,1,70,0,1
84087,-76.9230769230769,3,2,2,60,0,0
84224,-76.9230769230769,3,2,2,60,0,0
84360,-76.9230769230769,3,2,1,60,0,0
85110,-76.9230769230769,3,2,1,5,0,0
85178,-76.9230769230769,3,2,1,60,0,0
85724,-76.9230769230769,3,2,2,60,0,0
85996,-76.9230769230769,3,2,1,60,0,0
87360,-76.9230769230769,3,2,2,60,0,0
87633,-76.9230769230769,3,2,1,60,0,0
88451,-90.9090909090909,3,2,1,60,0,0
88724,-111.111111111111,3,2,1,60,0,0
88996,-111.111111111111,3,2,2,60,0,0

[Colours]
Combo1 : 53,53,59
Combo2 : 196,194,161
Combo3 : 144,173,173
Combo4 : 123,120,116
Combo5 : 126,142,165

[HitObjects]
512,231,634,6,0,P|426:260|344:297,1,155.999995239258,6|0,3:2|3:0,0:0:0:0:
203,321,1043,2,0,P|277:346|348:378,1,130,2|0,0:2|0:0,0:0:0:0:
284,267,1452,2,0,P|254:254|223:244,1,65,2|0,3:2|0:0,0:0:0:0:
115,328,1724,2,0,P|124:297|137:267,1,65,2|0,0:2|0:0,0:0:0:0:
54,159,1997,2,0,P|84:168|114:181,1,65,2|0,0:2|0:0,0:0:0:0:
286,157,2270,6,0,P|220:168|172:103,1,130,2|0,3:2|3:0,0:0:0:0:
316,0,2679,2,0,P|358:51|326:125,1,130,2|0,0:2|0:0,0:0:0:0:
196,50,3088,2,0,P|207:18|247:14,1,65,2|0,3:2|0:0,0:0:0:0:
146,116,3361,2,0,P|118:96|124:56,1,65,2|0,3:2|0:0,0:0:0:0:
271,85,3634,1,10,3:2:0:0:
271,85,3770,1,8,3:2:0:0:
220,250,3906,6,0,B|294:233|294:233|309:236|309:236|383:221,1,162.5,6|0,3:2|3:0,0:0:0:0:
496,342,4315,2,0,B|430:327|430:327|417:330|417:330|352:317,1,130,2|0,0:2|0:0,0:0:0:0:
243,368,4724,2,0,P|276:373|300:341,1,65,2|0,3:2|0:0,0:0:0:0:
209,250,4997,2,0,P|221:282|261:286,1,65,2|0,0:2|0:0,0:0:0:0:
294,161,5270,2,0,P|272:187|288:224,1,65,2|0,3:2|0:0,0:0:0:0:
164,339,5543,6,0,P|90:364|19:396,1,130,2|0,3:2|0:2,0:0:0:0:
5,307,5952,1,0,0:0:0:0:
5,307,6088,1,2,0:2:0:0:
0,59,6361,2,0,P|30:68|60:81,1,65,2|0,3:2|0:0,0:0:0:0:
140,142,6634,2,0,P|109:151|79:164,1,65,0|0,3:0|0:0,0:0:0:0:
157,60,6906,1,8,3:2:0:0:
157,60,7043,1,8,3:2:0:0:
203,211,7179,6,0,P|229:130|262:52,1,162.5,6|0,3:2|3:0,0:0:0:0:
76,177,7588,2,0,P|101:236|121:298,1,130,2|0,0:2|0:0,0:0:0:0:
235,350,7997,2,0,P|202:345|178:377,1,65,2|0,3:2|0:0,0:0:0:0:
310,317,8270,2,0,P|297:285|258:281,1,65,2|0,0:2|0:0,0:0:0:0:
376,365,8543,2,0,P|396:338|381:302,1,65,2|0,0:2|0:0,0:0:0:0:
304,177,8815,6,0,P|351:223|428:198,1,130,2|0,3:2|3:0,0:0:0:0:
460,70,9224,2,0,P|395:87|379:167,1,130,2|0,0:2|0:0,0:0:0:0:
488,192,9634,6,0,P|497:162|510:132,1,65,2|0,3:2|0:0,0:0:0:0:
435,285,9906,2,0,P|425:253|412:224,1,65,2|0,3:2|0:0,0:0:0:0:
499,356,10179,1,10,3:2:0:0:
499,356,10315,1,8,3:2:0:0:
367,364,10452,6,0,P|309:307|217:338,1,162.5,6|0,3:2|3:0,0:0:0:0:
66,334,10861,2,0,P|113:380|190:355,1,130,2|0,0:2|0:0,0:0:0:0:
159,239,11270,2,0,P|145:268|136:299,1,65,2|0,3:2|0:0,0:0:0:0:
172,160,11543,2,0,P|152:133|130:110,1,65,2|0,0:2|0:0,0:0:0:0:
233,210,11815,2,0,P|265:206|296:199,1,65,2|0,3:2|0:0,0:0:0:0:
410,114,12088,6,0,P|356:128|302:68,1,130,2|0,3:2|3:2,0:0:0:0:
344,14,12497,1,0,0:0:0:0:
344,14,12634,1,2,0:2:0:0:
508,196,12906,2,0,P|476:205|447:218,1,65,2|0,3:2|0:0,0:0:0:0:
395,287,13179,1,0,3:0:0:0:
395,287,13315,1,0,3:0:0:0:
346,205,13452,5,8,3:2:0:0:
488,292,13588,1,8,3:2:0:0:
394,365,13724,6,0,P|291:374|230:302,1,195.00000743866,2|0,3:2|0:2,0:0:0:0:
235,166,14543,2,0,P|291:181|345:205,2,97.50000371933,2|0|0,3:2|0:2|3:2,0:0:0:0:
189,297,15361,2,0,P|132:312|78:336,1,97.50000371933,10|0,3:2|0:0,0:0:0:0:
0,217,15770,1,2,0:2:0:0:
70,250,15906,2,0,P|102:241|131:228,1,48.750001859665,2|0,0:2|0:0,0:0:0:0:
233,167,16179,2,0,B|193:176|166:179|166:179|154:169|129:161,1,97.50000371933,2|2,3:2|3:2,0:0:0:0:
209,39,16724,1,2,3:2:0:0:
227,29,16861,1,2,3:2:0:0:
250,27,16997,6,0,P|285:60|276:123,1,97.50000371933,10|0,3:2|0:0,0:0:0:0:
317,182,17406,1,2,0:2:0:0:
317,182,17542,2,0,P|349:173|378:160,1,48.750001859665,2|0,0:2|0:0,0:0:0:0:
457,77,17815,2,0,P|410:84|372:38,2,97.50000371933,2|0|0,3:2|0:2|3:2,0:0:0:0:
512,190,18634,2,0,P|464:201|419:219,1,97.50000371933,10|0,3:2|0:0,0:0:0:0:
367,279,19043,1,0,0:0:0:0:
367,279,19179,2,0,P|335:270|306:257,1,48.750001859665,2|0,0:2|0:0,0:0:0:0:
183,281,19452,2,0,B|281:265|253:372|368:350,1,195.00000743866,2|0,3:2|3:2,0:0:0:0:
198,356,20270,6,0,P|150:367|105:385,1,97.50000371933,10|0,3:2|3:0,0:0:0:0:
52,318,20679,1,2,0:2:0:0:
52,318,20815,2,0,P|20:309|-9:296,1,48.750001859665,2|0,0:2|0:0,0:0:0:0:
123,237,21088,2,0,P|160:200|215:208,2,97.50000371933,0|0|0,3:0|3:0|3:0,0:0:0:0:
7,65,21906,6,0,P|25:110|35:157,1,97.50000371933,10|0,3:2|0:0,0:0:0:0:
45,236,22315,1,2,0:2:0:0:
156,123,22451,2,0,P|124:114|95:101,1,48.750001859665,2|0,3:2|0:0,0:0:0:0:
212,57,22724,2,0,P|249:20|304:28,1,97.50000371933,2|0,3:2|3:2,0:0:0:0:
436,114,23270,2,0,P|470:132|491:128,1,48.750001859665,2|0,3:2|0:0,0:0:0:0:
337,86,23543,6,0,P|364:153|379:225,1,130,10|0,3:2|0:0,0:0:0:0:
446,264,23952,1,0,0:0:0:0:
446,264,24088,1,2,0:2:0:0:
305,367,24361,2,0,P|339:349|360:353,1,48.750001859665,2|0,3:2|0:0,0:0:0:0:
319,267,24634,2,0,P|285:285|264:281,1,48.750001859665,2|0,3:2|0:0,0:0:0:0:
228,343,24906,1,0,3:0:0:0:
12,226,25179,6,0,B|80:241|80:241|94:238|94:238|161:252,1,130,10|0,3:2|3:0,0:0:0:0:
219,220,25588,1,0,3:0:0:0:
219,220,25724,1,0,3:0:0:0:
106,19,25997,6,0,L|156:187,1,146.250005578995,4|0,3:2|0:0,0:0:0:0:
219,220,26270,2,0,L|50:270,1,146.250005578995,4|0,3:2|0:0,0:0:0:0:
55,184,26543,5,6,3:2:0:0:
55,184,26679,1,0,0:0:0:0:
167,358,26815,6,0,P|193:309|268:328,1,116.999996429443,8|0,3:2|0:0,0:0:0:0:
318,357,27224,1,0,3:0:0:0:
318,357,27360,2,0,P|350:348|379:335,1,58.4999982147217,2|0,0:2|0:0,0:0:0:0:
457,361,27634,1,2,3:2:0:0:
383,246,27906,1,2,3:2:0:0:
512,66,28179,2,0,P|500:92|493:121,1,58.4999982147217,2|0,3:2|0:0,0:0:0:0:
462,231,28452,6,0,P|434:178|361:179,1,116.999996429443,2|0,3:2|0:0,0:0:0:0:
206,161,28861,1,2,3:2:0:0:
260,218,28997,2,0,P|294:216|322:192,1,58.4999982147217,2|0,0:2|0:0,0:0:0:0:
298,319,29270,2,0,P|238:295|176:281,1,116.999996429443,2|0,3:2|3:0,0:0:0:0:
8,109,29815,1,2,3:2:0:0:
8,109,29952,1,2,0:2:0:0:
71,163,30088,6,0,P|127:148|181:126,1,116.999996429443,2|2,3:2|0:2,0:0:0:0:
245,187,30497,1,2,3:2:0:0:
278,47,30634,2,0,P|266:73|259:102,1,58.4999982147217,2|0,0:2|0:0,0:0:0:0:
288,261,30906,1,2,3:2:0:0:
181,125,31179,1,2,3:2:0:0:
79,254,31452,2,0,P|107:261|134:272,1,58.4999982147217,2|0,3:2|0:0,0:0:0:0:
91,375,31724,6,0,P|56:330|0:335,1,116.999996429443,2|0,3:2|0:0,0:0:0:0:
212,370,32270,2,0,P|239:358|267:351,1,58.4999982147217,2|0,0:2|0:0,0:0:0:0:
360,290,32543,2,0,P|317:279|276:264,1,87.7499973220826,2|0,3:2|0:0,0:0:0:0:
247,262,32815,1,0,3:0:0:0:
439,102,33088,1,0,3:0:0:0:
439,102,33224,1,0,0:0:0:0:
490,172,33361,6,0,P|455:217|399:212,1,116.999996429443,2|0,3:2|0:0,0:0:0:0:
345,154,33770,1,2,3:2:0:0:
345,154,33906,2,0,P|313:163|284:176,1,58.4999982147217,2|0,0:2|0:0,0:0:0:0:
328,64,34179,2,0,P|384:79|438:101,1,116.999996429443,2|0,3:2|3:0,0:0:0:0:
180,35,34724,1,0,3:0:0:0:
180,35,34861,1,0,0:0:0:0:
114,91,34997,6,0,P|79:46|23:50,1,116.999996429443,2|0,3:2|0:0,0:0:0:0:
3,136,35406,1,2,3:2:0:0:
3,136,35543,2,0,P|14:162|21:191,1,58.4999982147217,2|0,0:2|0:0,0:0:0:0:
137,237,35815,2,0,P|103:236|75:263,1,58.4999982147217,2|0,3:2|0:0,0:0:0:0:
24,370,36088,2,0,P|41:341|32:303,1,58.4999982147217,2|0,3:2|0:0,0:0:0:0:
125,323,36361,1,2,3:2:0:0:
125,323,36497,1,0,0:0:0:0:
218,369,36634,6,0,B|286:354|286:354|300:357|300:357|367:343,1,149.500002851486,2|0,3:2|0:0,0:0:0:0:
458,160,37179,2,0,P|424:161|396:134,1,58.4999982147217,2|0,0:2|0:0,0:0:0:0:
356,251,37452,6,0,P|410:238|452:276,1,116.999996429443,2|0,3:2|3:0,0:0:0:0:
270,225,37997,2,0,P|263:196|251:169,1,58.4999982147217,2|0,3:2|0:0,0:0:0:0:
169,46,38270,6,0,P|223:68|279:83,1,116.999996429443,2|0,3:2|0:0,0:0:0:0:
182,143,38679,2,0,P|127:120|71:105,1,116.999996429443,0|0,3:0|0:0,0:0:0:0:
2,267,39088,6,0,P|80:274|86:201,1,155.999995239258,2|0,3:2|3:0,0:0:0:0:
164,360,39906,6,0,B|203:357|231:297|231:297|264:348|316:361,1,195.00000743866,6|0,3:2|0:0,0:0:0:0:
388,219,40315,2,0,P|332:189|346:283,1,195.00000743866,6|0,3:2|0:0,0:0:0:0:
469,374,40724,6,0,L|506:249,1,97.50000371933,6|0,3:2|0:0,0:0:0:0:
360,125,40997,2,0,L|397:249,1,97.50000371933,6|0,3:2|0:0,0:0:0:0:
415,295,41270,1,2,0:2:0:0:
280,138,41543,5,2,0:2:0:0:
199,151,41815,1,2,0:2:0:0:
123,168,42088,1,2,0:2:0:0:
216,227,42361,5,2,0:2:0:0:
199,151,42634,1,2,0:2:0:0:
182,75,42906,1,2,0:2:0:0:
114,287,43179,6,0,P|162:262|252:352,1,195.00000743866,6|0,3:2|0:0,0:0:0:0:
468,196,43588,2,0,P|415:171|329:257,1,195.00000743866,6|0,3:2|0:0,0:0:0:0:
494,371,43997,6,0,L|369:333,1,97.50000371933,6|0,3:2|0:0,0:0:0:0:
237,285,44270,2,0,L|351:250,1,97.50000371933,6|0,3:2|0:0,0:0:0:0:
428,262,44543,1,2,0:2:0:0:
218,204,44815,5,2,0:2:0:0:
159,301,45087,1,2,0:2:0:0:
109,146,45360,1,2,0:2:0:0:
57,248,45633,5,2,0:2:0:0:
134,224,45906,1,2,0:2:0:0:
218,204,46178,1,2,0:2:0:0:
234,13,46452,6,0,P|255:74|271:137,1,130,2|2,0:2|0:2,0:0:0:0:
336,186,46861,1,0,0:2:0:0:
336,186,46997,1,0,0:2:0:0:
179,360,47270,5,2,0:2:0:0:
234,304,47543,1,2,0:2:0:0:
311,308,47815,1,2,0:2:0:0:
359,369,48088,6,0,P|406:352|456:340,1,97.50000371933,2|2,0:2|0:2,0:0:0:0:
501,270,48497,1,0,0:2:0:0:
501,270,48634,1,0,0:2:0:0:
493,15,48906,5,2,0:2:0:0:
470,89,49179,1,2,0:2:0:0:
397,118,49452,1,2,0:2:0:0:
329,78,49724,6,0,P|281:90|235:106,1,97.50000371933,2|0,0:2|0:0,0:0:0:0:
167,60,50134,1,2,0:2:0:0:
167,60,50270,1,2,0:2:0:0:
21,200,50543,6,0,P|68:206|105:159,1,97.50000371933,2|0,0:2|0:0,0:0:0:0:
54,107,50952,1,2,0:2:0:0:
54,107,51088,1,2,0:2:0:0:
99,286,51361,6,0,B|153:274|141:326|206:317,1,97.50000371933,2|0,0:2|0:0,0:0:0:0:
243,269,51770,1,0,0:0:0:0:
501,354,52043,1,0,0:0:0:0:
501,354,52179,6,0,P|459:364|418:378,1,73.1250027894975,2|0,0:2|0:0,0:0:0:0:
385,354,52452,2,0,P|350:342|314:333,1,73.1250027894975
282,348,52724,1,2,0:2:0:0:
398,138,52997,5,2,3:2:0:0:
412,210,53270,1,0,0:2:0:0:
428,281,53543,1,0,0:2:0:0:
469,163,53815,5,2,0:2:0:0:
412,210,54088,1,0,0:2:0:0:
360,260,54361,1,0,0:2:0:0:
360,260,54497,1,0,0:0:0:0:
270,160,54634,5,6,0:2:0:0:
341,185,54906,1,0,0:2:0:0:
412,210,55179,1,0,0:2:0:0:
483,235,55452,1,2,0:2:0:0:
493,6,56763,6,0,P|475:5|461:19,1,32.5,2|0,0:2|0:0,0:0:0:0:
391,0,57043,6,0,P|380:17|385:40,1,42.2499980659486,2|0,0:2|0:0,0:0:0:0:
299,76,57349,6,0,P|311:99|340:107,1,52,2|0,0:2|0:0,0:0:0:0:
322,222,57638,6,0,P|357:223|386:194,1,65,2|0,0:2|0:0,0:0:0:0:
486,283,57906,6,0,P|397:307|310:339,1,162.5,6|8,0:2|0:2,0:0:0:0:
266,384,58315,1,0,3:0:0:0:
180,291,58451,2,0,P|224:279|268:263,1,81.25,8|0,0:2|0:0,0:0:0:0:
129,362,58724,2,0,P|87:363|53:330,1,81.25,0|0,3:0|0:0,0:0:0:0:
90,123,58996,2,0,B|130:153|130:153|108:244,1,121.875,2|0,3:2|0:0,0:0:0:0:
83,241,59269,2,0,P|43:230|5:217,1,81.25,10|8,0:2|0:2,0:0:0:0:
41,8,59542,6,0,B|118:-4|99:77|186:62,1,162.5,10|8,3:2|0:2,0:0:0:0:
242,6,59951,1,0,3:0:0:0:
340,129,60087,2,0,P|329:89|316:51,1,81.25,10|0,0:2|0:0,0:0:0:0:
199,146,60360,2,0,P|230:170|270:168,1,81.25,0|0,3:0|0:0,0:0:0:0:
415,236,60633,2,0,P|383:211|343:213,1,81.25,2|0,3:2|0:0,0:0:0:0:
262,352,60906,1,10,0:2:0:0:
195,290,61042,1,8,0:2:0:0:
348,331,61178,6,0,P|437:355|524:387,1,162.5,10|8,3:2|0:2,0:0:0:0:
492,286,61587,1,0,3:0:0:0:
397,150,61724,2,0,P|408:190|421:228,1,81.25,10|0,0:2|0:0,0:0:0:0:
509,72,61996,2,0,P|444:84|398:38,1,121.875,0|0,3:0|0:0,0:0:0:0:
380,21,62269,2,0,P|340:32|302:45,1,81.25,0|0,3:0|0:0,0:0:0:0:
270,151,62542,1,10,0:2:0:0:
179,33,62678,1,8,0:2:0:0:
33,146,62815,6,0,B|105:130|105:130|120:133|120:133|191:118,1,162.5,10|8,3:2|0:2,0:0:0:0:
270,151,63224,1,0,3:0:0:0:
173,275,63360,2,0,P|184:235|197:197,1,81.25,8|0,0:2|0:0,0:0:0:0:
343,314,63633,2,0,P|278:302|232:348,1,121.875,2|0,3:2|0:0,0:0:0:0:
230,363,63906,1,0,3:0:0:0:
416,237,64178,5,8,0:2:0:0:
468,357,64315,1,8,0:2:0:0:
407,225,64451,6,0,P|418:185|431:147,1,81.25,6|0,0:2|0:0,0:0:0:0:
290,80,64724,2,0,P|319:109|345:139,1,81.25,10|0,0:2|3:0,0:0:0:0:
474,51,64996,2,0,P|433:61|394:69,1,81.25,10|0,0:2|0:0,0:0:0:0:
257,199,65269,6,0,P|288:223|328:221,1,81.25,2|0,3:2|0:0,0:0:0:0:
221,124,65542,2,0,P|184:138|166:174,1,81.25,2|0,3:2|0:0,0:0:0:0:
290,80,65815,2,0,P|295:41|273:7,1,81.25,10|8,0:2|0:2,0:0:0:0:
0,134,66087,6,0,P|89:158|176:190,1,162.5,10|8,3:2|0:2,0:0:0:0:
196,254,66496,1,0,3:0:0:0:
71,373,66633,2,0,P|31:375|0:351,1,81.25,10|0,0:2|0:0,0:0:0:0:
113,310,66906,2,0,P|185:330|255:353,1,121.875,2|0,3:2|0:0,0:0:0:0:
264,361,67178,2,0,P|304:350|342:337,1,81.25,2|0,3:2|0:0,0:0:0:0:
419,239,67451,1,10,3:2:0:0:
465,383,67587,1,8,0:2:0:0:
499,210,67724,6,0,P|439:152|362:172,1,162.5,10|8,3:2|0:2,0:0:0:0:
322,236,68133,1,0,3:0:0:0:
245,78,68269,2,0,P|285:89|323:102,1,81.25,10|0,0:2|0:0,0:0:0:0:
203,212,68542,6,0,B|215:135|134:154|149:67,1,162.5,2|0,3:2|3:0,0:0:0:0:
202,3,68951,1,0,0:0:0:0:
77,145,69087,2,0,P|37:156|-1:169,1,81.25,8|8,0:2|0:2,0:0:0:0:
19,341,69360,6,0,P|78:283|156:303,1,162.5,8|8,3:2|0:2,0:0:0:0:
202,373,69769,1,0,3:0:0:0:
279,226,69906,2,0,P|265:264|255:303,1,81.25,10|0,0:2|0:0,0:0:0:0:
365,383,70178,2,0,P|351:344|341:305,1,81.25,2|8,3:2|0:2,0:0:0:0:
431,171,70451,5,2,3:2:0:0:
373,86,70587,1,8,0:2:0:0:
470,40,70724,5,10,0:2:0:0:
316,153,70860,1,8,0:2:0:0:
512,284,70996,6,0,P|443:218|354:240,1,181.999994445801,6|8,0:2|0:2,0:0:0:0:
341,305,71406,1,0,3:0:0:0:
222,130,71542,2,0,P|273:149|327:162,1,90.9999972229005,8|0,0:2|0:0,0:0:0:0:
183,276,71815,2,0,P|170:232|154:189,1,90.9999972229005,0|0,3:0|0:0,0:0:0:0:
264,318,72087,2,0,B|225:344|204:373|204:373|182:358|145:357,1,136.499995834351,2|0,3:2|0:0,0:0:0:0:
127,336,72360,2,0,P|89:307|41:309,1,90.9999972229005,10|8,0:2|0:2,0:0:0:0:
7,138,72633,6,0,P|76:204|165:182,1,181.999994445801,10|10,3:2|0:2,0:0:0:0:
220,118,73042,1,0,3:0:0:0:
103,18,73178,2,0,P|122:69|135:123,1,90.9999972229005,10|0,0:2|0:0,0:0:0:0:
278,58,73451,2,0,P|244:24|193:28,1,90.9999972229005,0|0,3:0|0:0,0:0:0:0:
284,175,73724,2,0,P|328:172|358:140,1,90.9999972229005,2|0,3:2|0:0,0:0:0:0:
499,81,73996,1,10,0:2:0:0:
366,22,74133,1,8,0:2:0:0:
475,165,74269,6,0,P|440:264|413:366,1,181.999994445801,10|8,3:2|0:2,0:0:0:0:
491,369,74678,1,0,3:0:0:0:
321,290,74815,2,0,P|287:256|236:260,1,90.9999972229005,10|0,0:2|0:0,0:0:0:0:
86,344,75087,2,0,B|110:363|117:381|117:381|156:372|207:367,1,136.499995834351,0|0,3:0|0:0,0:0:0:0:
235,352,75360,2,0,P|278:363|321:380,1,90.9999972229005,0|0,3:0|0:0,0:0:0:0:
375,188,75633,1,10,0:2:0:0:
419,338,75769,1,8,0:2:0:0:
296,137,75906,6,0,B|204:157|204:157|185:153|185:153|95:172,1,181.999994445801,10|8,3:2|0:2,0:0:0:0:
75,239,76315,1,0,3:0:0:0:
0,83,76451,2,0,P|16:125|28:169,1,90.9999972229005,8|0,0:2|0:0,0:0:0:0:
130,328,76724,2,0,P|141:284|158:241,1,90.9999972229005,2|0,3:2|0:0,0:0:0:0:
272,350,76996,2,0,P|238:384|187:380,1,90.9999972229005,0|0,3:0|0:0,0:0:0:0:
284,220,77269,1,10,0:2:0:0:
383,363,77406,1,8,0:2:0:0:
507,225,77542,6,0,P|419:213|359:277,1,181.999994445801,6|8,0:2|0:2,0:0:0:0:
445,312,77951,1,0,3:0:0:0:
424,123,78087,2,0,P|382:139|338:151,1,90.9999972229005,8|0,0:2|0:0,0:0:0:0:
198,180,78360,6,0,P|232:214|283:210,1,90.9999972229005,2|0,3:2|0:0,0:0:0:0:
242,52,78633,2,0,P|195:64|173:110,1,90.9999972229005,2|0,3:2|0:0,0:0:0:0:
330,154,78906,2,0,P|342:107|313:65,1,90.9999972229005,10|8,0:2|0:2,0:0:0:0:
118,155,79178,6,0,P|76:171|32:183,1,90.9999972229005,10|0,3:2|0:0,0:0:0:0:
177,279,79451,2,0,P|184:234|195:190,1,90.9999972229005,10|0,0:2|3:0,0:0:0:0:
40,268,79724,2,0,P|74:296|107:328,1,90.9999972229005,10|0,0:2|0:0,0:0:0:0:
312,353,79996,6,0,P|261:275|174:286,1,181.999994445801,2|0,3:2|3:0,0:0:0:0:
177,363,80406,1,0,0:0:0:0:
326,273,80542,2,0,P|368:257|412:245,1,90.9999972229005,10|8,3:2|0:2,0:0:0:0:
498,92,80815,6,0,B|406:77|429:173|326:155,1,181.999994445801,10|8,3:2|0:2,0:0:0:0:
277,89,81224,1,0,3:0:0:0:
192,250,81360,2,0,P|236:247|266:215,1,90.9999972229005,10|0,0:2|0:0,0:0:0:0:
145,0,81633,6,0,P|180:99|207:201,1,181.999994445801,2|0,3:2|3:0,0:0:0:0:
125,199,82042,1,0,0:0:0:0:
277,89,82178,2,0,P|319:105|363:117,1,90.9999972229005,8|8,0:2|0:2,0:0:0:0:
512,248,82451,6,0,P|425:244|380:318,1,181.999994445801,8|8,3:2|0:2,0:0:0:0:
463,364,82860,1,0,3:0:0:0:
309,251,82996,1,8,0:2:0:0:
63,366,83269,6,0,B|44:342|26:335|26:335|35:296|40:245,1,136.499995834351,2|0,3:2|0:0,0:0:0:0:
54,233,83542,1,0,3:0:0:0:
147,155,83678,1,0,3:0:0:0:
23,121,83815,5,10,0:2:0:0:
160,262,83951,1,8,0:2:0:0:
203,43,84087,6,0,P|161:59|117:71,1,84.4999961318971,6|0,0:2|0:0,0:0:0:0:
229,212,84360,2,0,P|259:179|303:176,1,84.4999961318971,2|0,0:2|3:0,0:0:0:0:
380,295,84633,2,0,P|339:288|311:257,1,84.4999961318971,2|0,0:2|0:0,0:0:0:0:
350,80,84906,6,0,P|376:150|396:224,1,126.749994197846,2|0,3:2|0:0,0:0:0:0:
413,213,85178,1,2,3:2:0:0:
512,86,85451,1,10,3:2:0:0:
509,333,85724,6,0,P|467:349|423:361,1,84.4999961318971,2|0,3:2|0:0,0:0:0:0:
299,268,85996,1,2,0:2:0:0:
299,268,86133,2,0,P|341:284|385:296,1,84.4999961318971,2|0,3:2|0:0,0:0:0:0:
493,187,86406,1,2,0:2:0:0:
493,186,86543,2,0,P|453:201|412:212,1,84.4999961318971,2|0,3:2|0:0,0:0:0:0:
334,177,86815,1,2,3:2:0:0:
459,16,87087,1,10,3:2:0:0:
148,11,87360,6,0,P|179:94|203:181,1,168.999992263794,2|0,3:2|0:2,0:0:0:0:
137,235,87769,1,0,3:0:0:0:
137,235,87906,2,0,P|96:228|68:197,1,84.4999961318971,2|0,0:2|0:0,0:0:0:0:
222,257,88178,6,0,P|206:296|195:337,1,84.4999961318971,2|0,3:2|0:0,0:0:0:0:
313,383,88451,6,0,P|302:348|289:315,1,71.5000021820069,2|0,3:2|0:0,0:0:0:0:
397,255,88724,6,0,P|386:282|378:310,1,58.4999982147217,10|8,3:2|3:2,0:0:0:0:
441,374,88996,5,2,3:2:0:0:
