osu file format v14

[General]
AudioFilename: audio.ogg
AudioLeadIn: 0
PreviewTime: 56679
Countdown: 0
SampleSet: Soft
StackLeniency: 0.7
Mode: 0
LetterboxInBreaks: 0
WidescreenStoryboard: 1

[Editor]
Bookmarks: 13724,26815,39906,46452,57906,64451,70997,84088
DistanceSpacing: 1.1
BeatDivisor: 4
GridSize: 4
TimelineZoom: 1.7

[Metadata]
Title:Katayoku no Tori (TV Size)
TitleUnicode:片翼の鳥 (TV Size)
Artist:Shikata Akiko
ArtistUnicode:志方あきこ
Creator:Kurumiism
Version:Hard
Source:うみねこのなく頃に
Tags:kafaka umineko no naku koro ni henyoku 竜騎士07 ryukishi07 one winged bird one-winged bird eagle visual novel vn video game vgm when the seagulls cry when they cry 07th expansion folk jp jpop pop j-pop japanese italian female vocal vocalist op opening theme anime
BeatmapID:4361658
BeatmapSetID:2079060

[Difficulty]
HPDrainRate:4
CircleSize:3.7
OverallDifficulty:7
ApproachRate:8
SliderMultiplier:1.3
SliderTickRate:1

[Events]
//Background and Video events
0,0,"bg.jpg",0,0
Video,-235,"op.avi"
//Break Periods
//Storyboard Layer 0 (Background)
//Storyboard Layer 1 (Fail)
//Storyboard Layer 2 (Pass)
//Storyboard Layer 3 (Foreground)
//Storyboard Layer 4 (Overlay)
//Storyboard Sound Samples

[TimingPoints]
634,272.727272727273,3,2,2,65,1,0
634,-100,3,2,2,65,0,0
906,-100,3,2,1,65,0,0
1043,-100,3,2,1,65,0,0
1452,-100,3,2,1,65,0,0
2270,-100,3,2,2,65,0,0
2543,-100,3,2,1,65,0,0
3088,-100,3,2,1,65,0,0
3634,-100,3,2,1,65,0,0
3906,-100,3,2,2,65,0,0
4179,-100,3,2,1,65,0,0
4315,-100,3,2,1,65,0,0
4724,-100,3,2,1,65,0,0
5270,-100,3,2,1,65,0,0
5543,-100,3,2,2,65,0,0
5815,-100,3,2,1,65,0,0
6361,-100,3,2,1,65,0,0
7179,-100,3,2,2,65,0,0
7452,-100,3,2,1,65,0,0
7588,-100,3,2,1,65,0,0
7997,-100,3,2,1,65,0,0
8815,-100,3,2,2,65,0,0
9088,-100,3,2,1,65,0,0
9634,-100,3,2,1,65,0,0
10179,-100,3,2,1,65,0,0
10452,-100,3,2,2,65,0,0
10724,-100,3,2,1,65,0,0
10861,-100,3,2,1,65,0,0
11270,-100,3,2,1,65,0,0
11815,-100,3,2,1,65,0,0
12020,-100,3,2,1,5,0,0
12088,-100,3,2,2,65,0,0
12361,-100,3,2,1,65,0,0
12906,-100,3,2,1,65,0,0
13724,-125,3,2,2,45,0,0
14270,-125,3,2,1,45,0,0
15361,-125,3,2,2,45,0,0
15770,-125,3,2,1,45,0,0
16997,-125,3,2,2,45,0,0
17406,-125,3,2,1,45,0,0
18634,-125,3,2,2,45,0,0
18906,-125,3,2,1,45,0,0
20270,-125,3,2,2,45,0,0
20543,-125,3,2,1,45,0,0
21906,-125,3,2,2,45,0,0
22315,-125,3,2,1,45,0,0
22997,-125,3,2,1,45,0,0
23543,-125,3,2,2,45,0,0
23815,-125,3,2,1,45,0,0
24361,-125,3,2,1,45,0,0
24906,-125,3,2,1,45,0,0
25179,-125,3,2,2,45,0,0
25452,-125,3,2,1,45,0,0
25997,-86.9565217391304,3,2,1,45,0,0
26202,-100,3,2,1,45,0,0
26270,-100,3,2,1,45,0,0
26474,-100,3,2,1,45,0,0
26543,-100,3,2,1,45,0,0
26815,-111.111111111111,3,2,2,45,0,0
27224,-111.111111111111,3,2,1,45,0,0
28452,-111.111111111111,3,2,2,45,0,0
28861,-111.111111111111,3,2,1,45,0,0
30088,-111.111111111111,3,2,2,45,0,0
30497,-111.111111111111,3,2,1,45,0,0
31724,-111.111111111111,3,2,2,45,0,0
32134,-111.111111111111,3,2,1,45,0,0
32747,-111.111111111111,3,2,1,45,0,0
32815,-111.111111111111,3,2,1,45,0,0
33361,-111.111111111111,3,2,2,45,0,0
33770,-111.111111111111,3,2,1,45,0,0
34997,-111.111111111111,3,2,2,45,0,0
35406,-111.111111111111,3,2,1,45,0,0
35815,-111.111111111111,3,2,1,45,0,0
36634,-111.111111111111,3,2,2,45,0,0
37043,-111.111111111111,3,2,1,45,0,0
37179,-111.111111111111,3,2,1,45,0,0
37452,-111.111111111111,3,2,1,45,0,0
38270,-111.111111111111,3,2,2,45,0,0
38679,-111.111111111111,3,2,1,45,0,0
39088,-142.857142857143,3,2,1,45,0,0
39906,-86.9565217391304,3,2,2,60,0,0
40315,-86.9565217391304,3,2,2,60,0,0
40724,-83.3333333333333,3,2,2,60,0,0
40929,-83.3333333333333,3,2,2,60,0,0
40997,-83.3333333333333,3,2,2,60,0,0
41202,-83.3333333333333,3,2,2,5,0,0
41270,-83.3333333333333,3,2,2,60,0,0
41543,-125,3,2,2,40,0,0
43179,-86.9565217391304,3,2,2,60,0,0
43588,-86.9565217391304,3,2,2,60,0,0
43997,-83.3333333333333,3,2,2,60,0,0
44270,-83.3333333333333,3,2,2,60,0,0
44474,-83.3333333333333,3,2,2,5,0,0
44543,-83.3333333333333,3,2,2,60,0,0
44815,-125,3,2,1,45,0,0
46452,-111.111111111111,3,2,1,40,0,0
47270,-111.111111111111,3,2,1,35,0,0
48088,-111.111111111111,3,2,1,35,0,0
49724,-111.111111111111,3,2,1,40,0,0
52384,-111.111111111111,3,2,1,40,0,0
52452,-111.111111111111,3,2,1,40,0,0
52656,-111.111111111111,3,2,1,40,0,0
52724,-111.111111111111,3,2,1,40,0,0
52997,-166.666666666667,3,2,2,40,0,0
53815,-133.333333333333,3,2,2,40,0,0
54634,-111.111111111111,3,2,2,40,0,0
56763,280.373831775701,3,2,1,50,1,0
56763,-100,3,2,1,50,0,0
57043,306.122448979592,3,2,1,50,1,0
57043,-100,3,2,1,50,0,0
57349,289.855072463768,3,2,1,50,1,0
57349,-100,3,2,1,50,0,0
57638,-100,3,2,1,50,0,0
57906,272.727272727273,3,2,2,70,1,0
57906,-86.9565217391304,3,2,2,70,0,1
58042,-86.9565217391304,3,2,2,70,0,1
58178,-86.9565217391304,3,2,1,70,0,1
59542,-86.9565217391304,3,2,2,70,0,1
59815,-86.9565217391304,3,2,1,70,0,1
60565,-86.9565217391304,3,2,1,5,0,1
60633,-86.9565217391304,3,2,1,70,0,1
61178,-86.9565217391304,3,2,2,70,0,1
61451,-86.9565217391304,3,2,1,70,0,1
62815,-86.9565217391304,3,2,2,70,0,1
63087,-86.9565217391304,3,2,1,70,0,1
63633,-86.9565217391304,3,2,2,70,0,1
63906,-86.9565217391304,3,2,1,70,0,1
64451,-86.9565217391304,3,2,2,70,0,1
64724,-86.9565217391304,3,2,1,70,0,1
65269,-86.9565217391304,3,2,1,70,0,1
66019,-86.9565217391304,3,2,1,5,0,1
66087,-86.9565217391304,3,2,2,70,0,1
66360,-86.9565217391304,3,2,1,70,0,1
66837,-86.9565217391304,3,2,1,5,0,1
66906,-86.9565217391304,3,2,1,70,0,1
67451,-86.9565217391304,3,2,2,70,0,1
67587,-86.9565217391304,3,2,1,70,0,1
67724,-86.9565217391304,3,2,2,70,0,1
67996,-86.9565217391304,3,2,1,70,0,1
68542,-86.9565217391304,3,2,2,70,0,1
68815,-86.9565217391304,3,2,1,70,0,1
69360,-86.9565217391304,3,2,2,70,0,1
69633,-86.9565217391304,3,2,1,70,0,1
70178,-86.9565217391304,3,2,1,70,0,0
70996,-86.9565217391304,3,2,2,70,0,1
71133,-86.9565217391304,3,2,2,70,0,1
71269,-86.9565217391304,3,2,1,70,0,1
72633,-86.9565217391304,3,2,2,70,0,1
72906,-86.9565217391304,3,2,1,70,0,1
74269,-86.9565217391304,3,2,2,70,0,1
74542,-86.9565217391304,3,2,1,70,0,1
75906,-86.9565217391304,3,2,2,70,0,1
76178,-86.9565217391304,3,2,1,70,0,1
76724,-86.9565217391304,3,2,2,70,0,1
76996,-86.9565217391304,3,2,1,70,0,1
77542,-86.9565217391304,3,2,2,70,0,1
77815,-86.9565217391304,3,2,1,70,0,1
79178,-86.9565217391304,3,2,2,70,0,1
79451,-86.9565217391304,3,2,1,70,0,1
80542,-86.9565217391304,3,2,2,70,0,1
80678,-86.9565217391304,3,2,1,70,0,1
80746,-86.9565217391304,3,2,1,5,0,1
80815,-86.9565217391304,3,2,2,70,0,1
81087,-86.9565217391304,3,2,1,70,0,1
81565,-86.9565217391304,3,2,1,5,0,1
81633,-86.9565217391304,3,2,2,70,0,1
81906,-86.9565217391304,3,2,1,70,0,1
82451,-86.9565217391304,3,2,2,70,0,1
82724,-86.9565217391304,3,2,1,70,0,1
83474,-86.9565217391304,3,2,1,5,0,1
83542,-86.9565217391304,3,2,1,70,0,1
84087,-90.9090909090909,3,2,2,60,0,0
84224,-90.9090909090909,3,2,2,60,0,0
84360,-90.9090909090909,3,2,1,60,0,0
85110,-90.9090909090909,3,2,1,5,0,0
85178,-90.9090909090909,3,2,1,60,0,0
85724,-90.9090909090909,3,2,2,60,0,0
85996,-90.9090909090909,3,2,1,60,0,0
87360,-90.9090909090909,3,2,2,60,0,0
87633,-90.9090909090909,3,2,1,60,0,0
88451,-90.9090909090909,3,2,1,60,0,0
88724,-90.9090909090909,3,2,1,60,0,0
88996,-90.9090909090909,3,2,2,60,0,0

[Colours]
Combo1 : 53,53,59
Combo2 : 196,194,161
Combo3 : 144,173,173
Combo4 : 123,120,116
Combo5 : 126,142,165

[HitObjects]
51,358,634,6,0,B|24:287|24:287|43:274|61:247,1,130,6|0,3:2|3:0,0:0:0:0:
120,187,1043,2,0,B|196:177|168:248|259:236,1,130,2|0,0:2|0:0,0:0:0:0:
291,174,1452,2,0,P|281:143|268:113,1,65,2|0,3:2|0:0,0:0:0:0:
193,74,1724,1,2,0:2:0:0:
348,7,1997,1,2,0:2:0:0:
488,101,2270,6,0,P|464:161|452:225,1,130,2|0,3:2|3:0,0:0:0:0:
427,306,2679,2,0,B|391:297|375:262|375:262|356:293|303:297,1,130,2|0,0:2|0:0,0:0:0:0:
274,360,3088,2,0,P|243:350|213:337,1,65,2|0,3:2|0:0,0:0:0:0:
136,372,3361,1,2,3:2:0:0:
50,232,3634,1,10,3:2:0:0:
50,232,3770,1,8,3:2:0:0:
128,262,3906,6,0,B|191:248|191:248|204:250|204:250|266:237,1,130,6|0,3:2|3:0,0:0:0:0:
292,163,4315,2,0,P|255:112|179:135,1,130,2|0,0:2|0:0,0:0:0:0:
115,149,4724,2,0,P|67:144|47:119,1,65,2|0,3:2|0:0,0:0:0:0:
5,65,4997,1,2,0:2:0:0:
165,10,5270,1,2,3:2:0:0:
327,56,5543,6,0,P|358:66|388:79,1,65,2|0,3:2|0:0,0:0:0:0:
435,148,5815,2,0,P|404:158|374:171,1,65,2|0,0:2|0:0,0:0:0:0:
319,235,6088,1,2,0:2:0:0:
447,345,6361,2,0,P|458:281|483:220,1,130,2|0,3:2|3:0,0:0:0:0:
350,325,6906,1,8,3:2:0:0:
350,325,7043,1,8,3:2:0:0:
278,369,7179,6,0,P|216:375|180:324,1,130,6|0,3:2|3:0,0:0:0:0:
157,242,7588,2,0,B|112:223|82:222|82:222|59:246|29:246,1,130,2|0,0:2|0:0,0:0:0:0:
17,164,7997,2,0,P|0:136|2:104,1,65,2|0,3:2|0:0,0:0:0:0:
59,42,8270,1,2,0:2:0:0:
207,123,8543,1,2,0:2:0:0:
334,12,8815,6,0,B|352:39|371:52|371:52|344:123,1,130,2|0,3:2|3:0,0:0:0:0:
396,189,9224,2,0,P|440:145|500:162,1,130,2|0,0:2|0:0,0:0:0:0:
495,247,9634,2,0,P|482:276|472:307,1,65,2|0,3:2|0:0,0:0:0:0:
417,372,9906,1,2,3:2:0:0:
272,294,10179,1,10,3:2:0:0:
272,294,10315,1,8,3:2:0:0:
197,332,10451,6,0,B|183:269|183:269|185:256|185:256|172:194,1,130,6|0,3:2|3:0,0:0:0:0:
222,134,10861,2,0,P|177:90|117:107,1,130,2|0,0:2|0:0,0:0:0:0:
76,180,11270,2,0,P|46:192|15:202,1,65,2|0,3:2|0:0,0:0:0:0:
1,286,11543,2,0,P|30:298|61:308,1,65,2|0,0:2|0:0,0:0:0:0:
125,374,11815,2,0,P|159:330|218:347,1,97.5,2|0,3:2|0:0,0:0:0:0:
228,359,12088,6,0,P|281:352|303:324,1,65,2|0,3:2|0:0,0:0:0:0:
350,288,12361,2,0,P|382:285|410:300,1,65,2|0,3:2|0:0,0:0:0:0:
462,232,12634,2,0,P|450:203|440:172,1,65,2|0,0:2|0:0,0:0:0:0:
355,175,12906,2,0,P|305:180|254:125,1,130,2|0,3:2|3:0,0:0:0:0:
99,55,13452,1,8,3:2:0:0:
99,55,13588,1,8,3:2:0:0:
46,112,13724,6,0,P|68:167|78:227,1,104,2|0,3:2|0:0,0:0:0:0:
226,271,14270,1,2,0:2:0:0:
226,271,14543,2,0,P|280:282|331:304,2,104,2|2|2,3:2|0:2|3:2,0:0:0:0:
215,115,15361,2,0,P|269:104|320:82,1,104,10|0,3:2|0:0,0:0:0:0:
377,38,15770,1,2,0:2:0:0:
377,38,15906,1,2,0:2:0:0:
474,160,16179,2,0,B|420:151|429:208|373:197,1,104,2|2,3:2|3:2,0:0:0:0:
276,313,16724,1,2,3:2:0:0:
276,313,16861,1,2,3:2:0:0:
214,264,16997,6,0,P|129:280|49:314,1,156,10|2,3:2|0:2,0:0:0:0:
18,370,17543,1,2,0:2:0:0:
44,216,17815,2,0,P|98:204|148:183,2,104,2|2|2,3:2|0:2|3:2,0:0:0:0:
85,64,18634,2,0,P|143:48|185:90,1,104,10|0,3:2|0:0,0:0:0:0:
241,124,19043,1,0,0:0:0:0:
241,124,19179,2,0,P|269:141|300:130,1,52,2|0,0:2|0:0,0:0:0:0:
333,75,19452,2,0,B|361:116|396:135|396:135|348:260,1,208,2|2,3:2|3:2,0:0:0:0:
236,351,20270,6,0,P|225:299|205:252,1,104,10|0,3:2|3:0,0:0:0:0:
132,268,20679,1,2,0:2:0:0:
132,268,20815,2,0,P|104:285|73:274,1,52,2|0,0:2|0:0,0:0:0:0:
32,225,21088,2,0,P|51:171|110:166,2,104,0|0|0,3:0|3:0|3:0,0:0:0:0:
98,381,21906,6,0,P|149:370|196:350,1,104,10|0,3:2|0:0,0:0:0:0:
269,318,22315,1,2,0:2:0:0:
269,318,22452,2,0,P|305:325|340:339,1,52,2|0,3:2|0:0,0:0:0:0:
397,326,22724,2,0,B|406:272|359:275|375:226,1,104,2|2,3:2|3:2,0:0:0:0:
498,133,23270,1,2,3:2:0:0:
374,37,23543,6,0,P|332:101|204:77,1,208,10|2,3:2|0:2,0:0:0:0:
66,34,24361,1,2,3:2:0:0:
66,34,24634,2,0,P|90:91|103:153,1,104,2|0,3:2|3:0,0:0:0:0:
135,283,25179,2,0,P|190:287|225:245,1,104,10|0,3:2|3:0,0:0:0:0:
188,183,25588,1,0,3:0:0:0:
188,183,25724,1,0,3:0:0:0:
360,231,25997,6,0,B|433:247|433:247|448:245|448:245|521:260,2,149.500002851486,4|4|6,3:2|3:2|3:2,0:0:0:0:
298,278,26679,1,0,0:0:0:0:
249,336,26815,6,0,P|191:360|129:373,1,116.999996429443,8|0,3:2|0:0,0:0:0:0:
14,282,27361,1,2,0:2:0:0:
14,282,27634,2,0,P|57:241|117:248,1,116.999996429443,2|2,3:2|3:2,0:0:0:0:
224,142,28179,1,2,3:2:0:0:
103,49,28452,6,0,P|127:107|140:169,1,116.999996429443,2|0,3:2|0:0,0:0:0:0:
192,221,28861,1,2,3:2:0:0:
192,221,28997,2,0,P|220:238|251:227,1,58.4999982147217,2|0,0:2|0:0,0:0:0:0:
306,189,29270,2,0,P|349:148|409:155,1,116.999996429443,2|0,3:2|3:0,0:0:0:0:
499,34,29815,1,2,3:2:0:0:
499,34,29952,1,2,0:2:0:0:
415,60,30088,6,0,B|359:48|359:48|345:50|345:50|275:34,1,116.999996429443,2|2,3:2|0:2,0:0:0:0:
223,80,30497,1,2,3:2:0:0:
223,80,30634,1,2,0:2:0:0:
58,21,30906,2,0,P|17:64|24:124,1,116.999996429443,2|2,3:2|3:2,0:0:0:0:
108,239,31452,1,2,3:2:0:0:
108,239,31724,6,0,P|166:215|228:202,1,116.999996429443,2|0,3:2|0:0,0:0:0:0:
291,240,32134,1,0,3:0:0:0:
291,240,32270,1,2,0:2:0:0:
401,326,32543,2,0,P|459:350|521:363,2,116.999996429443,2|0|0,3:2|3:0|3:0,0:0:0:0:
270,377,33361,6,0,P|231:330|163:345,1,116.999996429443,2|0,3:2|0:0,0:0:0:0:
118,377,33770,1,2,3:2:0:0:
118,377,33907,2,0,P|82:371|47:360,1,58.4999982147217,2|0,0:2|0:0,0:0:0:0:
2,316,34179,1,2,3:2:0:0:
89,206,34452,2,0,P|124:200|159:189,1,58.4999982147217,0|0,3:0|0:0,0:0:0:0:
210,233,34724,1,0,3:0:0:0:
323,131,34997,6,0,P|260:134|227:86,1,116.999996429443,2|0,3:2|0:0,0:0:0:0:
167,45,35406,1,2,3:2:0:0:
167,45,35542,2,0,P|139:62|105:61,1,58.4999982147217,2|0,0:2|0:0,0:0:0:0:
49,15,35815,1,2,3:2:0:0:
153,156,36088,1,2,3:2:0:0:
55,296,36361,1,2,3:2:0:0:
230,363,36634,6,0,P|294:274|415:307,1,233.999992858887,2|2,3:2|0:2,0:0:0:0:
507,183,37452,2,0,P|397:171|365:49,1,233.999992858887,2|2,3:2|3:2,0:0:0:0:
171,23,38270,2,0,P|196:79|145:128,1,116.999996429443,2|0,3:2|0:0,0:0:0:0:
98,152,38679,2,0,P|72:201|101:250,1,116.999996429443,0|0,3:0|0:0,0:0:0:0:
171,300,39088,2,0,P|258:263|351:244,1,181.999994445801,2|0,3:2|3:0,0:0:0:0:
497,149,39906,6,0,B|462:132|449:92|449:92|402:120|358:112,1,149.500002851486,6|0,3:2|0:0,0:0:0:0:
308,69,40315,2,0,B|274:85|261:125|261:125|221:95|193:103,1,149.500002851486,6|0,3:2|0:0,0:0:0:0:
117,61,40724,2,0,P|71:70|29:89,1,77.999997619629,6|0,3:2|0:0,0:0:0:0:
10,174,40997,2,0,P|74:188|135:214,1,116.999996429443,6|0,3:2|0:0,0:0:0:0:
151,238,41270,1,2,0:2:0:0:
194,368,41543,6,0,P|139:377|105:332,2,104,2|2|2,0:2|0:2|0:2,0:0:0:0:
278,303,42361,1,2,0:2:0:0:
358,359,42634,1,2,0:2:0:0:
430,326,42906,1,2,0:2:0:0:
448,175,43179,6,0,B|484:75|484:75|458:57|446:38,1,149.500002851486,6|0,3:2|0:0,0:0:0:0:
369,47,43588,2,0,B|331:144|331:144|357:162|369:181,1,149.500002851486,6|0,3:2|0:0,0:0:0:0:
291,218,43997,2,0,P|243:225|213:186,1,77.999997619629,6|0,3:2|0:0,0:0:0:0:
152,158,44270,2,0,P|85:146|45:200,1,116.999996429443,6|0,3:2|0:0,0:0:0:0:
33,215,44543,1,2,0:2:0:0:
22,30,44815,6,0,P|78:42|132:65,1,104,2|2,0:2|0:2,0:0:0:0:
226,15,45361,1,2,0:2:0:0:
296,83,45634,1,2,0:2:0:0:
377,46,45906,1,2,0:2:0:0:
443,92,46179,1,2,0:2:0:0:
383,201,46452,6,0,P|328:194|300:252,2,116.999996429443,2|2|0,0:2|0:2|0:2,0:0:0:0:
463,295,47270,2,0,P|398:310|337:336,1,116.999996429443,2|2,0:2|0:2,0:0:0:0:
237,353,47815,1,2,0:2:0:0:
160,264,48088,6,0,B|106:265|114:319|58:313,2,116.999996429443,2|2|0,0:2|0:2|0:2,0:0:0:0:
246,185,48906,2,0,P|301:192|337:144,1,116.999996429443,2|2,0:2|0:2,0:0:0:0:
258,59,49452,1,2,0:2:0:0:
143,80,49724,6,0,B|132:131|132:131|133:143|133:143|119:207,1,116.999996429443,2|0,0:2|0:0,0:0:0:0:
66,246,50134,1,2,0:2:0:0:
66,246,50270,1,2,0:2:0:0:
144,332,50543,6,0,B|196:321|196:321|208:322|208:322|272:308,1,116.999996429443,2|0,0:2|0:0,0:0:0:0:
310,255,50953,1,2,0:2:0:0:
310,255,51089,1,2,0:2:0:0:
411,197,51361,6,0,P|463:226|457:287,1,116.999996429443,2|0,0:2|0:0,0:0:0:0:
410,339,51770,1,0,0:0:0:0:
310,255,52043,1,0,0:0:0:0:
310,255,52179,2,0,B|175:267|249:152|91:150,1,233.999992858887,2|2,0:2|0:2,0:0:0:0:
147,32,52997,6,0,P|185:40|220:55,2,77.999997619629,2|0|0,3:2|0:2|0:2,0:0:0:0:
115,134,53815,2,0,P|62:146|12:167,2,97.50000371933,2|0|0,0:2|0:2|0:2,0:0:0:0:
135,248,54634,2,0,P|192:260|247:282,2,116.999996429443,6|0|0,0:2|0:2|0:2,0:0:0:0:
220,129,55452,5,2,0:2:0:0:
220,129,56763,5,2,0:2:0:0:
207,144,57043,5,2,0:2:0:0:
223,154,57349,5,2,0:2:0:0:
239,139,57638,5,2,0:2:0:0:
178,9,57906,6,0,B|102:-4|130:70|39:58,1,149.500002851486,6|8,0:2|0:2,0:0:0:0:
0,126,58315,1,0,3:0:0:0:
0,126,58451,2,0,P|35:137|70:152,1,74.7500014257431,8|0,0:2|0:0,0:0:0:0:
112,223,58724,2,0,P|150:205|189:192,1,74.7500014257431,0|0,3:0|0:0,0:0:0:0:
261,180,58996,2,0,P|287:212|279:252,1,74.7500014257431,2|0,3:2|0:0,0:0:0:0:
232,308,59269,1,10,0:2:0:0:
380,378,59542,6,0,B|400:346|422:331|422:331|391:249,1,149.500002851486,10|10,3:2|0:2,0:0:0:0:
421,176,59951,1,0,3:0:0:0:
421,176,60087,2,0,P|454:196|493:194,1,74.7500014257431,10|0,0:2|0:0,0:0:0:0:
508,115,60360,2,0,P|465:80|400:103,1,112.125002138615,0|0,3:0|0:0,0:0:0:0:
372,101,60633,2,0,P|337:90|302:75,1,74.7500014257431,2|0,3:2|0:0,0:0:0:0:
265,0,60906,1,10,0:2:0:0:
121,79,61178,6,0,P|153:151|177:225,1,149.500002851486,10|10,3:2|0:2,0:0:0:0:
249,264,61587,1,0,3:0:0:0:
249,264,61724,2,0,P|234:298|223:333,1,74.7500014257431,10|0,0:2|0:0,0:0:0:0:
149,370,61996,2,0,P|124:340|64:347,1,74.7500014257431,0|0,3:0|0:0,0:0:0:0:
22,381,62269,1,0,3:0:0:0:
28,216,62542,2,0,P|16:180|1:146,1,74.7500014257431,10|8,0:2|0:2,0:0:0:0:
29,68,62815,6,0,P|101:100|175:124,1,149.500002851486,10|8,3:2|0:2,0:0:0:0:
225,188,63224,1,0,3:0:0:0:
225,188,63360,2,0,P|260:176|294:161,1,74.7500014257431,8|0,0:2|0:0,0:0:0:0:
317,81,63633,2,0,P|370:74|396:109,1,74.7500014257431,2|0,3:2|0:0,0:0:0:0:
412,162,63906,1,0,3:0:0:0:
505,296,64178,1,8,0:2:0:0:
449,357,64315,1,8,0:2:0:0:
366,347,64451,6,0,P|331:359|297:374,1,74.7500014257431,6|0,0:2|0:0,0:0:0:0:
214,369,64724,2,0,P|179:357|145:342,1,74.7500014257431,10|0,0:2|3:0,0:0:0:0:
75,297,64996,2,0,P|40:309|6:324,1,74.7500014257431,10|0,0:2|0:0,0:0:0:0:
32,214,65269,6,0,P|65:194|104:201,1,74.7500014257431,2|0,3:2|0:0,0:0:0:0:
164,249,65542,2,0,P|197:269|236:262,1,74.7500014257431,2|0,3:2|0:0,0:0:0:0:
283,199,65815,2,0,P|333:158|389:182,1,112.125002138615,10|0,0:2|0:0,0:0:0:0:
415,170,66087,6,0,B|399:97|399:97|401:82|401:82|388:23,1,149.500002851486,10|10,3:2|0:2,0:0:0:0:
313,54,66496,1,0,3:0:0:0:
313,54,66633,2,0,P|256:75|204:29,1,112.125002138615,10|0,0:2|0:0,0:0:0:0:
186,21,66906,2,0,P|151:33|117:48,1,74.7500014257431,2|0,3:2|0:0,0:0:0:0:
60,107,67178,1,2,3:2:0:0:
184,224,67451,1,10,3:2:0:0:
184,224,67587,1,8,0:2:0:0:
254,180,67724,6,0,P|303:240|261:317,1,149.500002851486,10|8,3:2|0:2,0:0:0:0:
335,365,68133,1,0,3:0:0:0:
335,365,68269,2,0,P|370:353|404:338,1,74.7500014257431,10|0,0:2|0:0,0:0:0:0:
479,303,68542,2,0,B|459:269|433:254|433:254|466:167,1,149.500002851486,2|0,3:2|3:0,0:0:0:0:
509,110,68951,1,0,0:0:0:0:
509,110,69087,1,8,0:2:0:0:
368,24,69360,6,0,P|325:83|246:68,1,149.500002851486,8|8,3:2|0:2,0:0:0:0:
198,26,69769,1,0,3:0:0:0:
198,26,69905,2,0,P|163:38|129:53,1,74.7500014257431,10|0,0:2|0:0,0:0:0:0:
50,25,70178,2,0,P|30:58|37:97,1,74.7500014257431,2|8,3:2|0:2,0:0:0:0:
105,135,70451,2,0,P|125:168|118:207,1,74.7500014257431,2|8,3:2|0:2,0:0:0:0:
53,251,70724,1,10,0:2:0:0:
7,319,70860,1,8,0:2:0:0:
70,382,70996,6,0,B|149:395|120:317|215:330,1,149.500002851486,6|8,0:2|0:2,0:0:0:0:
255,266,71406,1,0,3:0:0:0:
255,266,71542,2,0,P|295:278|335:295,1,74.7500014257431,8|0,0:2|0:0,0:0:0:0:
376,225,71815,2,0,P|362:186|346:149,1,74.7500014257431,0|0,3:0|0:0,0:0:0:0:
395,88,72087,2,0,P|427:114|467:106,1,74.7500014257431,2|0,3:2|0:0,0:0:0:0:
504,42,72360,1,10,0:2:0:0:
341,11,72633,6,0,P|266:36|194:68,1,149.500002851486,10|10,3:2|0:2,0:0:0:0:
148,128,73042,1,0,3:0:0:0:
148,128,73178,2,0,P|107:115|67:98,1,74.7500014257431,10|0,0:2|0:0,0:0:0:0:
42,177,73451,2,0,P|86:190|131:209,1,74.7500014257431,0|0,3:0|0:0,0:0:0:0:
177,252,73724,2,0,P|213:253|240:228,1,74.7500014257431,2|0,3:2|0:0,0:0:0:0:
285,160,73997,1,10,0:2:0:0:
285,160,74133,1,8,0:2:0:0:
355,200,74269,6,0,B|375:232|397:247|397:247|366:329,1,149.500002851486,10|10,3:2|0:2,0:0:0:0:
299,373,74678,1,0,3:0:0:0:
299,373,74815,2,0,P|258:360|218:343,1,74.7500014257431,10|0,0:2|0:0,0:0:0:0:
157,306,75087,2,0,P|109:320|61:341,1,74.7500014257431,0|0,3:0|0:0,0:0:0:0:
14,370,75360,1,0,3:0:0:0:
14,202,75633,2,0,P|50:200|77:225,1,74.7500014257431,10|8,0:2|0:2,0:0:0:0:
151,188,75906,6,0,B|135:115|135:115|137:100|137:100|124:41,1,149.500002851486,10|8,3:2|0:2,0:0:0:0:
206,20,76315,1,0,3:0:0:0:
206,20,76451,2,0,P|241:32|275:47,1,74.7500014257431,8|0,0:2|0:0,0:0:0:0:
324,114,76724,2,0,P|370:120|397:81,1,74.7500014257431,2|0,3:2|0:0,0:0:0:0:
435,35,76997,1,0,3:0:0:0:
507,186,77269,1,10,0:2:0:0:
459,253,77406,1,8,0:2:0:0:
496,325,77542,6,0,P|416:350|336:384,1,149.500002851486,6|8,0:2|0:2,0:0:0:0:
283,335,77951,1,0,3:0:0:0:
126,377,78224,1,0,0:0:0:0:
126,377,78360,6,0,P|101:349|103:313,1,74.7500014257431,2|0,3:2|0:0,0:0:0:0:
169,264,78633,2,0,P|194:236|192:200,1,74.7500014257431,2|0,3:2|0:0,0:0:0:0:
126,150,78906,2,0,P|101:122|103:86,1,74.7500014257431,10|8,0:2|0:2,0:0:0:0:
185,22,79178,6,0,P|226:35|266:52,1,74.7500014257431,10|0,3:2|0:0,0:0:0:0:
305,112,79451,2,0,P|346:99|386:82,1,74.7500014257431,10|0,0:2|3:0,0:0:0:0:
438,34,79724,2,0,P|479:47|519:64,1,74.7500014257431,10|0,0:2|0:0,0:0:0:0:
511,141,79996,6,0,P|431:166|351:200,1,149.500002851486,2|0,3:2|3:0,0:0:0:0:
333,265,80406,1,0,0:0:0:0:
333,265,80542,2,0,P|280:272|250:228,1,112.125002138615,10|0,3:2|0:0,0:0:0:0:
214,206,80815,6,0,B|194:238|172:253|172:253|203:335,1,149.500002851486,10|8,3:2|0:2,0:0:0:0:
364,360,81360,2,0,P|423:341|481:316,1,112.125002138615,10|0,0:2|0:0,0:0:0:0:
502,297,81633,2,0,P|446:272|457:180,1,149.500002851486,2|0,3:2|3:0,0:0:0:0:
461,114,82042,1,0,0:0:0:0:
461,114,82178,2,0,P|413:99|369:80,1,74.7500014257431,8|8,0:2|0:2,0:0:0:0:
335,27,82451,6,0,P|261:50|190:80,1,149.500002851486,8|8,3:2|0:2,0:0:0:0:
129,36,82860,1,0,3:0:0:0:
129,36,82996,1,8,0:2:0:0:
33,172,83269,6,0,B|98:161|74:225|153:215,1,112.125002138615,2|0,3:2|0:0,0:0:0:0:
168,232,83542,2,0,P|220:215|270:193,1,74.7500014257431,0|0,3:0|3:0,0:0:0:0:
304,158,83815,1,10,0:2:0:0:
365,212,83951,1,8,0:2:0:0:
322,290,84087,6,0,P|251:312|182:341,1,143.000004364014,6|2,0:2|0:2,0:0:0:0:
33,374,84633,1,2,0:2:0:0:
187,338,84906,2,0,P|239:354|289:376,1,107.25000327301,2|0,3:2|0:0,0:0:0:0:
326,369,85178,2,0,P|374:353|421:332,1,71.5000021820069,2|0,3:2|0:0,0:0:0:0:
469,366,85451,1,10,3:2:0:0:
502,213,85724,6,0,P|448:159|374:182,1,143.000004364014,2|2,3:2|0:2,0:0:0:0:
335,228,86133,2,0,P|307:251|271:243,1,71.5000021820069,2|0,3:2|0:0,0:0:0:0:
200,236,86406,1,2,0:2:0:0:
200,236,86542,1,2,3:2:0:0:
227,80,86815,1,2,3:2:0:0:
87,8,87087,1,10,3:2:0:0:
6,143,87360,6,0,B|21:212|21:212|19:226|19:226|31:282,1,143.000004364014,2|2,3:2|0:2,0:0:0:0:
82,343,87769,1,0,3:0:0:0:
82,343,87906,2,0,P|116:348|142:325,1,71.5000021820069,2|0,0:2|0:0,0:0:0:0:
195,267,88178,1,2,3:2:0:0:
312,372,88451,1,2,3:2:0:0:
369,256,88724,1,10,3:2:0:0:
441,324,88996,5,2,3:2:0:0:
