osu file format v14

[General]
AudioFilename: audio.mp3
AudioLeadIn: 0
PreviewTime: 56543
Countdown: 0
SampleSet: Soft
StackLeniency: 0.7
Mode: 0
LetterboxInBreaks: 0
WidescreenStoryboard: 1

[Editor]
Bookmarks: 7179,64452,70997,77543,84088
DistanceSpacing: 1.5
BeatDivisor: 4
GridSize: 32
TimelineZoom: 2.4

[Metadata]
Title:Katayoku no Tori
TitleUnicode:片翼の鳥
Artist:Shikata Akiko
ArtistUnicode:志方あきこ
Creator:Rakuen
Version:Walao's Insane
Source:うみねこのなく頃に
Tags:Umineko no Naku Koro ni walaowey [_-Scarlet-_] opening op tv size
BeatmapID:1370805
BeatmapSetID:536657

[Difficulty]
HPDrainRate:6
CircleSize:3.8
OverallDifficulty:7
ApproachRate:8
SliderMultiplier:1
SliderTickRate:1

[Events]
//Background and Video events
0,0,"600306.jpg",0,0
Video,0,"umineko op.mp4"
//Break Periods
//Storyboard Layer 0 (Background)
//Storyboard Layer 1 (Fail)
//Storyboard Layer 2 (Pass)
//Storyboard Layer 3 (Foreground)
//Storyboard Sound Samples

[TimingPoints]
634,272.727272727273,6,2,1,60,1,0
634,-100,6,2,1,60,0,0
13724,-100,6,2,2,40,0,0
25997,-83.3333333333333,6,2,2,40,0,0
26202,-83.3333333333333,6,2,2,10,0,0
26270,-83.3333333333333,6,2,2,40,0,0
26474,-83.3333333333333,6,2,2,10,0,0
26543,-83.3333333333333,6,2,2,40,0,0
26815,-100,6,2,2,40,0,0
39906,-83.3333333333333,6,2,1,60,0,0
40179,-83.3333333333333,6,2,1,20,0,0
40315,-83.3333333333333,6,2,1,60,0,0
40588,-83.3333333333333,6,2,1,20,0,0
40724,-83.3333333333333,6,2,1,60,0,0
40929,-83.3333333333333,6,2,1,20,0,0
40997,-83.3333333333333,6,2,1,60,0,0
41202,-83.3333333333333,6,2,1,20,0,0
41270,-83.3333333333333,6,2,1,30,0,0
41540,-133.333333333333,6,2,1,30,0,0
43179,-83.3333333333333,6,2,1,60,0,0
43452,-83.3333333333333,6,2,1,20,0,0
43588,-83.3333333333333,6,2,1,60,0,0
43861,-83.3333333333333,6,2,1,20,0,0
43997,-83.3333333333333,6,2,1,60,0,0
44202,-83.3333333333333,6,2,1,20,0,0
44270,-83.3333333333333,6,2,1,60,0,0
44474,-83.3333333333333,6,2,1,20,0,0
44543,-83.3333333333333,6,2,1,30,0,0
44815,-133.333333333333,6,2,1,30,0,0
46452,-100,6,2,1,40,0,0
52997,-100,6,2,1,30,0,0
54634,-100,6,2,1,50,0,0
54906,-100,6,2,1,30,0,0
55179,-100,6,2,1,15,0,0
55452,-100,6,2,1,5,0,0
56815,-100,6,2,1,25,0,0
56952,-100,6,2,1,10,0,0
57088,-100,6,2,1,25,0,0
57224,-100,6,2,1,10,0,0
57361,-100,6,2,1,25,0,0
57497,-100,6,2,1,10,0,0
57634,-100,6,2,1,25,0,0
57770,-100,6,2,1,10,0,0
57906,-100,6,2,3,60,0,1
88997,-100,6,2,3,60,0,0

[Colours]
Combo1 : 128,0,0
Combo2 : 255,0,0
Combo3 : 255,128,0
Combo4 : 255,255,0

[HitObjects]
79,215,634,6,0,P|124:177|187:175,1,100,14|0,0:0|0:0,0:0:0:0:
237,308,1043,2,0,P|181:288|148:234,1,100,2|0,0:0|0:0,0:0:0:0:
252,171,1452,2,0,P|248:196|238:219,1,50,10|0,0:0|0:0,0:0:0:0:
163,170,1724,2,0,P|166:145|177:123,1,50,2|0,0:0|0:0,0:0:0:0:
279,35,1997,1,2,0:0:0:0:
279,35,2270,6,0,P|325:55|385:46,1,100,10|0,0:0|0:0,0:0:0:0:
453,181,2679,2,0,P|407:161|347:170,1,100,2|0,0:0|0:0,0:0:0:0:
273,251,3088,2,0,P|271:280|272:300,1,50,10|0,0:0|0:0,0:0:0:0:
385,334,3361,2,0,P|387:305|385:284,1,50,2|0,0:0|0:0,0:0:0:0:
272,165,3634,1,2,0:0:0:0:
272,165,3770,1,0,0:0:0:0:
272,165,3906,6,0,P|227:180|190:240,1,100,14|0,0:0|0:0,0:0:0:0:
106,330,4315,2,0,P|75:286|-1:271,1,100,2|0,0:0|0:0,0:0:0:0:
77,123,4724,1,10,0:0:0:0:
76,122,4997,2,0,L|77:176,1,50,2|0,0:0|0:0,0:0:0:0:
167,72,5270,2,0,L|167:125,1,50,2|0,0:0|0:0,0:0:0:0:
239,219,5543,6,0,P|259:237|284:243,1,50,10|0,0:0|0:0,0:0:0:0:
399,169,5815,2,0,P|373:177|355:195,1,50,2|0,0:0|0:0,0:0:0:0:
363,338,6088,2,0,P|368:311|361:287,1,50,2|0,0:0|0:0,0:0:0:0:
213,314,6361,2,0,L|115:334,1,100,10|2,0:0|0:0,0:0:0:0:
116,334,6906,1,2,0:0:0:0:
116,334,7043,1,0,0:0:0:0:
116,334,7179,6,0,P|114:279|79:234,1,100,14|0,0:0|0:0,0:0:0:0:
29,134,7588,2,0,P|86:119|145:136,1,100,2|0,0:0|0:0,0:0:0:0:
215,220,7997,2,0,L|245:173,1,50,10|0,0:0|0:0,0:0:0:0:
239,53,8270,2,0,L|209:100,1,50,2|0,0:0|0:0,0:0:0:0:
337,174,8543,1,2,0:0:0:0:
337,174,8815,6,0,P|390:183|458:155,1,100,10|0,0:0|0:0,0:0:0:0:
431,45,9224,2,0,P|378:36|310:64,1,100,2|0,0:0|0:0,0:0:0:0:
252,149,9634,2,0,P|249:171|254:206,1,50,10|0,0:0|0:0,0:0:0:0:
314,312,9906,2,0,P|317:290|312:255,1,50,2|0,0:0|0:0,0:0:0:0:
185,256,10179,1,2,0:0:0:0:
185,256,10315,1,0,0:0:0:0:
185,256,10452,6,0,P|124:249|54:218,1,100,14|0,0:0|0:0,0:0:0:0:
64,85,10861,2,0,P|125:92|195:123,1,100,2|0,0:0|0:0,0:0:0:0:
301,163,11270,1,10,0:0:0:0:
301,163,11543,2,0,L|316:98,1,50,2|0,0:0|0:0,0:0:0:0:
418,153,11815,2,0,L|431:97,1,50,2|0,0:0|0:0,0:0:0:0:
479,246,12088,6,0,P|454:260|421:266,1,50,10|0,0:0|0:0,0:0:0:0:
291,268,12361,2,0,P|316:254|349:248,1,50,2|0,0:0|0:0,0:0:0:0:
436,348,12634,2,0,P|411:362|378:368,1,50,2|0,0:0|0:0,0:0:0:0:
222,333,12906,2,0,L|202:205,1,100,10|2,0:0|0:0,0:0:0:0:
207,235,13452,1,2,0:0:0:0:
207,235,13588,1,0,0:0:0:0:
207,235,13724,6,0,P|140:253|102:240,1,100,6|0,0:0|0:0,0:0:0:0:
41,100,14270,1,0,0:0:0:0:
193,58,14543,2,0,L|271:70,1,50,8|0,0:0|0:0,0:0:0:0:
281,189,14815,2,0,L|252:115,1,50,0|0,0:0|0:0,0:0:0:0:
356,45,15088,2,0,L|306:106,1,50,0|0,0:0|0:0,0:0:0:0:
180,148,15361,6,0,L|219:243,1,100,2|0,0:0|0:0,0:0:0:0:
295,273,15770,2,0,P|330:261|347:246,1,50,0|0,0:0|0:0,0:0:0:0:
447,148,16179,1,8,0:0:0:0:
447,148,16315,1,0,0:0:0:0:
447,148,16452,2,0,L|480:195,1,50,0|0,0:0|0:0,0:0:0:0:
479,303,16724,1,0,0:0:0:0:
479,303,16861,1,0,0:0:0:0:
479,303,16997,6,0,P|443:270|373:262,1,100,2|0,0:0|0:0,0:0:0:0:
328,312,17406,2,0,P|297:319|278:318,1,50,0|0,0:0|0:0,0:0:0:0:
113,263,17815,2,0,L|174:284,1,50,8|0,0:0|0:0,0:0:0:0:
217,186,18088,2,0,L|167:195,1,50,0|0,0:0|0:0,0:0:0:0:
128,94,18361,2,0,L|189:115,1,50,0|0,0:0|0:0,0:0:0:0:
302,146,18634,6,0,P|306:92|268:22,1,100,2|0,0:0|0:0,0:0:0:0:
437,81,19179,1,0,0:0:0:0:
380,220,19452,1,8,0:0:0:0:
380,220,19588,1,0,0:0:0:0:
380,220,19724,2,0,P|358:238|318:253,1,50,0|0,0:0|0:0,0:0:0:0:
234,220,19997,1,0,0:0:0:0:
234,220,20134,1,0,0:0:0:0:
234,220,20270,6,0,L|251:331,1,100,2|0,0:0|0:0,0:0:0:0:
327,365,20679,1,0,0:0:0:0:
327,365,20815,2,0,P|297:326|249:318,1,100,0|8,0:0|0:0,0:0:0:0:
122,230,21361,2,0,L|132:180,1,50,0|0,0:0|0:0,0:0:0:0:
40,122,21634,2,0,L|30:180,1,50,0|0,0:0|0:0,0:0:0:0:
135,85,21906,6,0,P|190:102|224:151,1,100,2|0,0:0|0:0,0:0:0:0:
217,237,22315,1,0,0:0:0:0:
217,237,22452,2,0,L|323:180,1,100,0|8,0:0|0:0,0:0:0:0:
399,329,22997,2,0,L|328:369,1,50,0|0,0:0|0:0,0:0:0:0:
282,298,23270,2,0,L|337:267,1,50,0|0,0:0|0:0,0:0:0:0:
393,176,23543,6,0,P|364:124|299:98,1,100,2|0,0:0|0:0,0:0:0:0:
243,123,23952,1,0,0:0:0:0:
243,123,24088,2,0,P|217:111|197:91,1,50,0|0,0:0|0:0,0:0:0:0:
163,20,24361,1,8,0:0:0:0:
79,189,24634,2,0,P|117:235|165:264,1,100,0|0,0:0|0:0,0:0:0:0:
310,274,25179,5,2,0:0:0:0:
292,115,25452,2,0,P|265:117|229:129,1,50,0|0,0:0|0:0,0:0:0:0:
171,217,25724,2,0,P|198:215|234:203,1,50,0|0,0:0|0:0,0:0:0:0:
135,65,25997,6,0,B|128:88|128:88|128:147,1,59.9999981689454,6|0,0:0|0:0,0:0:0:0:
1,101,26270,2,0,B|8:124|8:124|8:183,1,59.9999981689454,4|0,0:0|0:0,0:0:0:0:
92,259,26543,1,4,0:0:0:0:
92,259,26679,1,0,0:0:0:0:
92,259,26815,6,0,P|142:244|204:272,1,100,2|0,0:0|0:0,0:0:0:0:
304,350,27361,1,0,0:0:0:0:
327,201,27634,2,0,L|326:151,1,50,8|0,0:0|0:0,0:0:0:0:
450,143,27906,2,0,L|407:168,1,50,0|0,0:0|0:0,0:0:0:0:
334,61,28179,2,0,L|377:85,1,50,0|0,0:0|0:0,0:0:0:0:
509,196,28452,6,0,L|403:260,1,100,2|0,0:0|0:0,0:0:0:0:
345,282,28861,2,0,P|318:282|292:275,1,50,0|0,0:0|0:0,0:0:0:0:
116,205,29270,2,0,L|95:266,1,50,8|0,0:0|0:0,0:0:0:0:
153,347,29543,2,0,L|174:286,1,50,0|0,0:0|0:0,0:0:0:0:
200,173,29815,1,0,0:0:0:0:
200,173,29952,1,0,0:0:0:0:
200,173,30088,6,0,P|171:136|112:114,1,100,2|0,0:0|0:0,0:0:0:0:
46,155,30497,2,0,P|38:128|40:97,1,50,0|0,0:0|0:0,0:0:0:0:
231,64,30906,2,0,P|259:53|275:41,1,50,8|0,0:0|0:0,0:0:0:0:
337,150,31179,2,0,P|313:131|295:122,1,50,0|0,0:0|0:0,0:0:0:0:
361,21,31452,2,0,P|356:50|358:70,1,50,0|0,0:0|0:0,0:0:0:0:
273,202,31724,6,0,L|304:314,1,100,2|0,0:0|0:0,0:0:0:0:
443,341,32270,1,0,0:0:0:0:
448,190,32543,2,0,L|394:211,1,50,8|0,0:0|0:0,0:0:0:0:
273,202,32815,2,0,L|326:182,1,50,0|0,0:0|0:0,0:0:0:0:
410,92,33088,2,0,L|363:109,1,50,0|0,0:0|0:0,0:0:0:0:
218,98,33361,6,0,P|177:133|156:192,1,100,2|0,0:0|0:0,0:0:0:0:
174,291,33770,1,0,0:0:0:0:
174,291,33906,2,0,P|135:262|66:267,1,100,0|8,0:0|0:0,0:0:0:0:
250,358,34452,2,0,L|299:354,1,50,0|0,0:0|0:0,0:0:0:0:
326,251,34724,2,0,L|277:255,1,50,0|0,0:0|0:0,0:0:0:0:
195,182,34997,6,0,P|169:131|183:69,1,100,2|0,0:0|0:0,0:0:0:0:
322,52,35406,1,0,0:0:0:0:
322,52,35543,2,0,P|290:100|230:118,1,100,0|8,0:0|0:0,0:0:0:0:
43,69,36088,2,0,L|-12:103,1,50,0|0,0:0|0:0,0:0:0:0:
10,216,36361,2,0,L|56:187,1,50,0|0,0:0|0:0,0:0:0:0:
188,194,36634,6,0,P|157:237|159:289,1,100,2|0,0:0|0:0,0:0:0:0:
233,346,37043,1,0,0:0:0:0:
233,346,37179,2,0,P|258:345|283:357,1,50
411,342,37452,2,0,P|396:289|350:246,1,100,8|0,0:0|0:0,0:0:0:0:
325,111,37997,1,0,0:0:0:0:
469,151,38270,5,2,0:0:0:0:
294,199,38543,2,0,L|247:167,1,50,0|0,0:0|0:0,0:0:0:0:
200,236,38815,2,0,L|143:199,1,50,0|0,0:0|0:0,0:0:0:0:
74,239,39088,2,0,P|37:273|27:339,2,100,8|0|0,0:0|0:0|0:0,0:0:0:0:
260,344,39906,6,0,B|300:353|300:353|405:353,1,119.999996337891,12|0,0:0|0:0,0:0:0:0:
454,206,40315,2,0,B|414:197|414:197|309:197,1,119.999996337891,12|0,0:0|0:0,0:0:0:0:
205,170,40724,2,0,B|210:148|210:148|252:98,1,59.9999981689454,12|0,0:0|0:0,0:0:0:0:
377,30,40997,2,0,B|372:52|372:52|330:102,1,59.9999981689454,12|0,0:0|0:0,0:0:0:0:
205,24,41270,1,0,0:0:0:0:
205,24,41543,6,0,L|114:43,1,75.0000028610231,2|0,0:0|0:0,0:0:0:0:
47,114,42088,2,0,P|77:141|135:153,1,75.0000028610231,0|2,0:0|0:0,0:0:0:0:
219,177,42634,1,0,0:0:0:0:
193,286,42906,1,2,0:0:0:0:
79,262,43179,6,0,B|40:251|40:251|76:357,1,119.999996337891,12|0,0:0|0:0,0:0:0:0:
209,359,43588,2,0,B|248:370|248:370|212:264,1,119.999996337891,12|0,0:0|0:0,0:0:0:0:
259,159,43997,2,0,B|269:138|269:138|329:98,1,59.9999981689454,12|0,0:0|0:0,0:0:0:0:
430,208,44270,2,0,B|420:229|420:229|360:269,1,59.9999981689454,12|0,0:0|0:0,0:0:0:0:
256,278,44543,1,0,0:0:0:0:
256,278,44815,6,0,P|219:256|163:253,1,75.0000028610231,2|0,0:0|0:0,0:0:0:0:
133,151,45361,2,0,L|213:141,1,75.0000028610231,0|2,0:0|0:0,0:0:0:0:
318,124,45906,1,0,0:0:0:0:
245,37,46179,2,0,L|172:45,1,37.5000014305115,2|0,0:0|0:0,0:0:0:0:
90,157,46452,5,12,0:0:0:0:
90,157,46724,2,0,L|100:261,1,100,2|0,0:0|0:0,0:0:0:0:
243,300,47270,2,0,L|232:192,2,100,2|0|0,0:0|0:0|0:0,0:0:0:0:
390,330,48088,5,10,0:0:0:0:
440,191,48361,2,0,P|392:179|343:187,1,100,2|0,0:0|0:0,0:0:0:0:
278,51,48906,2,0,L|396:42,2,100,2|0|0,0:0|0:0|0:0,0:0:0:0:
166,151,49724,6,0,P|172:200|139:254,1,100,10|0,0:0|0:0,0:0:0:0:
85,185,50134,1,0,0:0:0:0:
85,185,50270,1,0,0:0:0:0:
138,44,50543,2,0,L|256:65,1,100,2|0,0:0|0:0,0:0:0:0:
322,76,50952,1,0,0:0:0:0:
322,76,51088,1,0,0:0:0:0:
216,182,51361,6,0,P|221:233|252:276,1,100,10|0,0:0|0:0,0:0:0:0:
390,319,51906,1,0,0:0:0:0:
453,183,52179,2,0,L|456:47,1,100,2|0,0:0|0:0,0:0:0:0:
310,30,52724,2,0,P|339:46|377:48,1,50,0|0,0:0|0:0,0:0:0:0:
223,21,52997,6,0,P|232:71|294:115,1,100,2|0,0:0|0:0,0:0:0:0:
416,103,53543,1,0,0:0:0:0:
342,233,53815,2,0,P|298:253|245:256,1,100,2|0,0:0|0:0,0:0:0:0:
140,148,54361,2,0,P|113:150|90:156,1,50
0,258,54634,5,6,0:0:0:0:
0,258,54770,1,0,0:0:0:0:
0,258,54906,1,2,0:0:0:0:
140,288,55179,1,2,0:0:0:0:
100,67,55452,1,0,0:0:0:0:
100,67,56815,5,2,0:0:0:0:
239,123,57088,1,2,0:0:0:0:
93,160,57361,1,2,0:0:0:0:
189,45,57634,1,2,0:0:0:0:
179,194,57906,6,0,P|224:215|282:205,1,100,6|0,0:0|0:0,0:0:0:0:
401,151,58315,1,2,0:0:0:0:
297,69,58452,2,0,L|306:151,1,50
369,288,58724,1,10,0:0:0:0:
369,288,58997,2,0,P|377:246|369:220,1,50,2|0,0:0|0:0,0:0:0:0:
251,278,59270,2,0,P|242:319|251:346,1,50,2|0,0:0|0:0,0:0:0:0:
224,172,59543,6,0,P|200:179|178:195,1,50,6|0,0:0|0:0,0:0:0:0:
86,320,59815,2,0,P|110:313|132:297,1,50,0|2,0:0|0:0,0:0:0:0:
96,113,60088,2,0,P|69:154|62:204,1,100,0|10,0:0|0:0,0:0:0:0:
204,280,60497,1,0,0:0:0:0:
244,141,60634,2,0,L|290:117,1,50,2|0,0:0|0:0,0:0:0:0:
399,186,60906,2,0,L|353:210,1,50,2|0,0:0|0:0,0:0:0:0:
391,77,61179,6,0,L|453:84,1,50,6|0,0:0|0:0,0:0:0:0:
505,239,61452,2,0,L|478:198,1,50,0|2,0:0|0:0,0:0:0:0:
318,313,61724,2,0,P|368:321|413:302,1,100,0|10,0:0|0:0,0:0:0:0:
399,186,62134,1,0,0:0:0:0:
261,240,62270,2,0,P|239:262|226:292,1,50,2|0,0:0|0:0,0:0:0:0:
113,184,62543,2,0,L|100:101,1,50,2|0,0:0|0:0,0:0:0:0:
0,292,62815,6,0,P|48:288|99:318,1,100,6|0,0:0|0:0,0:0:0:0:
230,327,63224,1,2,0:0:0:0:
193,190,63361,2,0,L|232:159,1,50,0|0,0:0|0:0,0:0:0:0:
391,85,63634,2,0,P|388:135|361:175,1,100,14|2,0:0|0:0,0:0:0:0:
288,227,64043,1,0,0:0:0:0:
232,158,64179,1,2,0:0:0:0:
303,107,64315,1,0,0:0:0:0:
372,264,64452,6,0,P|354:294|315:311,1,50,6|0,0:0|0:0,0:0:0:0:
194,295,64724,2,0,P|192:259|207:226,1,50,0|2,0:0|0:0,0:0:0:0:
56,158,64997,2,0,P|39:187|35:213,1,50
103,315,65270,2,0,P|80:289|47:273,1,50,10|0,0:0|0:0,0:0:0:0:
138,166,65543,2,0,P|130:193|116:215,1,50,2|0,0:0|0:0,0:0:0:0:
1,97,65815,2,0,P|22:83|66:75,1,50,2|0,0:0|0:0,0:0:0:0:
262,140,66088,6,0,P|330:149|375:120,1,100,6|0,0:0|0:0,0:0:0:0:
448,36,66497,1,2,0:0:0:0:
307,15,66634,2,0,L|307:65,1,50,0|0,0:0|0:0,0:0:0:0:
420,200,66906,2,0,P|436:177|446:135,1,50,10|0,0:0|0:0,0:0:0:0:
311,233,67179,2,0,P|279:232|259:227,1,50,2|0,0:0|0:0,0:0:0:0:
164,133,67452,2,0,P|135:134|104:145,1,50,2|0,0:0|0:0,0:0:0:0:
141,322,67724,6,0,P|159:276|153:227,1,100,6|0,0:0|0:0,0:0:0:0:
20,168,68134,1,2,0:0:0:0:
17,299,68270,2,0,L|54:331,1,50
244,303,68543,2,0,B|262:293|262:293|248:391,1,100,14|2,0:0|0:0,0:0:0:0:
141,323,68952,1,0,0:0:0:0:
252,216,69088,2,0,P|285:218|325:243,1,50,2|0,0:0|0:0,0:0:0:0:
439,314,69361,6,0,L|439:203,1,100,6|0,0:0|0:0,0:0:0:0:
328,119,69770,1,2,0:0:0:0:
178,179,69906,2,0,P|170:205|173:241,1,50,0|0,0:0|0:0,0:0:0:0:
236,344,70179,2,0,P|244:318|241:282,1,50,10|0,0:0|0:0,0:0:0:0:
70,203,70452,2,0,P|62:229|65:265,1,50,2|0,0:0|0:0,0:0:0:0:
119,370,70724,2,0,P|127:344|124:308,1,50,6|0,0:0|0:0,0:0:0:0:
107,117,70997,6,0,P|46:113|-6:147,1,100,6|0,0:0|0:0,0:0:0:0:
62,251,71406,1,2,0:0:0:0:
201,145,71543,2,0,L|269:123,1,50,0|0,0:0|0:0,0:0:0:0:
356,260,71815,1,10,0:0:0:0:
356,260,72088,2,0,P|320:242|305:222,1,50,2|0,0:0|0:0,0:0:0:0:
411,141,72361,2,0,P|446:158|462:179,1,50,2|0,0:0|0:0,0:0:0:0:
304,154,72634,6,0,P|279:162|260:175,1,50,6|0,0:0|0:0,0:0:0:0:
191,271,72906,2,0,P|216:263|235:250,1,50,0|2,0:0|0:0,0:0:0:0:
241,97,73179,2,0,L|126:110,1,100,0|10,0:0|0:0,0:0:0:0:
0,71,73588,1,0,0:0:0:0:
155,30,73724,2,0,L|221:24,1,50,2|0,0:0|0:0,0:0:0:0:
221,175,73997,2,0,L|156:182,1,50,2|0,0:0|0:0,0:0:0:0:
22,200,74270,6,0,P|15:224|18:252,1,50,6|0,0:0|0:0,0:0:0:0:
145,261,74543,2,0,P|127:242|101:231,1,50,0|2,0:0|0:0,0:0:0:0:
31,333,74815,2,0,P|55:327|78:310,1,50
171,180,75088,2,0,L|298:166,1,100,14|2,0:0|0:0,0:0:0:0:
393,223,75497,1,0,0:0:0:0:
314,318,75634,2,0,P|286:285|280:265,1,50,2|0,0:0|0:0,0:0:0:0:
396,140,75906,6,0,P|439:154|474:206,1,100,6|0,0:0|0:0,0:0:0:0:
302,241,76315,1,2,0:0:0:0:
239,102,76452,2,0,L|173:108,1,50
51,206,76724,2,0,P|100:201|137:168,1,100,10|2,0:0|0:0,0:0:0:0:
129,32,77134,1,0,0:0:0:0:
15,107,77270,2,0,L|65:116,1,50,6|0,0:0|0:0,0:0:0:0:
224,137,77543,6,0,P|285:125|329:103,1,100,6|0,0:0|0:0,0:0:0:0:
447,30,77952,1,2,0:0:0:0:
448,182,78088,2,0,L|427:237,1,50,0|0,0:0|0:0,0:0:0:0:
269,216,78361,2,0,P|289:206|316:204,1,50,10|0,0:0|0:0,0:0:0:0:
203,321,78634,2,0,P|184:307|168:284,1,50,2|0,0:0|0:0,0:0:0:0:
330,325,78906,2,0,P|327:347|315:372,1,50,2|0,0:0|0:0,0:0:0:0:
116,354,79179,6,0,L|66:358,1,50,6|0,0:0|0:0,0:0:0:0:
31,231,79452,2,0,L|94:259,1,50,0|2,0:0|0:0,0:0:0:0:
140,130,79724,2,0,L|81:136,1,50,0|0,0:0|0:0,0:0:0:0:
36,32,79997,1,10,0:0:0:0:
36,32,80270,2,0,P|66:31|108:11,1,50,2|0,0:0|0:0,0:0:0:0:
213,34,80543,1,2,0:0:0:0:
140,130,80679,1,0,0:0:0:0:
310,69,80815,6,0,P|366:76|412:112,1,100,6|0,0:0|0:0,0:0:0:0:
431,229,81224,1,2,0:0:0:0:
281,205,81361,2,0,P|254:206|223:226,1,50,4|0,0:0|0:0,0:0:0:0:
340,357,81634,2,0,B|350:238,1,100,14|2,0:0|0:0,0:0:0:0:
231,130,82043,1,0,0:0:0:0:
155,277,82179,2,0,P|176:296|225:318,1,50,6|0,0:0|0:0,0:0:0:0:
309,175,82452,6,0,P|357:166|408:188,1,100,6|0,0:0|0:0,0:0:0:0:
454,295,82861,1,2,0:0:0:0:
508,140,82997,2,0,L|494:92,1,50
360,92,83270,2,0,P|388:86|410:73,1,50,10|0,0:0|0:0,0:0:0:0:
273,34,83543,2,0,L|255:80,1,50,2|0,0:0|0:0,0:0:0:0:
210,205,83815,2,0,L|230:151,1,50,2|0,0:0|0:0,0:0:0:0:
122,137,84088,5,6,0:0:0:0:
122,137,84224,1,0,0:0:0:0:
134,279,84361,2,0,P|155:295|185:310,1,50,0|2,0:0|0:0,0:0:0:0:
49,253,84634,2,0,P|40:278|34:311,1,50,0|0,0:0|0:0,0:0:0:0:
49,169,84906,2,0,P|22:168|-11:173,1,50,10|0,0:0|0:0,0:0:0:0:
122,137,85179,2,0,P|114:111|99:81,1,50,2|0,0:0|0:0,0:0:0:0:
175,196,85452,2,0,P|197:180|221:157,1,50,2|0,0:0|0:0,0:0:0:0:
134,279,85724,6,0,P|185:289|239:264,1,100,6|0,0:0|0:0,0:0:0:0:
394,199,86134,2,0,P|343:189|289:214,1,100,2|0,0:0|0:0,0:0:0:0:
288,347,86543,2,0,P|304:328|314:305,1,50,10|0,0:0|0:0,0:0:0:0:
231,141,86815,2,0,P|215:161|208:185,1,50,2|0,0:0|0:0,0:0:0:0:
198,356,87088,1,2,0:0:0:0:
198,356,87361,6,0,L|164:300,1,50,6|0,0:0|0:0,0:0:0:0:
313,305,87634,2,0,L|347:249,1,50,0|2,0:0|0:0,0:0:0:0:
191,235,87906,2,0,L|157:179,1,50,4|0,0:0|0:0,0:0:0:0:
306,184,88179,2,0,L|340:128,1,50,14|0,0:0|0:0,0:0:0:0:
188,113,88452,2,0,L|154:57,1,50,2|0,0:0|0:0,0:0:0:0:
303,62,88724,2,0,L|337:6,1,50,6|0,0:0|0:0,0:0:0:0:
141,33,88997,5,6,0:0:0:0:
