osu file format v14

[General]
AudioFilename: audio.mp3
AudioLeadIn: 0
PreviewTime: 56543
Countdown: 0
SampleSet: Soft
StackLeniency: 0.7
Mode: 0
LetterboxInBreaks: 0
WidescreenStoryboard: 1

[Editor]
Bookmarks: 7179
DistanceSpacing: 1
BeatDivisor: 1
GridSize: 4
TimelineZoom: 1

[Metadata]
Title:Katayoku no Tori
TitleUnicode:片翼の鳥
Artist:Shikata Akiko
ArtistUnicode:志方あきこ
Creator:Rakuen
Version:Hard
Source:うみねこのなく頃に
Tags:Umineko no Naku Koro ni walaowey [_-Scarlet-_] opening op tv size
BeatmapID:1345364
BeatmapSetID:536657

[Difficulty]
HPDrainRate:5
CircleSize:4
OverallDifficulty:6
ApproachRate:7
SliderMultiplier:0.9
SliderTickRate:1

[Events]
//Background and Video events
0,0,"600306.jpg",0,0
Video,0,"umineko op.mp4"
//Break Periods
//Storyboard Layer 0 (Background)
//Storyboard Layer 1 (Fail)
//Storyboard Layer 2 (Pass)
//Storyboard Layer 3 (Foreground)
//Storyboard Sound Samples

[TimingPoints]
634,272.727272727273,6,2,1,60,1,0
634,-83.3333333333333,6,2,1,60,0,0
13724,-100,6,2,2,40,0,0
39906,-83.3333333333333,6,2,1,60,0,0
41270,-100,6,2,1,30,0,0
43179,-83.3333333333333,6,2,1,60,0,0
44543,-100,6,2,1,30,0,0
46452,-100,6,2,1,40,0,0
52997,-100,6,2,1,30,0,0
54634,-100,6,2,1,50,0,0
54906,-100,6,2,1,30,0,0
55179,-100,6,2,1,15,0,0
55452,-100,6,2,1,5,0,0
56815,-100,6,2,1,25,0,0
57906,-83.3333333333333,6,2,3,60,0,1
88997,-83.3333333333333,6,2,3,60,0,0

[Colours]
Combo1 : 128,0,0
Combo2 : 255,0,0
Combo3 : 255,128,0
Combo4 : 255,255,0

[HitObjects]
256,252,634,6,0,P|272:308|256:356,1,107.999996704102,14|0,0:0|0:0,0:0:0:0:
184,304,1043,2,0,L|72:300,1,107.999996704102,2|0,0:0|0:0,0:0:0:0:
40,220,1452,2,0,L|52:164,1,53.9999983520508,10|0,0:0|0:0,0:0:0:0:
124,120,1724,2,0,L|135:172,1,53.9999983520508,2|0,0:0|0:0,0:0:0:0:
212,132,1997,2,0,L|223:79,1,53.9999983520508,2|0,0:0|0:0,0:0:0:0:
288,24,2270,6,0,P|321:66|347:113,1,107.999996704102,10|0,0:0|0:0,0:0:0:0:
432,100,2679,2,0,P|425:153|410:205,1,107.999996704102,2|0,0:0|0:0,0:0:0:0:
420,292,3088,2,0,L|360:284,1,53.9999983520508,10|0,0:0|0:0,0:0:0:0:
308,220,3361,2,0,L|248:228,1,53.9999983520508,2|0,0:0|0:0,0:0:0:0:
232,312,3634,2,0,L|172:304,1,53.9999983520508,2|0,0:0|0:0,0:0:0:0:
92,308,3906,6,0,P|104:256|140:188,1,107.999996704102,14|0,0:0|0:0,0:0:0:0:
80,132,4315,2,0,P|125:103|198:81,1,107.999996704102,2|0,0:0|0:0,0:0:0:0:
260,116,4724,2,0,P|256:152|256:192,1,53.9999983520508,10|0,0:0|0:0,0:0:0:0:
240,256,4997,2,0,L|304:252,1,53.9999983520508,2|0,0:0|0:0,0:0:0:0:
316,336,5270,2,0,L|380:340,1,53.9999983520508,2|0,0:0|0:0,0:0:0:0:
404,260,5543,6,0,P|429:251|455:245,1,53.9999983520508,10|0,0:0|0:0,0:0:0:0:
492,168,5815,2,0,P|466:159|440:153,1,53.9999983520508,2|0,0:0|0:0,0:0:0:0:
412,72,6088,1,2,0:0:0:0:
240,80,6361,1,10,0:0:0:0:
260,164,6497,1,0,0:0:0:0:
258,251,6634,2,0,P|255:277|248:304,1,53.9999983520508,2|0,0:0|0:0,0:0:0:0:
172,244,6906,2,0,P|159:220|142:198,1,53.9999983520508,2|0,0:0|0:0,0:0:0:0:
76,144,7179,6,0,B|109:61|109:61|122:76,1,107.999996704102,14|0,0:0|0:0,0:0:0:0:
191,131,7588,2,0,P|244:144|296:131,1,107.999996704102,2|0,0:0|0:0,0:0:0:0:
356,68,7997,2,0,L|412:72,1,53.9999983520508,10|0,0:0|0:0,0:0:0:0:
432,156,8270,2,0,L|378:152,1,53.9999983520508,2|0,0:0|0:0,0:0:0:0:
340,232,8543,2,0,L|393:235,1,53.9999983520508,2|0,0:0|0:0,0:0:0:0:
428,316,8815,6,0,B|440:332|440:332|336:324,1,107.999996704102,10|0,0:0|0:0,0:0:0:0:
272,292,9224,2,0,P|221:311|174:337,1,107.999996704102,2|0,0:0|0:0,0:0:0:0:
88,344,9634,2,0,P|93:317|103:292,1,53.9999983520508,10|0,0:0|0:0,0:0:0:0:
56,220,9906,2,0,P|78:205|103:194,1,53.9999983520508,2|0,0:0|0:0,0:0:0:0:
121,109,10179,2,0,P|147:114|172:124,1,53.9999983520508,2|0,0:0|0:0,0:0:0:0:
220,196,10452,6,0,L|348:188,1,107.999996704102,14|0,0:0|0:0,0:0:0:0:
356,108,10861,2,0,P|304:88|244:48,1,107.999996704102,2|0,0:0|0:0,0:0:0:0:
176,32,11270,2,0,L|116:28,1,53.9999983520508,10|0,0:0|0:0,0:0:0:0:
48,83,11543,2,0,P|36:108|32:135,1,53.9999983520508,2|0,0:0|0:0,0:0:0:0:
92,196,11815,2,0,P|80:220|76:247,1,53.9999983520508,2|0,0:0|0:0,0:0:0:0:
140,308,12088,6,0,L|208:300,1,53.9999983520508,10|0,0:0|0:0,0:0:0:0:
220,220,12361,2,0,L|288:228,1,53.9999983520508,2|0,0:0|0:0,0:0:0:0:
322,299,12634,1,2,0:0:0:0:
440,172,12906,1,10,0:0:0:0:
392,100,13043,1,0,0:0:0:0:
340,32,13179,2,0,L|276:36,1,53.9999983520508,2|0,0:0|0:0,0:0:0:0:
248,112,13452,2,0,L|184:116,1,53.9999983520508,2|0,0:0|0:0,0:0:0:0:
124,64,13724,5,2,0:0:0:0:
64,196,13997,2,0,L|153:192,1,90
172,336,14543,1,8,0:0:0:0:
296,264,14815,1,0,0:0:0:0:
432,312,15088,1,0,0:0:0:0:
432,312,15224,1,0,0:0:0:0:
432,312,15361,6,0,P|438:267|455:225,1,90,2|0,0:0|0:0,0:0:0:0:
488,160,15770,2,0,P|485:137|479:116,1,45
368,24,16179,2,0,L|308:28,2,45,8|0|0,0:0|0:0|0:0,0:0:0:0:
340,164,16724,1,0,0:0:0:0:
340,164,16861,1,0,0:0:0:0:
340,164,16997,6,0,P|295:164|250:159,1,90,2|0,0:0|0:0,0:0:0:0:
180,184,17406,2,0,P|168:203|158:223,1,45
180,364,17815,1,8,0:0:0:0:
292,272,18088,1,0,0:0:0:0:
260,132,18361,1,0,0:0:0:0:
260,132,18497,1,0,0:0:0:0:
260,132,18634,6,0,L|156:128,1,90,2|0,0:0|0:0,0:0:0:0:
216,264,19179,1,0,0:0:0:0:
72,292,19452,2,0,L|24:284,2,45,8|0|0,0:0|0:0|0:0,0:0:0:0:
92,148,19997,1,0,0:0:0:0:
92,148,20134,1,0,0:0:0:0:
92,148,20270,6,0,P|128:120|184:92,1,90,2|0,0:0|0:0,0:0:0:0:
200,32,20679,2,0,L|256:28,1,45
368,104,21088,2,0,L|457:97,1,90,8|0,0:0|0:0,0:0:0:0:
460,244,21634,1,0,0:0:0:0:
368,356,21906,6,0,P|323:354|278:346,1,90,2|0,0:0|0:0,0:0:0:0:
216,312,22315,2,0,P|194:319|172:323,1,45
40,268,22724,1,8,0:0:0:0:
152,180,22997,1,0,0:0:0:0:
280,244,23270,1,0,0:0:0:0:
280,244,23406,1,0,0:0:0:0:
280,244,23543,6,0,L|388:236,1,90,2|0,0:0|0:0,0:0:0:0:
480,144,24088,1,0,0:0:0:0:
396,28,24361,1,8,0:0:0:0:
254,51,24634,2,0,P|248:95|255:139,1,90
256,284,25179,5,2,0:0:0:0:
380,212,25452,1,0,0:0:0:0:
380,212,25588,1,0,0:0:0:0:
380,212,25724,1,0,0:0:0:0:
256,140,25997,1,6,0:0:0:0:
256,284,26270,1,4,0:0:0:0:
120,232,26543,1,4,0:0:0:0:
120,232,26679,1,4,0:0:0:0:
120,232,26815,6,0,P|111:188|123:144,1,90,2|0,0:0|0:0,0:0:0:0:
256,88,27361,1,0,0:0:0:0:
388,144,27634,2,0,P|399:187|392:231,2,90,8|0|0,0:0|0:0|0:0,0:0:0:0:
256,200,28452,6,0,L|244:308,1,90,2|0,0:0|0:0,0:0:0:0:
176,312,28861,2,0,L|172:267,1,45
100,144,29270,2,0,P|143:132|184:114,1,90,8|0,0:0|0:0,0:0:0:0:
327,114,29815,1,0,0:0:0:0:
327,114,29952,1,0,0:0:0:0:
327,114,30088,6,0,P|368:132|412:144,1,90,2|0,0:0|0:0,0:0:0:0:
416,216,30497,2,0,L|352:220,1,45
296,344,30906,2,0,L|188:336,2,90,8|0|0,0:0|0:0|0:0,0:0:0:0:
370,218,31724,6,0,P|380:174|371:130,1,90,2|0,0:0|0:0,0:0:0:0:
256,44,32270,1,0,0:0:0:0:
140,130,32543,2,0,P|131:174|141:218,1,90,8|0,0:0|0:0,0:0:0:0:
256,304,33088,1,0,0:0:0:0:
256,304,33224,1,0,0:0:0:0:
256,304,33361,6,0,L|356:300,1,90,2|0,0:0|0:0,0:0:0:0:
396,352,33770,2,0,P|416:340|440:328,1,45
420,184,34179,2,0,L|330:180,1,90,8|0,0:0|0:0,0:0:0:0:
256,304,34724,1,0,0:0:0:0:
181,180,34997,6,0,L|91:183,1,90,2|0,0:0|0:0,0:0:0:0:
80,112,35406,2,0,P|96:97|115:84,1,45
256,48,35815,1,8,0:0:0:0:
372,136,36088,1,0,0:0:0:0:
448,12,36361,1,0,0:0:0:0:
448,12,36497,1,0,0:0:0:0:
448,12,36634,6,0,P|404:16|352:8,1,90,2|0,0:0|0:0,0:0:0:0:
256,112,37179,1,0,0:0:0:0:
153,9,37452,2,0,P|108:15|64:12,1,90,8|0,0:0|0:0,0:0:0:0:
124,144,37997,1,0,0:0:0:0:
124,144,38270,6,0,L|144:252,1,90,2|0,0:0|0:0,0:0:0:0:
256,320,38815,1,0,0:0:0:0:
371,232,39088,2,0,L|388:144,1,90,8|0,0:0|0:0,0:0:0:0:
304,24,39634,1,0,0:0:0:0:
304,24,39770,1,0,0:0:0:0:
304,24,39906,6,0,P|250:15|197:23,1,107.999996704102,12|0,0:0|0:0,0:0:0:0:
236,100,40315,2,0,P|227:153|235:206,1,107.999996704102,12|0,0:0|0:0,0:0:0:0:
256,292,40724,2,0,L|192:288,1,53.9999983520508,12|0,0:0|0:0,0:0:0:0:
152,220,40997,2,0,L|32:228,1,107.999996704102,12|0,0:0|0:0,0:0:0:0:
28,84,41543,5,2,0:0:0:0:
112,112,41815,1,0,0:0:0:0:
175,48,42088,1,0,0:0:0:0:
239,112,42361,1,2,0:0:0:0:
175,175,42634,1,2,0:0:0:0:
108,236,42906,1,2,0:0:0:0:
112,112,43179,6,0,P|164:99|218:95,1,107.999996704102,12|0,0:0|0:0,0:0:0:0:
248,16,43588,2,0,P|293:44|334:79,1,107.999996704102,12|0,0:0|0:0,0:0:0:0:
284,148,43997,2,0,L|296:232,1,53.9999983520508,12|0,0:0|0:0,0:0:0:0:
372,236,44270,2,0,L|356:352,1,107.999996704102,12|0,0:0|0:0,0:0:0:0:
232,272,44815,5,2,0:0:0:0:
180,200,45088,1,0,0:0:0:0:
220,120,45361,1,0,0:0:0:0:
288,180,45634,1,2,0:0:0:0:
376,156,45906,1,2,0:0:0:0:
452,201,46179,1,2,0:0:0:0:
414,62,46452,6,0,L|304:68,2,90,12|2|0,0:0|0:0|0:0,0:0:0:0:
452,201,47270,1,10,0:0:0:0:
308,184,47543,1,0,0:0:0:0:
216,296,47815,1,0,0:0:0:0:
72,316,48088,6,0,P|76:264|100:208,2,90,10|2|0,0:0|0:0|0:0,0:0:0:0:
216,296,48906,1,10,0:0:0:0:
212,152,49179,1,0,0:0:0:0:
88,228,49452,1,0,0:0:0:0:
84,84,49724,6,0,L|180:76,1,90,10|0,0:0|0:0,0:0:0:0:
220,20,50134,2,0,L|272:24,1,45
280,168,50543,2,0,L|376:176,1,90,2|0,0:0|0:0,0:0:0:0:
416,232,50952,2,0,L|468:228,1,45
504,92,51361,6,0,P|462:75|418:64,1,90,10|0,0:0|0:0,0:0:0:0:
292,132,51906,1,0,0:0:0:0:
168,204,52179,2,0,P|124:193|82:176,2,90,2|0|0,0:0|0:0|0:0,0:0:0:0:
264,312,52997,6,0,L|360:308,2,90,2|0|0,0:0|0:0|0:0,0:0:0:0:
308,176,53815,2,0,L|404:172,2,90,2|0|0,0:0|0:0|0:0,0:0:0:0:
184,248,54634,5,6,0:0:0:0:
112,123,54906,1,2,0:0:0:0:
236,51,55179,1,2,0:0:0:0:
308,176,55452,1,2,0:0:0:0:
404,320,56815,6,0,P|363:340|320:351,1,90,2|2,0:0|0:0,0:0:0:0:
224,244,57361,2,0,P|181:229|142:207,1,90,2|2,0:0|0:0,0:0:0:0:
56,56,57906,6,0,L|176:52,1,107.999996704102,6|0,0:0|0:0,0:0:0:0:
220,120,58315,1,2,0:0:0:0:
284,180,58452,2,0,L|404:176,1,107.999996704102,0|10,0:0|0:0,0:0:0:0:
440,344,58997,2,0,P|414:336|389:324,1,53.9999983520508,2|0,0:0|0:0,0:0:0:0:
320,276,59270,2,0,P|296:288|270:297,1,53.9999983520508,2|0,0:0|0:0,0:0:0:0:
200,348,59543,6,0,P|183:297|199:246,1,107.999996704102,6|0,0:0|0:0,0:0:0:0:
140,184,59952,1,2,0:0:0:0:
88,116,60088,2,0,P|138:99|189:115,1,107.999996704102,0|8,0:0|0:0,0:0:0:0:
364,112,60634,2,0,P|391:113|418:110,1,53.9999983520508,2|0,0:0|0:0,0:0:0:0:
452,188,60906,2,0,P|455:214|454:241,1,53.9999983520508,2|0,0:0|0:0,0:0:0:0:
420,320,61179,6,0,L|292:308,1,107.999996704102,6|0,0:0|0:0,0:0:0:0:
256,244,61588,1,2,0:0:0:0:
199,309,61724,2,0,L|92:320,2,107.999996704102,0|10|2,0:0|0:0|0:0,0:0:0:0:
212,136,62543,1,2,0:0:0:0:
212,136,62679,1,0,0:0:0:0:
212,136,62815,6,0,P|209:48|285:92,1,215.999993408203,6|0,0:0|0:0,0:0:0:0:
356,252,63634,2,0,P|359:340|283:296,1,215.999993408203,14|2,0:0|0:0,0:0:0:0:
116,327,64452,6,0,P|111:274|116:220,1,107.999996704102,6|0,0:0|0:0,0:0:0:0:
116,220,64861,1,2,0:0:0:0:
116,220,64997,1,0,0:0:0:0:
36,64,65270,2,0,P|60:52|85:43,1,53.9999983520508,10|0,0:0|0:0,0:0:0:0:
124,120,65543,2,0,P|149:128|173:140,1,53.9999983520508,2|0,0:0|0:0,0:0:0:0:
256,124,65815,2,0,P|267:148|276:173,1,53.9999983520508,2|0,0:0|0:0,0:0:0:0:
268,260,66088,6,0,L|148:252,1,107.999996704102,6|0,0:0|0:0,0:0:0:0:
160,252,66497,1,2,0:0:0:0:
160,252,66634,1,0,0:0:0:0:
116,84,66906,2,0,P|138:68|162:56,1,53.9999983520508,10|0,0:0|0:0,0:0:0:0:
220,120,67179,2,0,P|246:125|272:133,1,53.9999983520508,2|0,0:0|0:0,0:0:0:0:
267,217,67452,2,0,P|283:240|295:264,1,53.9999983520508,2|0,0:0|0:0,0:0:0:0:
368,308,67724,6,0,B|386:238|386:238|437:185|437:185|460:100,1,215.999993408203,6|0,0:0|0:0,0:0:0:0:
312,20,68543,2,0,B|293:89|293:89|242:142|242:142|219:227,1,215.999993408203,14|2,0:0|0:0,0:0:0:0:
120,72,69361,5,6,0:0:0:0:
32,220,69634,1,0,0:0:0:0:
32,220,69770,1,2,0:0:0:0:
32,220,69906,2,0,L|85:216,1,53.9999983520508
128,292,70179,2,0,L|181:288,1,53.9999983520508,10|0,0:0|0:0,0:0:0:0:
244,348,70452,2,0,P|262:328|283:312,1,53.9999983520508,2|0,0:0|0:0,0:0:0:0:
360,352,70724,2,0,P|386:350|413:354,1,53.9999983520508,6|0,0:0|0:0,0:0:0:0:
476,292,70997,6,0,L|492:172,1,107.999996704102,6|0,0:0|0:0,0:0:0:0:
420,132,71406,1,2,0:0:0:0:
340,164,71543,2,0,L|324:44,1,107.999996704102,0|10,0:0|0:0,0:0:0:0:
156,32,72088,2,0,P|142:55|131:80,1,53.9999983520508,2|0,0:0|0:0,0:0:0:0:
60,128,72361,2,0,P|66:154|76:179,1,53.9999983520508,2|0,0:0|0:0,0:0:0:0:
84,264,72634,6,0,P|136:253|190:248,1,107.999996704102,6|0,0:0|0:0,0:0:0:0:
256,308,73043,1,2,0:0:0:0:
321,248,73179,2,0,P|375:253|428:264,1,107.999996704102,0|10,0:0|0:0,0:0:0:0:
488,100,73724,2,0,L|476:32,1,53.9999983520508,2|0,0:0|0:0,0:0:0:0:
396,72,73997,2,0,L|386:125,1,53.9999983520508,2|0,0:0|0:0,0:0:0:0:
304,152,74270,6,0,P|250:156|197:145,1,107.999996704102,6|0,0:0|0:0,0:0:0:0:
132,88,74679,1,2,0:0:0:0:
48,104,74815,2,0,P|37:156|41:210,2,107.999996704102,0|14|2,0:0|0:0|0:0,0:0:0:0:
212,48,75634,1,2,0:0:0:0:
212,48,75770,1,0,0:0:0:0:
212,48,75906,6,0,B|369:20|369:20|327:56,1,215.999993408203,6|0,0:0|0:0,0:0:0:0:
208,184,76724,2,0,B|165:220|165:220|323:192,1,215.999993408203,10|6,0:0|0:0,0:0:0:0:
348,364,77543,6,0,B|312:348|268:348|268:348|284:328,1,107.999996704102,6|0,0:0|0:0,0:0:0:0:
284,327,77952,1,2,0:0:0:0:
284,327,78088,1,0,0:0:0:0:
108,324,78361,2,0,P|84:311|64:293,1,53.9999983520508,10|0,0:0|0:0,0:0:0:0:
132,240,78634,2,0,P|124:214|122:187,1,53.9999983520508,2|0,0:0|0:0,0:0:0:0:
208,197,78907,2,0,P|220:173|238:153,1,53.9999983520508,2|0,0:0|0:0,0:0:0:0:
316,116,79179,6,0,L|324:188,1,53.9999983520508,6|0,0:0|0:0,0:0:0:0:
396,212,79452,2,0,L|401:158,1,53.9999983520508,0|2,0:0|0:0,0:0:0:0:
476,200,79724,2,0,L|481:253,1,53.9999983520508
451,335,79997,2,0,L|339:327,1,107.999996704102,10|2,0:0|0:0,0:0:0:0:
168,328,80543,1,2,0:0:0:0:
168,328,80679,1,0,0:0:0:0:
168,328,80815,6,0,P|123:232|166:137,1,215.999993408203,6|4,0:0|0:0,0:0:0:0:
345,137,81634,2,0,P|388:232|344:328,1,215.999993408203,14|4,0:0|0:0,0:0:0:0:
168,328,82452,6,0,B|48:320,1,107.999996704102,6|0,0:0|0:0,0:0:0:0:
60,320,82861,1,2,0:0:0:0:
60,320,82997,1,0,0:0:0:0:
44,148,83270,2,0,B|184:56|228:168|129:144,1,215.999993408203,10|2,0:0|0:0,0:0:0:0:
130,144,83952,1,0,0:0:0:0:
130,144,84088,5,6,0:0:0:0:
164,312,84361,2,0,P|217:319|270:314,1,107.999996704102
344,268,84770,1,0,0:0:0:0:
423,300,84906,2,0,P|427:273|426:246,1,53.9999983520508,10|0,0:0|0:0,0:0:0:0:
368,184,85179,2,0,P|364:157|365:130,1,53.9999983520508,2|0,0:0|0:0,0:0:0:0:
424,68,85452,2,0,P|427:41|426:14,1,53.9999983520508,2|0,0:0|0:0,0:0:0:0:
344,36,85724,6,0,L|208:28,1,107.999996704102,6|0,0:0|0:0,0:0:0:0:
200,112,86134,2,0,L|92:118,1,107.999996704102,2|0,0:0|0:0,0:0:0:0:
52,196,86543,2,0,P|77:203|102:214,1,53.9999983520508,10|0,0:0|0:0,0:0:0:0:
188,200,86815,2,0,P|201:223|210:248,1,53.9999983520508,2|0,0:0|0:0,0:0:0:0:
281,298,87087,2,0,P|273:323|262:348,1,53.9999983520508,2|0,0:0|0:0,0:0:0:0:
176,360,87361,5,6,0:0:0:0:
72,224,87634,1,0,0:0:0:0:
220,136,87906,1,4,0:0:0:0:
220,136,88043,1,0,0:0:0:0:
220,136,88179,2,0,L|273:130,1,53.9999983520508,14|0,0:0|0:0,0:0:0:0:
256,216,88452,2,0,L|309:210,1,53.9999983520508,2|0,0:0|0:0,0:0:0:0:
292,296,88724,2,0,L|345:290,1,53.9999983520508,6|0,0:0|0:0,0:0:0:0:
328,376,88997,5,6,0:0:0:0:
