osu file format v14

[General]
AudioFilename: audio.mp3
AudioLeadIn: 0
PreviewTime: 56543
Countdown: 0
SampleSet: Soft
StackLeniency: 0.7
Mode: 0
LetterboxInBreaks: 0
WidescreenStoryboard: 0

[Editor]
DistanceSpacing: 1
BeatDivisor: 4
GridSize: 4
TimelineZoom: 1

[Metadata]
Title:Katayoku no Tori
TitleUnicode:片翼の鳥
Artist:Shikata Akiko
ArtistUnicode:志方あきこ
Creator:Rakuen
Version:Easy
Source:うみねこのなく頃に
Tags:Umineko no Naku Koro ni walaowey [_-Scarlet-_] opening op tv size
BeatmapID:1137370
BeatmapSetID:536657

[Difficulty]
HPDrainRate:1
CircleSize:3
OverallDifficulty:2
ApproachRate:3
SliderMultiplier:0.5
SliderTickRate:1

[Events]
//Background and Video events
0,0,"600306.jpg",0,0
Video,0,"umineko op.mp4"
//Break Periods
//Storyboard Layer 0 (Background)
//Storyboard Layer 1 (Fail)
//Storyboard Layer 2 (Pass)
//Storyboard Layer 3 (Foreground)
//Storyboard Sound Samples

[TimingPoints]
634,272.727272727273,6,2,1,60,1,0
13724,-100,6,2,2,40,0,0
39906,-100,6,2,1,60,0,0
41270,-100,6,2,1,30,0,0
43179,-100,6,2,1,60,0,0
44543,-100,6,2,1,30,0,0
46452,-100,6,2,1,40,0,0
52997,-100,6,2,1,30,0,0
54634,-100,6,2,1,50,0,0
54906,-100,6,2,1,30,0,0
56815,-100,6,2,1,25,0,0
57906,-100,6,2,3,60,0,1
58724,-100,6,2,4,60,0,1
58997,-100,6,2,3,60,0,1
60361,-100,6,2,4,60,0,1
60634,-100,6,2,3,60,0,1
71815,-100,6,2,4,60,0,1
72088,-100,6,2,3,60,0,1
73452,-100,6,2,4,60,0,1
73724,-100,6,2,3,60,0,1
88997,-100,6,2,3,60,0,0

[Colours]
Combo1 : 128,0,0
Combo2 : 255,0,0
Combo3 : 255,128,0
Combo4 : 255,255,0

[HitObjects]
212,316,634,6,0,L|368:312,1,150,14|10,0:0|0:0,0:0:0:0:
420,176,2270,2,0,L|270:179,1,150,10|10,0:0|0:0,0:0:0:0:
136,248,3906,2,0,P|116:180|160:96,1,150,14|10,0:0|0:0,0:0:0:0:
280,44,5543,2,0,P|300:112|256:196,1,150,10|10,0:0|0:0,0:0:0:0:
172,296,7179,6,0,L|84:292,2,75,14|2|10,0:0|0:0|0:0,0:0:0:0:
272,184,8815,2,0,L|360:188,2,75,10|2|10,0:0|0:0|0:0,0:0:0:0:
200,52,10452,2,0,L|112:48,2,75,14|2|10,0:0|0:0|0:0,0:0:0:0:
348,44,12088,2,0,L|340:193,1,150,10|10,0:0|0:0,0:0:0:0:
264,324,13724,6,0,P|192:340|124:310,2,150,6|8|2,0:0|0:0|0:0,0:0:0:0:
208,184,16179,1,8,0:0:0:0:
268,44,16997,2,0,P|330:83|356:152,2,150,2|8|2,0:0|0:0|0:0,0:0:0:0:
120,68,19452,1,8,0:0:0:0:
76,212,20270,6,0,L|236:204,1,150,2|8,0:0|0:0,0:0:0:0:
288,340,21906,2,0,L|448:332,1,150,2|8,0:0|0:0,0:0:0:0:
484,188,23543,2,0,P|423:143|354:114,1,150,2|8,0:0|0:0,0:0:0:0:
232,28,25179,2,0,P|157:39|87:67,1,150,2|6,0:0|0:0,0:0:0:0:
144,208,26815,6,0,L|128:364,2,150,2|8|2,0:0|0:0|0:0,0:0:0:0:
268,124,29270,1,8,0:0:0:0:
292,272,30088,2,0,P|360:244|405:185,1,150,2|8,0:0|0:0,0:0:0:0:
268,124,31724,2,0,P|198:152|154:210,1,150,2|8,0:0|0:0,0:0:0:0:
268,308,33361,6,0,L|436:316,1,150,2|8,0:0|0:0,0:0:0:0:
348,180,34997,2,0,L|198:172,2,150,2|8|2,0:0|0:0|0:0,0:0:0:0:
460,80,37452,1,8,0:0:0:0:
488,228,38270,1,2,0:0:0:0:
348,180,39088,1,8,0:0:0:0:
304,324,39906,6,0,P|228:360|240:276,1,200,12|12,0:0|0:0,0:0:0:0:
320,224,41543,2,0,P|336:160|312:68,1,150,10|0,0:0|0:0,0:0:0:0:
176,128,43179,2,0,P|97:102|158:46,1,200,12|12,0:0|0:0,0:0:0:0:
256,68,44815,2,0,L|428:76,1,150,10|0,0:0|0:0,0:0:0:0:
480,204,46452,6,0,P|411:234|349:276,1,150,12|2,0:0|0:0,0:0:0:0:
220,352,48088,2,0,P|150:324|76:310,1,150,8|2,0:0|0:0,0:0:0:0:
112,164,49724,2,0,P|69:102|39:33,2,150,8|2|8,0:0|0:0|0:0,0:0:0:0:
256,192,52179,1,2,0:0:0:0:
256,192,52997,12,6,54634,0:0:0:0:
324,308,56815,6,0,L|320:208,1,100,0|2,0:0|0:0,0:0:0:0:
403,152,57906,6,0,P|318:109|234:156,1,200,6|2,0:0|0:0,0:0:0:0:
180,72,59543,2,0,P|136:158|183:242,1,200,6|2,0:0|0:0,0:0:0:0:
200,340,61179,2,0,P|273:352|347:340,1,150,6|8,0:0|0:0,0:0:0:0:
428,212,62815,2,0,P|440:138|428:64,1,150,6|14,0:0|0:0,0:0:0:0:
288,120,64452,6,0,L|138:123,2,150,6|10|6,0:0|0:0|0:0,0:0:0:0:
396,224,66906,1,10,0:0:0:0:
284,320,67724,2,0,P|212:340|141:319,2,150,6|14|6,0:0|0:0|0:0,0:0:0:0:
212,188,70179,1,10,0:0:0:0:
312,76,70997,6,0,P|388:67|336:148,1,200,6|2,0:0|0:0,0:0:0:0:
396,244,72634,2,0,P|454:303|374:329,1,200,6|2,0:0|0:0,0:0:0:0:
296,264,74270,2,0,B|244:264|244:264|204:284|204:284|150:284,1,150,6|14,0:0|0:0,0:0:0:0:
108,140,75906,2,0,B|161:140|161:140|201:120|201:120|253:120,1,150,6|10,0:0|0:0,0:0:0:0:
296,264,77543,5,6,0:0:0:0:
424,188,78361,2,0,P|444:116|423:45,2,150,10|6|10,0:0|0:0|0:0,0:0:0:0:
296,264,80815,2,0,P|275:192|296:121,2,150,6|14|6,0:0|0:0|0:0,0:0:0:0:
152,308,83270,1,10,0:0:0:0:
56,192,84088,6,0,B|156:168|156:168|192:132,1,150,6|10,0:0|0:0,0:0:0:0:
308,40,85724,2,0,P|348:40|388:48,2,75,6|2|10,0:0|0:0|0:0,0:0:0:0:
332,188,87361,2,0,L|360:344,2,150,6|14|6,0:0|0:0|0:0,0:0:0:0:
