osu file format v14

[General]
AudioFilename: audio.mp3
AudioLeadIn: 0
PreviewTime: 56543
Countdown: 0
SampleSet: Soft
StackLeniency: 0.2
Mode: 0
LetterboxInBreaks: 0
WidescreenStoryboard: 1

[Editor]
Bookmarks: 7179,64452,70997,77543,84088
DistanceSpacing: 1.5
BeatDivisor: 4
GridSize: 4
TimelineZoom: 1

[Metadata]
Title:Katayoku no Tori
TitleUnicode:片翼の鳥
Artist:Shikata Akiko
ArtistUnicode:志方あきこ
Creator:Rakuen
Version:[ -Scarlet- ]'s Phantasy
Source:うみねこのなく頃に
Tags:Umineko no Naku Koro ni walaowey [_-Scarlet-_] opening op tv size
BeatmapID:1439489
BeatmapSetID:536657

[Difficulty]
HPDrainRate:6
CircleSize:4
OverallDifficulty:9
ApproachRate:9.3
SliderMultiplier:1.2
SliderTickRate:1

[Events]
//Background and Video events
0,0,"600306.jpg",0,0
Video,0,"umineko op.mp4"
//Break Periods
//Storyboard Layer 0 (Background)
//Storyboard Layer 1 (Fail)
//Storyboard Layer 2 (Pass)
//Storyboard Layer 3 (Foreground)
//Storyboard Sound Samples

[TimingPoints]
634,272.727272727273,6,2,1,60,1,0
634,-66.6666666666667,6,2,1,60,0,0
1452,-83.3333333333333,6,2,1,60,0,0
1724,-71.4285714285714,6,2,1,60,0,0
1997,-62.5,6,2,1,60,0,0
2270,-66.6666666666667,6,2,1,60,0,0
3088,-83.3333333333333,6,2,1,60,0,0
3906,-66.6666666666667,6,2,1,60,0,0
4724,-83.3333333333333,6,2,1,60,0,0
4997,-71.4285714285714,6,2,1,60,0,0
5270,-62.5,6,2,1,60,0,0
5543,-83.3333333333333,6,2,1,60,0,0
6361,-71.4285714285714,6,2,1,60,0,0
7179,-66.6666666666667,6,2,1,60,0,0
7997,-83.3333333333333,6,2,1,60,0,0
8270,-71.4285714285714,6,2,1,60,0,0
8543,-62.5,6,2,1,60,0,0
8815,-66.6666666666667,6,2,1,60,0,0
9634,-83.3333333333333,6,2,1,60,0,0
10452,-66.6666666666667,6,2,1,60,0,0
11270,-83.3333333333333,6,2,1,60,0,0
11543,-71.4285714285714,6,2,1,60,0,0
11815,-62.5,6,2,1,60,0,0
12088,-71.4285714285714,6,2,1,60,0,0
12906,-62.5,6,2,1,60,0,0
13724,-100,6,2,2,40,0,0
25179,-66.6666666666667,6,2,2,40,0,0
25997,-62.5,6,2,2,40,0,0
26202,-62.5,6,2,2,10,0,0
26270,-62.5,6,2,2,40,0,0
26474,-62.5,6,2,2,10,0,0
26543,-62.5,6,2,2,40,0,0
26815,-100,6,2,2,40,0,0
37452,-83.3333333333333,6,2,2,40,0,0
38270,-71.4285714285714,6,2,2,40,0,0
39088,-62.5,6,2,2,40,0,0
39906,-50,6,2,1,60,0,0
40179,-50,6,2,1,20,0,0
40315,-50,6,2,1,60,0,0
40588,-50,6,2,1,20,0,0
40724,-50,6,2,1,60,0,0
40861,-50,6,2,1,20,0,0
40997,-50,6,2,1,60,0,0
41134,-50,6,2,1,20,0,0
41270,-50,6,2,1,30,0,0
41543,-125,6,2,1,30,0,0
41679,-125,6,2,1,10,0,0
41815,-125,6,2,1,30,0,0
42497,-125,6,2,1,10,0,0
42634,-125,6,2,1,30,0,0
42770,-125,6,2,1,10,0,0
42906,-125,6,2,1,30,0,0
43043,-125,6,2,1,10,0,0
43179,-50,6,2,1,60,0,0
43452,-50,6,2,1,20,0,0
43588,-50,6,2,1,60,0,0
43861,-50,6,2,1,20,0,0
43997,-50,6,2,1,60,0,0
44134,-50,6,2,1,20,0,0
44270,-50,6,2,1,60,0,0
44406,-50,6,2,1,20,0,0
44543,-50,6,2,1,30,0,0
44815,-125,6,2,1,30,0,0
44952,-125,6,2,1,10,0,0
45088,-125,6,2,1,30,0,0
45770,-125,6,2,1,10,0,0
45906,-66.6666666666667,6,2,1,30,0,0
46315,-66.6666666666667,6,2,1,10,0,0
46452,-100,6,2,1,40,0,0
52997,-125,6,2,1,30,0,0
54634,-142.857142857143,6,2,1,50,0,0
54906,-142.857142857143,6,2,1,30,0,0
55179,-142.857142857143,6,2,1,15,0,0
55452,-142.857142857143,6,2,1,5,0,0
56815,-166.666666666667,6,2,1,25,0,0
56952,-166.666666666667,6,2,1,10,0,0
57088,-166.666666666667,6,2,1,25,0,0
57224,-166.666666666667,6,2,1,10,0,0
57361,-166.666666666667,6,2,1,25,0,0
57497,-166.666666666667,6,2,1,10,0,0
57634,-166.666666666667,6,2,1,25,0,0
57770,-166.666666666667,6,2,1,10,0,0
57906,-66.6666666666667,6,2,3,60,0,1
84088,-55.5555555555556,6,2,3,60,0,1
88997,-55.5555555555556,6,2,3,60,0,0

[Colours]
Combo1 : 128,0,0
Combo2 : 255,0,0
Combo3 : 255,128,0
Combo4 : 255,255,0

[HitObjects]
116,184,634,6,0,P|148:152|204:148,1,90.0000034332277,14|0,0:0|0:0,0:0:0:0:
252,280,906,1,0,0:0:0:0:
192,332,1043,2,0,B|152:360|152:360|196:192,1,180.000006866455,2|0,0:0|0:0,0:0:0:0:
336,36,1452,6,0,P|364:24|348:52,1,71.9999978027344,10|0,0:0|0:0,0:0:0:0:
416,136,1724,2,0,P|436:132|440:188,1,83.9999974365235,2|0,0:0|0:0,0:0:0:0:
400,264,1997,2,0,P|420:316|368:372,1,96,2|0,0:0|0:0,0:0:0:0:
244,296,2270,6,0,L|340:308,1,90.0000034332277,10|0,0:0|0:0,0:0:0:0:
88,228,2543,1,0,0:0:0:0:
116,304,2679,2,0,B|120:324|112:348|112:348|192:324|160:192,1,180.000006866455,2|0,0:0|0:0,0:0:0:0:
19,248,3088,6,0,L|99:224,1,71.9999978027344,10|0,0:0|0:0,0:0:0:0:
248,92,3361,2,0,L|179:112,1,71.9999978027344,2|0,0:0|0:0,0:0:0:0:
44,64,3634,5,2,0:0:0:0:
168,238,3770,1,0,0:0:0:0:
328,140,3906,6,0,P|340:96|320:40,1,90.0000034332277,14|0,0:0|0:0,0:0:0:0:
248,268,4179,1,0,0:0:0:0:
168,238,4315,2,0,P|240:216|368:264,1,180.000006866455,2|0,0:0|0:0,0:0:0:0:
436,160,4724,6,0,P|416:124|412:164,1,71.9999978027344,10|0,0:0|0:0,0:0:0:0:
296,104,4997,2,0,P|280:64|224:88,1,83.9999974365235,2|0,0:0|0:0,0:0:0:0:
128,96,5270,2,0,P|100:48|24:56,1,96,2|0,0:0|0:0,0:0:0:0:
52,200,5543,6,0,L|44:128,1,71.9999978027344,10|0,0:0|0:0,0:0:0:0:
212,264,5815,2,0,L|220:336,1,71.9999978027344,2|0,0:0|0:0,0:0:0:0:
152,192,6088,1,2,0:0:0:0:
152,192,6224,1,0,0:0:0:0:
152,192,6361,6,0,P|204:168|252:184,1,83.9999974365235,10|0,0:0|0:0,0:0:0:0:
356,352,6634,2,0,P|309:318|299:269,1,83.9999974365235,2|0,0:0|0:0,0:0:0:0:
360,60,6906,5,2,0:0:0:0:
380,272,7043,1,0,0:0:0:0:
360,60,7179,6,0,L|372:172,1,90.0000034332277,14|0,0:0|0:0,0:0:0:0:
256,256,7452,1,0,0:0:0:0:
196,196,7588,2,0,B|384:232,1,180.000006866455,2|0,0:0|0:0,0:0:0:0:
156,336,7997,6,0,P|188:312|156:292,1,71.9999978027344,10|0,0:0|0:0,0:0:0:0:
196,196,8270,2,0,P|200:152|152:136,1,83.9999974365235,2|0,0:0|0:0,0:0:0:0:
80,72,8543,2,0,P|52:28|-12:28,1,96,2|0,0:0|0:0,0:0:0:0:
36,232,8815,6,0,P|76:204|132:196,1,90.0000034332277,10|0,0:0|0:0,0:0:0:0:
252,132,9088,1,0,0:0:0:0:
220,60,9224,2,0,B|237:23|237:23|142:67|178:163,1,180.000006866455,2|0,0:0|0:0,0:0:0:0:
476,104,9634,6,0,L|380:116,1,71.9999978027344,10|0,0:0|0:0,0:0:0:0:
252,132,9906,2,0,L|323:123,1,71.9999978027344,2|0,0:0|0:0,0:0:0:0:
464,228,10179,5,2,0:0:0:0:
344,36,10315,1,0,0:0:0:0:
244,227,10452,6,0,B|283:258|283:258|248:119,1,180.000006866455,14|0,0:0|0:0,0:0:0:0:
236,128,10861,2,0,L|136:152,1,90.0000034332277,2|0,0:0|0:0,0:0:0:0:
24,328,11270,6,0,L|113:303,1,71.9999978027344,10|0,0:0|0:0,0:0:0:0:
192,312,11543,2,0,L|288:284,1,83.9999974365235,2|0,0:0|0:0,0:0:0:0:
368,312,11815,2,0,L|472:276,1,96,2|0,0:0|0:0,0:0:0:0:
296,124,12088,6,0,L|281:235,1,83.9999974365235,10|0,0:0|0:0,0:0:0:0:
261,371,12361,2,0,L|272:287,1,83.9999974365235,2|0,0:0|0:0,0:0:0:0:
380,212,12634,5,2,0:0:0:0:
380,212,12770,1,0,0:0:0:0:
380,212,12906,6,0,B|392:264|392:264|352:320,1,96,10|0,0:0|0:0,0:0:0:0:
176,276,13179,2,0,B|164:224|164:224|204:168,1,96,2|0,0:0|0:0,0:0:0:0:
261,371,13452,5,2,0:0:0:0:
284,207,13588,1,0,0:0:0:0:
483,185,13724,6,0,P|435:221|359:193,1,120,6|0,0:0|0:0,0:0:0:0:
412,84,14270,1,0,0:0:0:0:
412,84,14406,1,0,0:0:0:0:
412,84,14543,2,0,P|424:120|408:152,1,60,8|0,0:0|0:0,0:0:0:0:
300,240,14815,2,0,P|262:232|243:202,1,60,0|0,0:0|0:0,0:0:0:0:
224,80,15088,2,0,P|249:51|284:49,1,60,0|0,0:0|0:0,0:0:0:0:
292,120,15361,6,0,L|300:254,1,120,2|0,0:0|0:0,0:0:0:0:
344,360,15770,1,0,0:0:0:0:
372,284,15906,2,0,P|332:320|240:300,1,120,0|8,0:0|0:0,0:0:0:0:
208,264,16315,1,0,0:0:0:0:
208,264,16452,2,0,L|136:280,1,60,0|0,0:0|0:0,0:0:0:0:
112,32,16724,1,0,0:0:0:0:
124,116,16861,1,0,0:0:0:0:
136,200,16997,6,0,P|180:156|272:168,1,120,2|0,0:0|0:0,0:0:0:0:
304,200,17406,1,0,0:0:0:0:
304,200,17543,1,0,0:0:0:0:
80,368,17815,6,0,P|81:338|99:315,1,60,8|0,0:0|0:0,0:0:0:0:
4,148,18088,2,0,P|28:163|39:191,1,60,0|0,0:0|0:0,0:0:0:0:
248,208,18361,2,0,P|221:221|192:217,1,60,0|0,0:0|0:0,0:0:0:0:
4,148,18634,6,0,L|140:144,1,120,2|0,0:0|0:0,0:0:0:0:
200,140,19043,1,0,0:0:0:0:
200,140,19179,1,0,0:0:0:0:
456,276,19452,5,8,0:0:0:0:
404,324,19588,1,0,0:0:0:0:
332,316,19724,2,0,P|312:284|312:252,1,60,0|0,0:0|0:0,0:0:0:0:
288,128,19997,1,0,0:0:0:0:
340,80,20133,1,0,0:0:0:0:
412,88,20270,6,0,P|440:120|400:204,1,120,2|0,0:0|0:0,0:0:0:0:
288,128,20679,1,0,0:0:0:0:
335,187,20815,2,0,P|275:171|215:195,1,120,0|8,0:0|0:0,0:0:0:0:
184,292,21224,1,0,0:0:0:0:
292,328,21361,2,0,P|296:296|276:260,1,60,0|0,0:0|0:0,0:0:0:0:
223,190,21634,2,0,P|192:180|153:193,1,60,0|0,0:0|0:0,0:0:0:0:
68,323,21906,6,0,L|200:287,1,120,2|0,0:0|0:0,0:0:0:0:
216,120,22315,1,0,0:0:0:0:
165,186,22452,2,0,P|176:132|136:60,1,120,0|8,0:0|0:0,0:0:0:0:
32,152,22861,1,0,0:0:0:0:
32,152,22997,2,0,L|106:130,1,60,0|0,0:0|0:0,0:0:0:0:
276,200,23270,1,0,0:0:0:0:
256,280,23406,1,0,0:0:0:0:
232,360,23543,6,0,P|220:304|144:256,1,120,2|0,0:0|0:0,0:0:0:0:
80,272,23952,1,0,0:0:0:0:
80,272,24088,2,0,L|88:352,1,60,0|0,0:0|0:0,0:0:0:0:
164,184,24361,6,0,P|192:188|236:160,1,60,8|0,0:0|0:0,0:0:0:0:
272,76,24634,2,0,P|261:49|215:25,1,60,0|0,0:0|0:0,0:0:0:0:
124,36,24906,2,0,P|106:58|108:110,1,60,0|0,0:0|0:0,0:0:0:0:
188,104,25179,6,0,B|260:48|300:140|368:72,1,180.000006866455,2|0,0:0|0:0,0:0:0:0:
416,24,25588,1,0,0:0:0:0:
496,44,25724,1,0,0:0:0:0:
236,176,25997,6,0,P|196:228|232:308,1,144,6|0,0:0|0:0,0:0:0:0:
292,356,26270,2,0,P|352:376|428:312,1,144,4|0,0:0|0:0,0:0:0:0:
452,264,26543,1,4,0:0:0:0:
320,152,26679,1,4,0:0:0:0:
217,297,26815,6,0,L|88:312,1,120,2|0,0:0|0:0,0:0:0:0:
48,236,27224,1,0,0:0:0:0:
48,236,27361,2,0,P|80:220|124:224,1,60,0|0,0:0|0:0,0:0:0:0:
256,124,27634,6,0,P|270:97|273:68,1,60,8|0,0:0|0:0,0:0:0:0:
120,136,27906,2,0,P|148:127|171:108,1,60,0|0,0:0|0:0,0:0:0:0:
32,44,28179,2,0,P|58:58|87:61,1,60,0|0,0:0|0:0,0:0:0:0:
200,192,28452,6,0,P|200:244|140:304,1,120,2|0,0:0|0:0,0:0:0:0:
16,320,28861,1,0,0:0:0:0:
0,248,28997,2,0,L|148:208,1,120,0|8,0:0|0:0,0:0:0:0:
200,192,29406,1,0,0:0:0:0:
200,192,29543,1,0,0:0:0:0:
464,64,29815,1,0,0:0:0:0:
380,84,29952,1,0,0:0:0:0:
300,108,30088,6,0,P|360:132|392:212,1,120,2|0,0:0|0:0,0:0:0:0:
296,260,30497,1,0,0:0:0:0:
296,260,30634,2,0,L|304:184,1,60,0|0,0:0|0:0,0:0:0:0:
80,184,30906,6,0,P|52:188|28:212,1,60,8|0,0:0|0:0,0:0:0:0:
112,268,31179,2,0,P|95:290|95:324,1,60,0|0,0:0|0:0,0:0:0:0:
188,316,31452,2,0,P|192:344|216:368,1,60,0|0,0:0|0:0,0:0:0:0:
356,224,31724,6,0,L|340:60,1,120,2|0,0:0|0:0,0:0:0:0:
332,28,32134,1,0,0:0:0:0:
332,28,32270,1,0,0:0:0:0:
444,232,32543,6,0,P|436:268|400:292,1,60,8|0,0:0|0:0,0:0:0:0:
304,296,32815,2,0,P|276:271|274:227,1,60,0|0,0:0|0:0,0:0:0:0:
216,136,33088,1,0,0:0:0:0:
216,136,33224,1,0,0:0:0:0:
216,136,33361,6,0,P|192:184|104:212,1,120,2|0,0:0|0:0,0:0:0:0:
72,364,33770,1,0,0:0:0:0:
16,300,33906,2,0,P|72:280|156:328,1,120,0|8,0:0|0:0,0:0:0:0:
296,312,34452,1,0,0:0:0:0:
260,236,34588,1,0,0:0:0:0:
212,304,34724,2,0,P|212:344|228:368,1,60,0|0,0:0|0:0,0:0:0:0:
411,323,34997,6,0,P|356:305|272:321,1,120,2|0,0:0|0:0,0:0:0:0:
212,304,35406,1,0,0:0:0:0:
212,304,35543,2,0,L|200:244,1,60,0|0,0:0|0:0,0:0:0:0:
228,24,35815,6,0,P|256:48|260:84,1,60,8|0,0:0|0:0,0:0:0:0:
228,160,36088,2,0,P|193:172|160:157,1,60,0|0,0:0|0:0,0:0:0:0:
112,88,36361,2,0,P|118:51|147:30,1,60,0|0,0:0|0:0,0:0:0:0:
171,166,36634,6,0,B|184:200|164:232|164:232|188:256|188:304,1,120,2|0,0:0|0:0,0:0:0:0:
88,368,37043,1,0,0:0:0:0:
45,299,37179,2,0,P|72:287|102:289,1,60,0|0,0:0|0:0,0:0:0:0:
172,360,37452,6,0,P|236:352|272:280,1,143.999995605469,8|0,0:0|0:0,0:0:0:0:
344,156,37861,1,0,0:0:0:0:
264,144,37997,2,0,P|264:188|292:216,1,71.9999978027344,0|0,0:0|0:0,0:0:0:0:
436,288,38270,6,0,B|468:300|468:300|432:228|332:240,1,167.999994873047,2|0,0:0|0:0,0:0:0:0:
192,224,38679,1,0,0:0:0:0:
258,283,38815,2,0,P|282:249|280:208,1,83.9999974365235,0|0,0:0|0:0,0:0:0:0:
1,246,39088,6,0,L|208:222,1,192,8|0,0:0|0:0,0:0:0:0:
279,207,39497,1,0,0:0:0:0:
336,144,39634,1,0,0:0:0:0:
344,60,39770,1,0,0:0:0:0:
156,64,39906,6,0,P|168:124|208:32,1,240,12|0,0:0|0:0,0:0:0:0:
8,240,40315,2,0,B|80:248|136:196|136:196|92:252|124:328,1,240,12|0,0:0|0:0,0:0:0:0:
308,256,40724,6,0,P|252:236|184:276,1,120,12|0,0:0|0:0,0:0:0:0:
368,336,40997,2,0,P|424:356|492:316,1,120,12|0,0:0|0:0,0:0:0:0:
256,336,41270,1,0,0:0:0:0:
326,54,41543,6,0,L|270:46,1,48,2|0,0:0|0:0,0:0:0:0:
279,48,41815,2,0,L|264:160,1,96,0|0,0:0|0:0,0:0:0:0:
152,220,42361,6,0,L|92:228,1,48,2|0,0:0|0:0,0:0:0:0:
32,312,42634,2,0,L|79:305,1,48,2|0,0:0|0:0,0:0:0:0:
168,372,42906,2,0,L|108:380,1,48,2|0,0:0|0:0,0:0:0:0:
232,208,43179,6,0,B|264:204|296:164|296:164|344:276|224:372,1,240,12|0,0:0|0:0,0:0:0:0:
32,256,43588,2,0,B|96:256|136:196|136:196|124:268|200:328,1,240,12|0,0:0|0:0,0:0:0:0:
328,157,43997,6,0,P|260:169|228:245,1,120,12|0,0:0|0:0,0:0:0:0:
352,68,44270,2,0,P|420:56|452:-20,1,120,12|0,0:0|0:0,0:0:0:0:
308,240,44543,1,0,0:0:0:0:
248,80,44815,6,0,L|264:8,1,48,2|0,0:0|0:0,0:0:0:0:
258,33,45088,2,0,L|288:156,1,96,0|0,0:0|0:0,0:0:0:0:
208,224,45634,2,0,P|192:204|161:188,1,48,2|0,0:0|0:0,0:0:0:0:
40,288,45906,6,0,P|84:368|104:252,1,270.000010299683,2|0,0:0|0:0,0:0:0:0:
60,212,46452,5,12,0:0:0:0:
60,212,46724,2,0,L|48:168,2,30,2|0|0,0:0|0:0|0:0,0:0:0:0:
268,316,47270,1,10,0:0:0:0:
348,344,47543,1,0,0:0:0:0:
408,284,47815,1,0,0:0:0:0:
320,224,48088,5,10,0:0:0:0:
320,224,48361,2,0,L|328:256,2,30,2|0|0,0:0|0:0|0:0,0:0:0:0:
204,32,48906,1,10,0:0:0:0:
260,92,49179,1,0,0:0:0:0:
232,172,49452,1,0,0:0:0:0:
56,136,49724,6,0,L|196:108,1,120,10|0,0:0|0:0,0:0:0:0:
280,240,50134,1,0,0:0:0:0:
232,172,50270,2,0,P|208:196|200:240,1,60,0|0,0:0|0:0,0:0:0:0:
294,359,50543,6,0,L|278:223,1,120,2|0,0:0|0:0,0:0:0:0:
312,92,50952,1,0,0:0:0:0:
320,172,51088,2,0,P|348:168|372:144,1,60,0|0,0:0|0:0,0:0:0:0:
424,53,51361,6,0,L|311:91,1,120,10|0,0:0|0:0,0:0:0:0:
236,120,51770,1,0,0:0:0:0:
236,120,51906,1,0,0:0:0:0:
44,244,52179,6,0,P|112:200|168:216,1,120,2|0,0:0|0:0,0:0:0:0:
208,264,52588,1,0,0:0:0:0:
208,264,52724,2,0,P|196:296|200:344,1,60,0|0,0:0|0:0,0:0:0:0:
484,264,52997,5,2,0:0:0:0:
364,200,53270,1,0,0:0:0:0:
280,308,53543,1,0,0:0:0:0:
224,46,53815,5,2,0:0:0:0:
228,181,54088,1,0,0:0:0:0:
364,200,54361,1,0,0:0:0:0:
372,176,54497,1,0,0:0:0:0:
364,156,54634,5,6,0:0:0:0:
228,181,54906,1,2,0:0:0:0:
200,288,55179,1,2,0:0:0:0:
232,372,55451,1,2,0:0:0:0:
232,372,56815,6,0,L|224:320,1,35.9999989013672,2|0,0:0|0:0,0:0:0:0:
232,320,57088,2,0,L|199:278,1,35.9999989013672,2|0,0:0|0:0,0:0:0:0:
208,272,57361,2,0,L|158:252,1,35.9999989013672,2|0,0:0|0:0,0:0:0:0:
164,244,57634,2,0,L|111:252,1,35.9999989013672,2|0,0:0|0:0,0:0:0:0:
48,336,57906,6,0,B|88:364|88:364|88:288|-16:240,1,180.000006866455,6|0,0:0|0:0,0:0:0:0:
114,138,58315,1,2,0:0:0:0:
35,163,58452,2,0,B|87:171|115:215|115:215|139:175|103:119,1,180.000006866455,0|10,0:0|0:0,0:0:0:0:
292,72,58861,1,0,0:0:0:0:
208,36,58997,6,0,P|196:88|224:136,1,90.0000034332277,2|0,0:0|0:0,0:0:0:0:
280,284,59270,2,0,P|292:232|264:184,1,90.0000034332277,2|0,0:0|0:0,0:0:0:0:
12,268,59543,5,6,0:0:0:0:
200,241,59679,1,0,0:0:0:0:
92,176,59815,1,0,0:0:0:0:
168,360,59952,1,2,0:0:0:0:
184,144,60088,6,0,B|200:68|136:32|136:32|116:88,1,180.000006866455,0|10,0:0|0:0,0:0:0:0:
160,240,60497,1,0,0:0:0:0:
14,211,60634,2,0,P|54:179|122:187,1,90.0000034332277,2|0,0:0|0:0,0:0:0:0:
336,224,60906,2,0,P|296:256|228:248,1,90.0000034332277,2|0,0:0|0:0,0:0:0:0:
152,80,61179,5,6,0:0:0:0:
264,172,61315,1,0,0:0:0:0:
260,24,61452,1,0,0:0:0:0:
160,240,61588,1,2,0:0:0:0:
25,131,61724,6,0,B|81:111|145:135|145:135|133:103|165:55,1,180.000006866455,0|10,0:0|0:0,0:0:0:0:
336,156,62134,1,0,0:0:0:0:
300,64,62270,2,0,P|240:104|240:164,1,90.0000034332277,2|0,0:0|0:0,0:0:0:0:
268,308,62543,1,2,0:0:0:0:
392,376,62679,1,0,0:0:0:0:
436,300,62815,6,0,B|392:280|352:300|352:300|340:236|280:224,1,180.000006866455,6|0,0:0|0:0,0:0:0:0:
180,296,63224,1,2,0:0:0:0:
224,376,63361,2,0,P|268:332|250:278,1,90.0000034332277,0|0,0:0|0:0,0:0:0:0:
260,108,63634,6,0,B|193:99|161:143|161:143|160:96|109:63,1,180.000006866455,14|2,0:0|0:0,0:0:0:0:
88,240,64043,1,0,0:0:0:0:
8,204,64179,2,0,P|36:164|108:156,1,90.0000034332277,2|0,0:0|0:0,0:0:0:0:
276,232,64452,6,0,B|304:248|328:248|328:248|304:248|272:276,1,90.0000034332277,6|0,0:0|0:0,0:0:0:0:
372,116,64724,2,0,B|344:132|332:153|332:153|344:132|335:90,1,90.0000034332277,0|2,0:0|0:0,0:0:0:0:
424,256,64997,2,0,B|423:223|411:202|411:202|423:223|464:237,1,90.0000034332277,0|0,0:0|0:0,0:0:0:0:
192,245,65270,6,0,B|205:227|229:227|229:227|249:235|280:230,1,90.0000034332277,10|0,0:0|0:0,0:0:0:0:
401,36,65543,2,0,B|410:56|398:77|398:77|381:90|369:120,1,90.0000034332277,2|0,0:0|0:0,0:0:0:0:
477,321,65815,2,0,B|454:318|442:297|442:297|439:276|420:251,1,90.0000034332277,2|0,0:0|0:0,0:0:0:0:
236,112,66088,6,0,B|148:80|148:196|8:92,1,180.000006866455,6|0,0:0|0:0,0:0:0:0:
104,44,66497,1,2,0:0:0:0:
212,196,66634,2,0,P|242:248|232:288,1,90.0000034332277,0|0,0:0|0:0,0:0:0:0:
48,352,66906,6,0,P|72:276|212:300,1,180.000006866455,10|2,0:0|0:0,0:0:0:0:
144,348,67315,1,0,0:0:0:0:
4,196,67452,1,2,0:0:0:0:
212,196,67588,1,0,0:0:0:0:
236,36,67724,6,0,B|276:140|276:140|244:104|196:120,1,180.000006866455,6|0,0:0|0:0,0:0:0:0:
4,196,68134,1,2,0:0:0:0:
76,84,68270,2,0,P|112:60|207:91,1,90.0000034332277,0|0,0:0|0:0,0:0:0:0:
468,56,68543,6,0,B|344:80|344:80|380:80|400:116,1,180.000006866455,14|2,0:0|0:0,0:0:0:0:
180,212,68952,1,0,0:0:0:0:
338,246,69088,2,0,P|352:204|333:160,1,90.0000034332277,2|0,0:0|0:0,0:0:0:0:
240,28,69361,6,0,L|252:144,1,90.0000034332277,6|0,0:0|0:0,0:0:0:0:
269,293,69634,2,0,L|260:204,1,90.0000034332277,0|2,0:0|0:0,0:0:0:0:
144,120,69906,5,0,0:0:0:0:
356,96,70043,1,0,0:0:0:0:
260,204,70179,1,10,0:0:0:0:
240,28,70316,1,0,0:0:0:0:
47,194,70452,5,2,0:0:0:0:
260,204,70589,1,0,0:0:0:0:
144,60,70724,1,6,0:0:0:0:
128,56,70793,1,0,0:0:0:0:
112,52,70861,1,0,0:0:0:0:
96,48,70929,1,0,0:0:0:0:
80,44,70997,6,0,P|24:116|52:200,1,180.000006866455,6|0,0:0|0:0,0:0:0:0:
191,265,71406,1,2,0:0:0:0:
164,348,71543,2,0,B|184:292|140:236|140:236|196:252|200:288,1,180.000006866455,0|10,0:0|0:0,0:0:0:0:
82,310,71952,1,0,0:0:0:0:
252,176,72088,6,0,P|288:212|300:260,1,90.0000034332277,2|0,0:0|0:0,0:0:0:0:
428,264,72361,2,0,P|461:235|505:225,1,90.0000034332277,2|0,0:0|0:0,0:0:0:0:
191,265,72634,5,6,0:0:0:0:
392,192,72770,1,0,0:0:0:0:
304,360,72906,1,0,0:0:0:0:
332,120,73043,1,2,0:0:0:0:
108,224,73179,6,0,B|84:352|84:352|140:316,1,180.000006866455,0|10,0:0|0:0,0:0:0:0:
148,112,73588,1,0,0:0:0:0:
191,265,73724,2,0,P|204:216|180:166,1,90.0000034332277,2|0,0:0|0:0,0:0:0:0:
0,88,73997,2,0,P|35:123|91:127,1,90.0000034332277,2|0,0:0|0:0,0:0:0:0:
260,68,74270,5,6,0:0:0:0:
108,224,74406,1,0,0:0:0:0:
308,232,74543,1,0,0:0:0:0:
136,80,74679,1,2,0:0:0:0:
168,344,74815,6,0,B|224:344|256:308|256:308|296:336|376:316,1,180.000006866455,0|14,0:0|0:0,0:0:0:0:
96,272,75224,1,0,0:0:0:0:
180,256,75361,2,0,P|164:216|100:192,1,90.0000034332277,2|0,0:0|0:0,0:0:0:0:
72,352,75634,1,2,0:0:0:0:
260,216,75770,1,0,0:0:0:0:
104,72,75906,6,0,P|156:104|116:40,1,180.000006866455,6|0,0:0|0:0,0:0:0:0:
48,236,76315,1,2,0:0:0:0:
232,300,76452,2,0,P|276:308|324:276,1,90.0000034332277,0|0,0:0|0:0,0:0:0:0:
267,36,76724,6,0,L|259:216,1,180.000006866455,10|2,0:0|0:0,0:0:0:0:
388,92,77134,1,0,0:0:0:0:
184,144,77270,2,0,P|148:188|152:236,1,90.0000034332277,6|0,0:0|0:0,0:0:0:0:
428,296,77543,6,0,B|456:268|456:268|368:248|300:332,1,180.000006866455,6|0,0:0|0:0,0:0:0:0:
224,276,77952,1,2,0:0:0:0:
172,348,78088,2,0,P|224:368|284:332,1,90.0000034332277,0|0,0:0|0:0,0:0:0:0:
240,140,78361,6,0,B|220:164|180:168|180:168|204:132,1,90.0000034332277,10|0,0:0|0:0,0:0:0:0:
108,264,78634,2,0,B|97:234|113:198|113:198|132:236,1,90.0000034332277,2|0,0:0|0:0,0:0:0:0:
64,88,78906,2,0,B|94:93|118:125|118:125|75:123,1,90.0000034332277,2|0,0:0|0:0,0:0:0:0:
324,153,79179,6,0,B|292:153|280:137|280:137|252:129|232:145,1,90.0000034332277,6|0,0:0|0:0,0:0:0:0:
54,330,79452,2,0,B|70:302|89:299|89:299|110:279|106:254,1,90.0000034332277,0|2,0:0|0:0,0:0:0:0:
33,8,79724,2,0,B|49:35|41:54|41:54|48:82|72:91,1,90.0000034332277,0|0,0:0|0:0,0:0:0:0:
232,340,79997,6,0,B|228:280|268:224|268:224|248:252|200:256,1,180.000006866455,10|2,0:0|0:0,0:0:0:0:
200,168,80406,1,0,0:0:0:0:
332,304,80543,2,0,P|380:308|424:280,1,90.0000034332277,2|0,0:0|0:0,0:0:0:0:
372,115,80815,6,0,L|176:175,1,180.000006866455,6|0,0:0|0:0,0:0:0:0:
56,248,81224,1,2,0:0:0:0:
200,340,81361,2,0,P|224:296|196:232,1,90.0000034332277,4|0,0:0|0:0,0:0:0:0:
168,68,81634,6,0,B|152:28|152:28|68:88|128:176,1,180.000006866455,14|2,0:0|0:0,0:0:0:0:
217,258,82043,1,0,0:0:0:0:
360,108,82179,2,0,P|268:92|240:108,1,90.0000034332277,6|0,0:0|0:0,0:0:0:0:
48,324,82452,6,0,B|100:312|132:240|132:240|128:272|148:304,1,180.000006866455,6|0,0:0|0:0,0:0:0:0:
376,344,82861,1,2,0:0:0:0:
217,258,82997,2,0,P|220:212|264:168,1,90.0000034332277,0|0,0:0|0:0,0:0:0:0:
488,228,83270,6,0,L|272:244,1,180.000006866455,10|2,0:0|0:0,0:0:0:0:
184,372,83679,1,0,0:0:0:0:
245,178,83815,1,2,0:0:0:0:
376,344,83952,1,0,0:0:0:0:
144,232,84088,1,6,0:0:0:0:
144,232,84224,1,0,0:0:0:0:
336,100,84361,6,0,B|408:64|408:64|384:132,1,107.999996704102,0|2,0:0|0:0,0:0:0:0:
260,280,84634,2,0,B|255:360|255:360|208:305,1,107.999996704102,0|0,0:0|0:0,0:0:0:0:
144,124,84906,2,0,B|76:79|76:79|147:66,1,107.999996704102,10|0,0:0|0:0,0:0:0:0:
264,48,85179,5,2,0:0:0:0:
112,248,85315,1,0,0:0:0:0:
172,24,85452,1,2,0:0:0:0:
312,220,85588,1,0,0:0:0:0:
464,40,85724,6,0,P|400:32|352:88,1,107.999996704102,6|0,0:0|0:0,0:0:0:0:
276,140,85997,1,0,0:0:0:0:
112,248,86134,2,0,P|176:256|224:200,1,107.999996704102,2|0,0:0|0:0,0:0:0:0:
132,60,86406,1,0,0:0:0:0:
132,60,86543,6,0,B|156:84|156:108|156:108|140:132|150:172,1,107.999996704102,10|0,0:0|0:0,0:0:0:0:
184,372,86815,2,0,B|192:339|213:327|213:327|242:329|271:300,1,107.999996704102,2|0,0:0|0:0,0:0:0:0:
428,172,87088,2,0,B|395:180|374:168|374:168|361:142|322:131,1,107.999996704102,2|0,0:0|0:0,0:0:0:0:
184,372,87361,5,6,0:0:0:0:
300,216,87497,1,0,0:0:0:0:
84,328,87634,5,0,0:0:0:0:
261,308,87770,1,2,0:0:0:0:
16,252,87906,5,4,0:0:0:0:
184,372,88043,1,0,0:0:0:0:
300,216,88179,6,0,P|328:168|300:96,1,107.999996704102,14|0,0:0|0:0,0:0:0:0:
200,8,88452,2,0,P|144:7|96:67,1,107.999996704102,2|0,0:0|0:0,0:0:0:0:
68,196,88724,2,0,P|95:244|171:256,1,107.999996704102,6|0,0:0|0:0,0:0:0:0:
192,140,88997,5,6,0:0:0:0:
