osu file format v14

[General]
AudioFilename: audio.mp3
AudioLeadIn: 0
PreviewTime: 56543
Countdown: 0
SampleSet: Soft
StackLeniency: 0.7
Mode: 0
LetterboxInBreaks: 0
WidescreenStoryboard: 0

[Editor]
Bookmarks: 7179,23543,64452,70997,77543,84088
DistanceSpacing: 1.8
BeatDivisor: 4
GridSize: 4
TimelineZoom: 1

[Metadata]
Title:Katayoku no Tori
TitleUnicode:片翼の鳥
Artist:Shikata Akiko
ArtistUnicode:志方あきこ
Creator:Rakuen
Version:Insane
Source:うみねこのなく頃に
Tags:Umineko no Naku Koro ni walaowey [_-Scarlet-_] opening op tv size
BeatmapID:1345365
BeatmapSetID:536657

[Difficulty]
HPDrainRate:6
CircleSize:4
OverallDifficulty:8
ApproachRate:9
SliderMultiplier:1.1
SliderTickRate:1

[Events]
//Background and Video events
0,0,"600306.jpg",0,0
Video,0,"umineko op.mp4"
//Break Periods
//Storyboard Layer 0 (Background)
//Storyboard Layer 1 (Fail)
//Storyboard Layer 2 (Pass)
//Storyboard Layer 3 (Foreground)
//Storyboard Sound Samples

[TimingPoints]
634,272.727272727273,6,2,1,60,1,0
634,-83.3333333333333,6,2,1,60,0,0
13724,-100,6,2,2,40,0,0
25997,-71.4285714285714,6,2,2,40,0,0
26202,-71.4285714285714,6,2,2,10,0,0
26270,-71.4285714285714,6,2,2,40,0,0
26474,-71.4285714285714,6,2,2,10,0,0
26543,-100,6,2,2,40,0,0
26815,-100,6,2,2,40,0,0
39906,-83.3333333333333,6,2,1,60,0,0
40179,-83.3333333333333,6,2,1,20,0,0
40315,-83.3333333333333,6,2,1,60,0,0
40588,-83.3333333333333,6,2,1,20,0,0
40724,-83.3333333333333,6,2,1,60,0,0
40929,-83.3333333333333,6,2,1,20,0,0
40997,-83.3333333333333,6,2,1,60,0,0
41202,-83.3333333333333,6,2,1,20,0,0
41270,-83.3333333333333,6,2,1,30,0,0
41543,-125,6,2,1,30,0,0
42497,-125,6,2,1,10,0,0
42634,-125,6,2,1,30,0,0
42770,-125,6,2,1,10,0,0
42906,-125,6,2,1,30,0,0
43043,-125,6,2,1,10,0,0
43179,-83.3333333333333,6,2,1,60,0,0
43452,-83.3333333333333,6,2,1,20,0,0
43588,-83.3333333333333,6,2,1,60,0,0
43861,-83.3333333333333,6,2,1,20,0,0
43997,-83.3333333333333,6,2,1,60,0,0
44202,-83.3333333333333,6,2,1,20,0,0
44270,-83.3333333333333,6,2,1,60,0,0
44474,-83.3333333333333,6,2,1,20,0,0
44543,-83.3333333333333,6,2,1,30,0,0
44815,-125,6,2,1,30,0,0
45770,-125,6,2,1,10,0,0
45906,-125,6,2,1,30,0,0
46043,-125,6,2,1,10,0,0
46179,-125,6,2,1,30,0,0
46452,-100,6,2,1,40,0,0
52997,-125,6,2,1,30,0,0
54634,-142.857142857143,6,2,1,50,0,0
54906,-142.857142857143,6,2,1,30,0,0
55179,-142.857142857143,6,2,1,15,0,0
55452,-142.857142857143,6,2,1,5,0,0
56815,-166.666666666667,6,2,1,25,0,0
56952,-166.666666666667,6,2,1,10,0,0
57088,-166.666666666667,6,2,1,25,0,0
57224,-166.666666666667,6,2,1,10,0,0
57361,-166.666666666667,6,2,1,25,0,0
57497,-166.666666666667,6,2,1,10,0,0
57634,-166.666666666667,6,2,1,25,0,0
57770,-166.666666666667,6,2,1,10,0,0
57906,-83.3333333333333,6,2,3,60,0,1
88997,-83.3333333333333,6,2,3,60,0,0

[Colours]
Combo1 : 128,0,0
Combo2 : 255,0,0
Combo3 : 255,128,0
Combo4 : 255,255,0

[HitObjects]
36,247,634,6,0,P|88:207|149:183,1,131.99999597168,14|0,0:0|0:0,0:0:0:0:
361,302,1043,2,0,P|296:293|236:267,1,131.99999597168,2|0,0:0|0:0,0:0:0:0:
324,186,1452,2,0,P|324:154|316:122,1,65.9999979858399,10|0,0:0|0:0,0:0:0:0:
248,27,1724,2,0,P|225:50|208:79,1,65.9999979858399,2|0,0:0|0:0,0:0:0:0:
480,207,1997,2,0,P|456:183|428:166,1,65.9999979858399,2|0,0:0|0:0,0:0:0:0:
252,282,2270,6,0,L|384:275,1,131.99999597168,10|0,0:0|0:0,0:0:0:0:
144,230,2679,2,0,P|131:294|156:355,1,131.99999597168,2|0,0:0|0:0,0:0:0:0:
264,184,3088,2,0,L|272:104,1,65.9999979858399,10|0,0:0|0:0,0:0:0:0:
158,46,3361,2,0,L|152:112,1,65.9999979858399,2|0,0:0|0:0,0:0:0:0:
384,152,3634,2,0,L|390:86,1,65.9999979858399,2|0,0:0|0:0,0:0:0:0:
144,230,3906,6,0,B|182:208|182:208|226:205|226:205|264:184,1,131.99999597168,14|0,0:0|0:0,0:0:0:0:
475,306,4315,2,0,B|437:284|437:284|393:281|393:281|356:260,1,131.99999597168,2|0,0:0|0:0,0:0:0:0:
226,364,4724,2,0,P|229:331|240:300,1,65.9999979858399,10|0,0:0|0:0,0:0:0:0:
144,230,4997,2,0,P|122:205|107:176,1,65.9999979858399,2|0,0:0|0:0,0:0:0:0:
203,27,5270,2,0,P|200:60|191:92,1,65.9999979858399,2|0,0:0|0:0,0:0:0:0:
344,176,5543,6,0,L|409:172,1,65.9999979858399,10|0,0:0|0:0,0:0:0:0:
450,35,5815,2,0,L|388:56,1,65.9999979858399,2|0,0:0|0:0,0:0:0:0:
235,247,6088,2,0,P|265:262|291:283,1,65.9999979858399,2|0,0:0|0:0,0:0:0:0:
128,106,6361,2,0,P|160:102|192:91,1,65.9999979858399,10|0,0:0|0:0,0:0:0:0:
368,132,6634,2,0,L|376:66,1,65.9999979858399,2|0,0:0|0:0,0:0:0:0:
112,117,6906,2,0,L|120:182,1,65.9999979858399,2|0,0:0|0:0,0:0:0:0:
234,366,7179,6,0,P|209:306|234:246,1,131.99999597168,14|0,0:0|0:0,0:0:0:0:
455,308,7588,2,0,P|395:332|336:308,1,131.99999597168,2|0,0:0|0:0,0:0:0:0:
396,204,7997,2,0,P|399:171|409:139,1,65.9999979858399,10|0,0:0|0:0,0:0:0:0:
268,29,8270,2,0,P|283:58|304:83,1,65.9999979858399,2|0,0:0|0:0,0:0:0:0:
203,228,8543,2,0,P|206:195|216:164,1,65.9999979858399,2|0,0:0|0:0,0:0:0:0:
4,87,8815,6,0,L|136:80,1,131.99999597168,10|0,0:0|0:0,0:0:0:0:
203,228,9224,2,0,L|71:235,1,131.99999597168,2|0,0:0|0:0,0:0:0:0:
312,276,9634,2,0,P|315:308|313:341,1,65.9999979858399,10|0,0:0|0:0,0:0:0:0:
388,184,9906,2,0,P|414:164|443:149,1,65.9999979858399,2|0,0:0|0:0,0:0:0:0:
272,164,10179,2,0,P|241:151|214:132,1,65.9999979858399,2|0,0:0|0:0,0:0:0:0:
89,234,10452,6,0,P|71:172|96:112,1,131.99999597168,14|0,0:0|0:0,0:0:0:0:
146,337,10861,2,0,P|83:355|23:331,1,131.99999597168,2|0,0:0|0:0,0:0:0:0:
212,240,11270,2,0,L|288:244,1,65.9999979858399,10|0,0:0|0:0,0:0:0:0:
401,351,11543,2,0,L|336:348,1,65.9999979858399,2|0,0:0|0:0,0:0:0:0:
304,128,11815,2,0,L|369:131,1,65.9999979858399,2|0,0:0|0:0,0:0:0:0:
191,84,12088,6,0,P|203:53|220:24,1,65.9999979858399,10|0,0:0|0:0,0:0:0:0:
105,193,12361,2,0,P|92:163|84:132,1,65.9999979858399,2|0,0:0|0:0,0:0:0:0:
167,331,12634,2,0,P|179:300|196:272,1,65.9999979858399,2|0,0:0|0:0,0:0:0:0:
377,293,12906,2,0,L|312:300,1,65.9999979858399,10|0,0:0|0:0,0:0:0:0:
214,177,13179,2,0,L|280:184,1,65.9999979858399,2|0,0:0|0:0,0:0:0:0:
390,310,13452,2,0,L|456:304,1,65.9999979858399,2|0,0:0|0:0,0:0:0:0:
328,64,13724,6,0,L|204:48,1,110,6|0,0:0|0:0,0:0:0:0:
44,76,14270,1,0,0:0:0:0:
44,76,14406,1,0,0:0:0:0:
44,76,14543,2,0,L|48:144,1,55,8|0,0:0|0:0,0:0:0:0:
135,214,14815,2,0,L|132:160,1,55
208,65,15088,2,0,L|212:120,1,55
380,186,15361,6,0,P|326:195|272:188,1,110,2|0,0:0|0:0,0:0:0:0:
272,188,15770,1,0,0:0:0:0:
272,188,15906,1,0,0:0:0:0:
96,168,16179,1,8,0:0:0:0:
120,252,16315,1,0,0:0:0:0:
148,336,16452,2,0,P|176:328|212:308,1,55
348,352,16724,1,0,0:0:0:0:
348,264,16861,1,0,0:0:0:0:
348,176,16997,6,0,L|228:172,1,110,2|0,0:0|0:0,0:0:0:0:
238,172,17406,1,0,0:0:0:0:
238,172,17543,1,0,0:0:0:0:
112,52,17815,2,0,P|86:61|59:67,1,55,8|0,0:0|0:0,0:0:0:0:
91,152,18088,2,0,P|118:145|144:135,1,55
116,236,18361,2,0,L|106:290,1,55
189,324,18634,6,0,L|208:216,1,110,2|0,0:0|0:0,0:0:0:0:
208,215,19043,1,0,0:0:0:0:
208,215,19179,1,0,0:0:0:0:
308,360,19452,1,8,0:0:0:0:
352,284,19588,1,0,0:0:0:0:
392,204,19724,2,0,P|404:179|414:153,1,55
372,16,19997,2,0,P|382:42|395:67,1,55
224,123,20270,6,0,P|277:135|332:128,1,110,2|0,0:0|0:0,0:0:0:0:
499,208,20679,1,0,0:0:0:0:
499,208,20815,2,0,P|445:195|391:204,1,110,0|8,0:0|0:0,0:0:0:0:
360,289,21224,1,0,0:0:0:0:
332,128,21361,2,0,L|264:132,1,55
193,51,21634,2,0,L|248:48,1,55
124,104,21906,6,0,P|104:154|118:206,1,110,2|0,0:0|0:0,0:0:0:0:
296,164,22315,1,0,0:0:0:0:
296,164,22452,2,0,P|246:145|194:159,1,110,0|8,0:0|0:0,0:0:0:0:
240,232,22861,1,0,0:0:0:0:
326,326,22997,2,0,L|320:272,1,55
393,177,23270,2,0,L|400:232,1,55
460,120,23543,6,0,P|414:89|377:48,1,110,2|0,0:0|0:0,0:0:0:0:
328,120,23952,1,0,0:0:0:0:
328,120,24088,2,0,P|300:123|273:122,1,55
173,45,24361,2,0,P|200:45|228:44,1,55,8|0,0:0|0:0,0:0:0:0:
216,188,24634,2,0,L|228:264,1,55
100,288,24906,1,0,0:0:0:0:
112,200,25043,1,0,0:0:0:0:
128,112,25179,6,0,P|180:96|236:56,1,110,2|0,0:0|0:0,0:0:0:0:
226,65,25588,1,0,0:0:0:0:
226,65,25724,1,0,0:0:0:0:
336,340,25997,6,0,B|364:316|420:316|420:316|384:284,1,115.49999647522,6|0,0:0|0:0,0:0:0:0:
464,232,26270,2,0,B|436:208|380:208|380:208|416:176,1,115.49999647522,4|0,0:0|0:0,0:0:0:0:
376,104,26543,1,4,0:0:0:0:
372,96,26679,1,4,0:0:0:0:
368,88,26815,6,0,L|240:92,1,110,2|0,0:0|0:0,0:0:0:0:
108,180,27361,1,0,0:0:0:0:
108,180,27497,1,0,0:0:0:0:
108,180,27634,2,0,L|162:176,1,55,8|0,0:0|0:0,0:0:0:0:
200,256,27906,2,0,L|254:252,1,55
292,332,28179,2,0,L|346:328,1,55
432,348,28452,6,0,P|444:304|420:224,1,110,2|0,0:0|0:0,0:0:0:0:
431,241,28861,1,0,0:0:0:0:
431,241,28997,1,0,0:0:0:0:
255,251,29270,2,0,P|228:254|201:253,1,55,8|0,0:0|0:0,0:0:0:0:
140,316,29543,2,0,P|117:299|99:278,1,55
16,252,29815,1,0,0:0:0:0:
16,252,29952,1,0,0:0:0:0:
16,252,30088,6,0,L|48:116,1,110,2|0,0:0|0:0,0:0:0:0:
41,144,30497,1,0,0:0:0:0:
41,144,30634,1,0,0:0:0:0:
200,72,30906,2,0,P|225:80|248:96,1,55,8|0,0:0|0:0,0:0:0:0:
188,160,31179,2,0,P|200:184|204:211,1,55
117,213,31452,2,0,P|108:238|92:261,1,55
128,340,31724,6,0,L|244:328,1,110,2|0,0:0|0:0,0:0:0:0:
412,360,32270,1,0,0:0:0:0:
360,192,32543,1,8,0:0:0:0:
360,192,32679,1,0,0:0:0:0:
360,192,32815,2,0,P|355:164|360:137,1,55
412,64,33088,2,0,P|395:41|373:25,1,55
300,72,33361,6,0,B|184:76,1,110,2|0,0:0|0:0,0:0:0:0:
116,28,33770,1,0,0:0:0:0:
40,72,33906,2,0,B|43:181,1,110,0|8,0:0|0:0,0:0:0:0:
108,244,34315,1,0,0:0:0:0:
183,200,34452,2,0,P|210:196|237:195,1,55
184,324,34724,2,0,P|156:327|129:328,1,55
259,283,34997,6,0,P|313:291|367:282,1,110,2|0,0:0|0:0,0:0:0:0:
432,340,35406,1,0,0:0:0:0:
504,199,35543,2,0,P|450:191|396:200,1,110,0|8,0:0|0:0,0:0:0:0:
316,160,35952,1,0,0:0:0:0:
300,72,36088,2,0,L|376:76,1,55
264,232,36361,2,0,L|209:234,1,55
184,44,36634,6,0,P|200:96|184:148,1,110,2|0,0:0|0:0,0:0:0:0:
112,96,37043,1,0,0:0:0:0:
48,156,37179,2,0,P|44:183|46:210,1,55
24,296,37452,2,0,L|152:288,1,110,8|0,0:0|0:0,0:0:0:0:
192,356,37861,1,0,0:0:0:0:
210,200,37997,2,0,L|156:204,1,55
375,103,38270,6,0,P|384:157|376:211,1,110,2|0,0:0|0:0,0:0:0:0:
291,235,38679,1,0,0:0:0:0:
207,255,38815,2,0,P|206:227|211:200,1,55
102,118,39088,2,0,L|212:112,1,110,8|0,0:0|0:0,0:0:0:0:
264,40,39497,1,0,0:0:0:0:
352,40,39634,2,0,P|358:66|361:94,1,55
438,286,39906,6,0,P|460:225|440:164,1,131.99999597168,12|0,0:0|0:0,0:0:0:0:
220,238,40315,2,0,L|352:224,1,131.99999597168,12|0,0:0|0:0,0:0:0:0:
312,124,40724,2,0,P|270:97|232:65,1,98.9999969787599,12|0,0:0|0:0,0:0:0:0:
148,44,40997,2,0,P|98:47|50:58,1,98.9999969787599,12|0,0:0|0:0,0:0:0:0:
50,58,41270,1,0,0:0:0:0:
28,196,41543,5,2,0:0:0:0:
137,346,41815,2,0,L|152:260,1,88
280,200,42361,2,0,L|328:200,1,44,2|0,0:0|0:0,0:0:0:0:
376,304,42634,2,0,L|332:304,1,44,2|0,0:0|0:0,0:0:0:0:
420,172,42906,2,0,L|468:172,1,44,2|0,0:0|0:0,0:0:0:0:
212,140,43179,6,0,P|202:75|223:13,1,131.99999597168,12|0,0:0|0:0,0:0:0:0:
420,172,43588,2,0,P|429:236|408:298,1,131.99999597168,12|0,0:0|0:0,0:0:0:0:
236,343,43997,2,0,P|267:304|304:272,1,98.9999969787599,12|0,0:0|0:0,0:0:0:0:
268,192,44270,2,0,P|270:142|264:93,1,98.9999969787599,12|0,0:0|0:0,0:0:0:0:
264,93,44543,1,0,0:0:0:0:
148,16,44815,5,2,0:0:0:0:
64,129,45088,2,0,P|104:148|148:156,1,88
27,268,45634,2,0,P|18:288|13:309,1,44,2|0,0:0|0:0,0:0:0:0:
170,371,45906,2,0,P|162:351|152:332,1,44,2|0,0:0|0:0,0:0:0:0:
216,208,46179,1,2,0:0:0:0:
216,208,46315,1,0,0:0:0:0:
216,208,46452,5,12,0:0:0:0:
128,56,46724,2,0,L|200:52,2,55,2|0|0,0:0|0:0|0:0,0:0:0:0:
92,228,47270,1,10,0:0:0:0:
256,288,47543,1,0,0:0:0:0:
412,208,47815,1,0,0:0:0:0:
412,208,47952,1,0,0:0:0:0:
412,208,48088,5,10,0:0:0:0:
380,36,48361,2,0,L|308:32,2,55,2|0|0,0:0|0:0|0:0,0:0:0:0:
412,208,48906,1,10,0:0:0:0:
240,164,49179,1,0,0:0:0:0:
288,332,49452,1,0,0:0:0:0:
288,332,49588,1,0,0:0:0:0:
288,332,49724,5,10,0:0:0:0:
412,208,49997,2,0,P|407:180|398:155,2,55
288,332,50543,1,2,0:0:0:0:
136,248,50815,1,0,0:0:0:0:
136,248,50952,1,0,0:0:0:0:
136,248,51088,2,0,L|200:240,1,55
228,160,51361,6,0,L|348:176,1,110,10|0,0:0|0:0,0:0:0:0:
337,174,51770,1,0,0:0:0:0:
337,174,51906,1,0,0:0:0:0:
492,92,52179,2,0,P|449:57|403:27,1,110,2|0,0:0|0:0,0:0:0:0:
236,84,52724,1,0,0:0:0:0:
236,84,52861,1,0,0:0:0:0:
236,84,52997,5,2,0:0:0:0:
112,152,53270,1,0,0:0:0:0:
232,224,53543,1,0,0:0:0:0:
360,16,53815,5,2,0:0:0:0:
236,84,54088,1,0,0:0:0:0:
356,156,54361,1,0,0:0:0:0:
356,156,54497,1,0,0:0:0:0:
356,156,54634,5,6,0:0:0:0:
232,224,54906,1,2,0:0:0:0:
352,296,55179,1,2,0:0:0:0:
356,156,55451,1,2,0:0:0:0:
356,156,56815,6,0,L|308:169,1,32.99999899292,2|0,0:0|0:0,0:0:0:0:
281,258,57088,2,0,L|313:249,1,32.99999899292,2|0,0:0|0:0,0:0:0:0:
243,183,57361,2,0,L|210:192,1,32.99999899292,2|0,0:0|0:0,0:0:0:0:
168,287,57634,2,0,L|215:273,1,32.99999899292,2|0,0:0|0:0,0:0:0:0:
227,56,57906,6,0,P|291:39|354:55,1,131.99999597168,6|0,0:0|0:0,0:0:0:0:
444,136,58315,1,2,0:0:0:0:
368,227,58452,2,0,P|352:290|368:354,1,131.99999597168,0|10,0:0|0:0,0:0:0:0:
472,288,58861,1,0,0:0:0:0:
240,352,58997,2,0,L|164:344,1,65.9999979858399,2|0,0:0|0:0,0:0:0:0:
66,242,59270,2,0,L|132:236,1,65.9999979858399,2|0,0:0|0:0,0:0:0:0:
183,62,59543,6,0,P|179:95|184:128,1,65.9999979858399,6|0,0:0|0:0,0:0:0:0:
328,229,59815,2,0,P|332:196|328:164,1,65.9999979858399,0|2,0:0|0:0,0:0:0:0:
135,330,60088,2,0,B|119:354|119:354|220:332,1,131.99999597168,0|10,0:0|0:0,0:0:0:0:
220,332,60497,1,0,0:0:0:0:
120,208,60634,2,0,P|88:199|58:184,1,65.9999979858399,2|0,0:0|0:0,0:0:0:0:
259,89,60906,2,0,P|230:105|199:115,1,65.9999979858399,2|0,0:0|0:0,0:0:0:0:
228,297,61179,6,0,L|240:232,1,65.9999979858399,6|0,0:0|0:0,0:0:0:0:
400,136,61452,2,0,L|388:70,1,65.9999979858399,0|2,0:0|0:0,0:0:0:0:
360,248,61724,2,0,P|424:252|496:208,1,131.99999597168,0|10,0:0|0:0,0:0:0:0:
483,221,62134,1,0,0:0:0:0:
348,28,62270,2,0,L|359:93,1,65.9999979858399,2|0,0:0|0:0,0:0:0:0:
344,264,62543,1,2,0:0:0:0:
144,136,62679,1,0,0:0:0:0:
433,127,62815,6,0,B|393:111|337:119|337:119|359:92,1,131.99999597168,6|0,0:0|0:0,0:0:0:0:
376,236,63224,1,2,0:0:0:0:
255,31,63361,2,0,P|222:27|189:30,1,65.9999979858399
185,271,63634,2,0,L|220:144,1,131.99999597168,14|2,0:0|0:0,0:0:0:0:
100,156,64043,1,0,0:0:0:0:
4,84,64179,2,0,P|32:56|80:36,1,65.9999979858399,2|0,0:0|0:0,0:0:0:0:
238,80,64452,6,0,L|219:143,1,65.9999979858399,6|0,0:0|0:0,0:0:0:0:
346,303,64724,2,0,L|328:240,1,65.9999979858399,0|2,0:0|0:0,0:0:0:0:
100,156,64997,2,0,L|81:219,1,65.9999979858399
392,226,65270,2,0,P|359:230|327:239,1,65.9999979858399,10|0,0:0|0:0,0:0:0:0:
181,279,65543,2,0,P|207:299|236:316,1,65.9999979858399,2|0,0:0|0:0,0:0:0:0:
272,132,65815,2,0,P|267:99|258:67,1,65.9999979858399,2|0,0:0|0:0,0:0:0:0:
36,200,66088,6,0,B|84:200|84:200|120:184|120:184|164:184,1,131.99999597168,6|0,0:0|0:0,0:0:0:0:
264,252,66497,1,2,0:0:0:0:
338,132,66634,2,0,L|272:132,1,65.9999979858399
224,304,66906,2,0,P|242:276|264:252,1,65.9999979858399,10|0,0:0|0:0,0:0:0:0:
98,193,67179,2,0,P|131:186|164:184,1,65.9999979858399,2|0,0:0|0:0,0:0:0:0:
401,355,67452,2,0,L|336:348,1,65.9999979858399,2|0,0:0|0:0,0:0:0:0:
101,318,67724,6,0,P|117:255|98:193,1,131.99999597168,6|0,0:0|0:0,0:0:0:0:
20,100,68134,1,2,0:0:0:0:
169,17,68270,2,0,L|104:20,1,65.9999979858399
288,232,68543,2,0,B|328:232|380:200|380:200|376:233,1,131.99999597168,14|2,0:0|0:0,0:0:0:0:
344,348,68952,1,0,0:0:0:0:
148,351,69088,2,0,P|164:322|184:296,1,65.9999979858399,2|0,0:0|0:0,0:0:0:0:
300,120,69361,6,0,P|236:135|171:128,1,131.99999597168,6|0,0:0|0:0,0:0:0:0:
104,28,69770,1,2,0:0:0:0:
396,44,69906,2,0,P|412:72|422:103,1,65.9999979858399
352,276,70179,2,0,P|360:244|376:216,1,65.9999979858399,10|0,0:0|0:0,0:0:0:0:
234,114,70452,2,0,L|322:122,1,65.9999979858399,2|0,0:0|0:0,0:0:0:0:
472,292,70724,1,6,0:0:0:0:
312,108,70861,1,0,0:0:0:0:
277,318,70997,6,0,B|253:298|253:298|351:275,1,131.99999597168,6|0,0:0|0:0,0:0:0:0:
472,292,71406,1,2,0:0:0:0:
348,152,71543,2,0,P|411:167|474:152,1,131.99999597168,0|10,0:0|0:0,0:0:0:0:
412,52,71952,1,0,0:0:0:0:
232,120,72088,2,0,P|227:152|231:185,1,65.9999979858399,2|0,0:0|0:0,0:0:0:0:
381,268,72361,2,0,P|348:264|316:268,1,65.9999979858399,2|0,0:0|0:0,0:0:0:0:
132,336,72634,6,0,L|144:272,1,65.9999979858399,6|0,0:0|0:0,0:0:0:0:
28,147,72906,2,0,L|40:212,1,65.9999979858399,0|2,0:0|0:0,0:0:0:0:
224,48,73179,2,0,P|160:32|97:47,1,131.99999597168,0|10,0:0|0:0,0:0:0:0:
160,148,73588,1,0,0:0:0:0:
331,211,73724,2,0,P|305:190|276:176,1,65.9999979858399,2|0,0:0|0:0,0:0:0:0:
156,294,73997,2,0,P|188:290|220:280,1,65.9999979858399,2|0,0:0|0:0,0:0:0:0:
480,120,74270,6,0,L|408:124,1,65.9999979858399,6|0,0:0|0:0,0:0:0:0:
372,324,74543,2,0,L|437:320,1,65.9999979858399,0|2,0:0|0:0,0:0:0:0:
309,63,74815,2,0,P|292:126|312:188,1,131.99999597168,0|14,0:0|0:0,0:0:0:0:
414,123,75224,1,0,0:0:0:0:
440,240,75361,2,0,P|444:272|442:305,1,65.9999979858399,2|0,0:0|0:0,0:0:0:0:
276,352,75634,1,2,0:0:0:0:
404,140,75770,1,0,0:0:0:0:
120,72,75906,6,0,L|256:56,1,131.99999597168,6|0,0:0|0:0,0:0:0:0:
64,180,76315,1,2,0:0:0:0:
167,313,76452,2,0,P|167:280|160:248,1,65.9999979858399
315,147,76724,2,0,B|183:111|211:183|263:159,1,131.99999597168,10|2,0:0|0:0,0:0:0:0:
304,268,77134,1,0,0:0:0:0:
400,64,77270,2,0,P|369:52|342:33,1,65.9999979858399,6|0,0:0|0:0,0:0:0:0:
140,88,77543,6,0,P|123:152|151:224,1,131.99999597168,6|0,0:0|0:0,0:0:0:0:
243,148,77952,1,2,0:0:0:0:
320,56,78088,2,0,L|392:60,1,65.9999979858399
405,219,78361,2,0,P|421:191|440:164,1,65.9999979858399,10|0,0:0|0:0,0:0:0:0:
220,44,78634,2,0,P|238:71|254:99,1,65.9999979858399,2|0,0:0|0:0,0:0:0:0:
252,272,78906,2,0,P|268:243|286:216,1,65.9999979858399,2|0,0:0|0:0,0:0:0:0:
70,124,79179,6,0,L|136:132,1,65.9999979858399,6|0,0:0|0:0,0:0:0:0:
351,207,79452,2,0,L|286:215,1,65.9999979858399,0|2,0:0|0:0,0:0:0:0:
158,308,79724,2,0,L|224:316,1,65.9999979858399
414,171,79997,2,0,P|360:150|350:207,1,131.99999597168,10|2,0:0|0:0,0:0:0:0:
436,288,80406,1,0,0:0:0:0:
484,64,80543,2,0,P|448:60|392:44,1,65.9999979858399,2|0,0:0|0:0,0:0:0:0:
248,128,80815,6,0,L|102:141,1,131.99999597168,6|0,0:0|0:0,0:0:0:0:
64,248,81224,1,2,0:0:0:0:
48,40,81361,2,0,L|113:33,1,65.9999979858399,4|0,0:0|0:0,0:0:0:0:
234,209,81634,2,0,B|256:229|256:229|246:109,1,131.99999597168,14|2,0:0|0:0,0:0:0:0:
324,36,82043,1,0,0:0:0:0:
140,76,82179,2,0,P|107:75|74:70,1,65.9999979858399,6|0,0:0|0:0,0:0:0:0:
363,207,82452,6,0,P|291:219|219:203,1,131.99999597168,6|0,0:0|0:0,0:0:0:0:
140,284,82861,1,2,0:0:0:0:
32,236,82997,2,0,L|44:160,1,65.9999979858399
152,8,83270,2,0,P|172:69|153:131,1,131.99999597168,10|2,0:0|0:0,0:0:0:0:
256,192,83679,1,0,0:0:0:0:
401,100,83815,2,0,L|336:104,1,65.9999979858399,2|0,0:0|0:0,0:0:0:0:
256,192,84088,5,6,0:0:0:0:
256,192,84224,1,0,0:0:0:0:
344,272,84361,2,0,P|361:299|374:330,1,65.9999979858399,0|2,0:0|0:0,0:0:0:0:
137,330,84634,2,0,P|150:299|168:272,1,65.9999979858399
196,104,84906,2,0,P|172:88|136:52,1,65.9999979858399,10|0,0:0|0:0,0:0:0:0:
367,62,85179,2,0,P|343:85|316:104,1,65.9999979858399,2|0,0:0|0:0,0:0:0:0:
38,187,85452,2,0,L|104:184,1,65.9999979858399,2|0,0:0|0:0,0:0:0:0:
360,234,85724,6,0,P|297:251|239:223,1,131.99999597168,6|0,0:0|0:0,0:0:0:0:
323,7,86134,2,0,P|340:69|312:128,1,131.99999597168,2|0,0:0|0:0,0:0:0:0:
150,52,86543,2,0,P|183:52|216:56,1,65.9999979858399,10|0,0:0|0:0,0:0:0:0:
240,224,86815,2,0,P|207:224|174:220,1,65.9999979858399,2|0,0:0|0:0,0:0:0:0:
22,132,87088,2,0,P|55:132|88:136,1,65.9999979858399,2|0,0:0|0:0,0:0:0:0:
76,368,87361,6,0,L|86:302,1,65.9999979858399,6|0,0:0|0:0,0:0:0:0:
240,224,87634,2,0,L|229:158,1,65.9999979858399,0|2,0:0|0:0,0:0:0:0:
88,136,87906,1,4,0:0:0:0:
204,340,88043,1,0,0:0:0:0:
444,264,88179,2,0,P|448:231|443:198,1,65.9999979858399,14|0,0:0|0:0,0:0:0:0:
228,93,88452,2,0,P|224:126|229:159,1,65.9999979858399,2|0,0:0|0:0,0:0:0:0:
76,304,88724,2,0,L|152:300,1,65.9999979858399,6|0,0:0|0:0,0:0:0:0:
304,360,88997,5,6,0:0:0:0:
