osu file format v14

[General]
AudioFilename: audio.mp3
AudioLeadIn: 0
PreviewTime: 44181
Countdown: 0
SampleSet: Soft
StackLeniency: 0.2
Mode: 0
LetterboxInBreaks: 0
WidescreenStoryboard: 1

[Editor]
DistanceSpacing: 1.4
BeatDivisor: 4
GridSize: 16
TimelineZoom: 2.1

[Metadata]
Title:Katayoku no Tori
TitleUnicode:片翼の鳥
Artist:Shikata Akiko
ArtistUnicode:志方あきこ
Creator:Nelliel
Version:hs
Source:うみねこのなく頃に
Tags:umineko no naku koro opening ni When They Cry anime girl op
BeatmapID:1962164
BeatmapSetID:939396

[Difficulty]
HPDrainRate:0
CircleSize:2
OverallDifficulty:0
ApproachRate:10
SliderMultiplier:2
SliderTickRate:1

[Events]
//Background and Video events
0,0,"yeeye.jpg",0,0
//Break Periods
//Storyboard Layer 0 (Background)
//Storyboard Layer 1 (Fail)
//Storyboard Layer 2 (Pass)
//Storyboard Layer 3 (Foreground)
//Storyboard Sound Samples

[TimingPoints]
1177,272.727272727273,3,2,1,70,1,0
1177,-100,3,2,1,70,0,0
14267,-100,3,2,1,50,0,0
27358,-100,3,2,1,75,0,0
28722,-100,3,2,1,45,0,0
30631,-100,3,2,1,75,0,0
31995,-100,3,2,1,45,0,0
42086,-100,3,2,1,55,0,0
44181,300,6,2,1,50,1,0
45324,272.727272727273,6,2,3,70,1,0
45324,-100,6,2,3,75,0,0

[Colours]
Combo1 : 255,192,0
Combo2 : 125,0,251
Combo3 : 215,0,215
Combo4 : 225,113,0

[HitObjects]
256,192,1177,5,14,0:3:0:0:
256,192,1586,1,2,0:2:0:0:
256,192,1995,1,2,0:2:0:0:
256,192,2267,1,2,0:2:0:0:
256,192,2540,1,2,0:2:0:0:
256,192,2813,1,8,0:3:0:0:
256,192,3222,1,2,0:2:0:0:
256,192,3631,1,2,0:0:0:0:
256,192,3904,1,2,0:3:0:0:
256,192,4177,1,8,0:3:0:0:
256,192,4313,1,8,0:3:0:0:
256,192,4449,1,14,0:3:0:0:
256,192,4858,1,2,0:2:0:0:
256,192,5267,1,2,0:0:0:0:
256,192,5540,1,0,0:0:0:0:
256,192,5813,1,0,0:0:0:0:
256,192,6086,1,10,0:3:0:0:
256,192,6358,1,2,0:2:0:0:
256,192,6631,1,0,0:2:0:0:
256,192,6904,1,10,0:3:0:0:
256,192,7177,1,0,0:0:0:0:
256,192,7449,1,8,0:3:0:0:
256,192,7586,1,8,0:3:0:0:
256,192,7722,5,14,0:3:0:0:
256,192,8131,1,2,0:2:0:0:
256,192,8540,1,2,0:2:0:0:
256,192,8812,1,2,0:2:0:0:
256,192,9085,1,2,0:2:0:0:
256,192,9358,1,8,0:3:0:0:
256,192,9767,1,2,0:2:0:0:
256,192,10176,1,2,0:0:0:0:
256,192,10449,1,2,0:3:0:0:
256,192,10722,1,8,0:3:0:0:
256,192,10858,1,8,0:3:0:0:
256,192,10994,1,14,0:3:0:0:
256,192,11403,1,2,0:2:0:0:
256,192,11812,1,2,0:0:0:0:
256,192,12085,1,0,0:0:0:0:
256,192,12358,1,0,0:0:0:0:
256,192,12631,1,10,0:3:0:0:
256,192,12903,1,2,0:2:0:0:
256,192,13176,1,0,0:2:0:0:
256,192,13449,1,10,0:3:0:0:
256,192,13586,1,0,0:0:0:0:
256,192,13722,1,2,0:2:0:0:
256,192,13858,1,0,0:0:0:0:
256,192,13994,1,10,0:0:0:0:
256,192,14131,1,8,0:3:0:0:
256,192,14267,1,10,0:3:0:0:
256,192,14813,1,2,0:2:0:0:
256,192,15086,1,2,0:2:0:0:
256,192,15358,1,2,0:2:0:0:
256,192,15631,1,0,0:2:0:0:
256,192,15904,1,10,0:3:0:0:
256,192,16313,1,2,0:0:0:0:
256,192,16449,1,2,0:0:0:0:
256,192,16722,1,2,0:3:0:0:
256,192,16858,1,2,0:0:0:0:
256,192,16995,1,2,0:0:0:0:
256,192,17131,1,0,0:0:0:0:
256,192,17267,1,10,0:3:0:0:
256,192,17404,1,2,0:0:0:0:
256,192,17540,1,10,0:3:0:0:
256,192,17949,1,2,0:0:0:0:
256,192,18086,1,2,0:0:0:0:
256,192,18358,1,2,0:0:0:0:
256,192,18631,1,2,0:0:0:0:
256,192,18904,1,0,0:0:0:0:
256,192,19177,1,10,0:3:0:0:
256,192,19722,1,0,0:0:0:0:
256,192,19995,1,2,0:3:0:0:
256,192,20131,1,2,0:0:0:0:
256,192,20267,1,2,0:0:0:0:
256,192,20404,1,0,0:0:0:0:
256,192,20540,1,10,0:3:0:0:
256,192,20677,1,2,0:0:0:0:
256,192,20813,1,10,0:3:0:0:
256,192,21222,1,2,0:0:0:0:
256,192,21358,1,2,0:0:0:0:
256,192,21631,1,2,0:0:0:0:
256,192,22449,1,2,0:0:0:0:
256,192,22858,1,2,0:0:0:0:
256,192,22995,1,2,0:0:0:0:
256,192,23267,1,2,0:0:0:0:
256,192,23540,1,2,0:0:0:0:
256,192,23813,1,0,0:0:0:0:
256,192,24086,1,2,0:3:0:0:
256,192,24631,1,0,0:0:0:0:
256,192,24904,1,2,0:3:0:0:
256,192,25449,1,0,0:0:0:0:
256,192,25722,1,2,0:3:0:0:
256,192,26540,1,2,0:3:0:0:
256,192,27222,1,2,0:0:0:0:
256,192,27358,1,14,0:3:0:0:
256,192,27767,1,10,0:3:0:0:
256,192,28177,1,10,0:3:0:0:
256,192,28449,1,10,0:3:0:0:
256,192,28722,1,2,0:0:0:0:
256,192,28995,1,2,0:0:0:0:
256,192,29267,1,2,0:0:0:0:
256,192,29540,1,2,0:0:0:0:
256,192,29813,1,2,0:0:0:0:
256,192,30086,1,2,0:0:0:0:
256,192,30358,1,2,0:2:0:0:
256,192,30631,1,14,0:3:0:0:
256,192,31040,1,10,0:3:0:0:
256,192,31449,1,10,0:3:0:0:
256,192,31722,1,10,0:3:0:0:
256,192,31995,1,2,0:0:0:0:
256,192,32267,1,2,0:0:0:0:
256,192,32540,1,2,0:0:0:0:
256,192,32813,1,2,0:0:0:0:
256,192,33086,1,2,0:0:0:0:
256,192,33358,1,2,0:0:0:0:
256,192,33631,1,0,0:0:0:0:
256,192,33904,1,6,0:0:0:0:
256,192,34722,1,2,0:0:0:0:
256,192,34995,1,2,0:0:0:0:
256,192,35267,1,2,0:0:0:0:
256,192,35540,1,2,0:0:0:0:
256,192,36358,1,2,0:0:0:0:
256,192,36631,1,2,0:0:0:0:
256,192,36904,1,2,0:0:0:0:
256,192,37177,1,10,0:2:0:0:
256,192,37586,1,2,0:0:0:0:
256,192,37722,1,2,0:0:0:0:
256,192,37995,1,10,0:0:0:0:
256,192,38404,1,2,0:0:0:0:
256,192,38540,1,2,0:0:0:0:
256,192,38813,1,10,0:0:0:0:
256,192,39631,1,2,0:0:0:0:
256,192,40177,1,2,0:0:0:0:
256,192,40449,1,6,0:0:0:0:
256,192,42086,1,14,0:0:0:0:
256,192,44181,1,2,0:0:0:0:
256,192,44481,1,2,0:0:0:0:
256,192,44781,1,2,0:0:0:0:
256,192,45081,1,2,0:0:0:0:
256,192,45324,1,14,0:3:0:0:
256,192,46414,1,2,0:3:0:0:
256,192,46687,1,2,0:3:0:0:
256,192,46960,1,10,0:3:0:0:
256,192,47233,1,0,0:0:0:0:
256,192,47505,1,2,0:0:0:0:
256,192,47778,1,0,0:0:0:0:
256,192,48051,1,2,0:0:0:0:
256,192,48324,1,2,0:0:0:0:
256,192,48460,1,8,0:3:0:0:
256,192,48596,1,10,0:3:0:0:
256,192,48869,1,2,0:0:0:0:
256,192,49142,1,2,0:0:0:0:
256,192,49960,1,2,0:0:0:0:
256,192,50233,1,10,0:3:0:0:
256,192,51051,1,10,0:3:0:0:
256,192,51596,1,2,0:0:0:0:
256,192,51733,1,10,0:3:0:0:
256,192,51869,1,10,0:3:0:0:
256,192,52142,1,2,0:0:0:0:
256,192,52414,1,2,0:0:0:0:
256,192,52687,1,10,0:3:0:0:
256,192,52960,1,2,0:0:0:0:
256,192,53233,1,2,0:0:0:0:
256,192,53505,1,10,0:3:0:0:
256,192,53778,1,2,0:0:0:0:
256,192,54051,1,2,0:0:0:0:
256,192,54324,1,0,0:0:0:0:
256,192,54596,1,0,0:0:0:0:
256,192,54869,1,2,0:0:0:0:
256,192,55005,1,10,0:3:0:0:
256,192,55142,1,10,0:3:0:0:
256,192,55687,1,2,0:0:0:0:
256,192,55960,1,10,0:3:0:0:
256,192,56505,1,0,0:0:0:0:
256,192,56778,1,10,0:3:0:0:
256,192,57324,1,2,0:0:0:0:
256,192,57596,1,2,0:0:0:0:
256,192,57869,1,2,0:0:0:0:
256,192,58142,1,2,0:0:0:0:
256,192,58278,1,10,0:3:0:0:
256,192,58414,1,14,0:3:0:0:
256,192,59504,1,2,0:3:0:0:
256,192,59777,1,2,0:3:0:0:
256,192,60050,1,10,0:3:0:0:
256,192,60323,1,0,0:0:0:0:
256,192,60595,1,2,0:0:0:0:
256,192,60868,1,0,0:0:0:0:
256,192,61141,1,2,0:0:0:0:
256,192,61414,1,2,0:0:0:0:
256,192,61551,1,10,0:3:0:0:
256,192,61686,1,10,0:3:0:0:
256,192,61959,1,2,0:0:0:0:
256,192,62233,1,2,0:0:0:0:
256,192,62505,1,2,0:0:0:0:
256,192,63050,1,0,0:0:0:0:
256,192,63323,1,10,0:3:0:0:
256,192,64141,1,10,0:3:0:0:
256,192,64687,1,2,0:0:0:0:
256,192,64824,1,10,0:3:0:0:
256,192,64959,1,10,0:3:0:0:
256,192,65232,1,0,0:0:0:0:
256,192,65505,1,0,0:0:0:0:
256,192,65777,1,10,0:3:0:0:
256,192,66050,1,0,0:0:0:0:
256,192,66323,1,0,0:0:0:0:
256,192,66596,1,10,0:3:0:0:
256,192,66868,1,2,0:0:0:0:
256,192,67141,1,2,0:0:0:0:
256,192,67414,1,10,0:3:0:0:
256,192,67686,1,0,0:0:0:0:
256,192,67959,1,2,0:0:0:0:
256,192,68095,1,10,0:3:0:0:
256,192,68232,1,10,0:3:0:0:
256,192,68777,1,2,0:0:0:0:
256,192,69051,1,10,0:3:0:0:
256,192,69595,1,0,0:0:0:0:
256,192,69868,1,10,0:3:0:0:
256,192,70414,1,2,0:0:0:0:
256,192,70686,1,2,0:0:0:0:
256,192,70959,1,2,0:0:0:0:
256,192,71233,1,2,0:0:0:0:
256,192,71368,1,10,0:3:0:0:
256,192,71505,1,14,0:3:0:0:
256,192,71778,1,0,0:0:0:0:
256,192,72051,1,0,0:0:0:0:
256,192,72324,1,2,0:0:0:0:
256,192,72596,1,0,0:0:0:0:
256,192,72869,1,0,0:0:0:0:
256,192,73142,1,10,0:3:0:0:
256,192,73414,1,0,0:0:0:0:
256,192,73687,1,0,0:0:0:0:
256,192,73960,1,2,0:0:0:0:
256,192,74233,1,0,0:0:0:0:
256,192,74505,1,0,0:0:0:0:
256,192,74778,1,10,0:3:0:0:
256,192,75051,1,2,0:0:0:0:
256,192,75324,1,2,0:0:0:0:
256,192,75596,1,10,0:3:0:0:
256,192,75869,1,2,0:0:0:0:
256,192,76142,1,2,0:0:0:0:
256,192,76414,1,10,0:3:0:0:
256,192,76687,1,2,0:0:0:0:
256,192,76960,1,2,0:0:0:0:
256,192,77233,1,10,0:3:0:0:
256,192,77505,1,2,0:0:0:0:
256,192,77778,1,0,0:0:0:0:
256,192,77914,1,10,0:3:0:0:
256,192,78051,1,14,0:3:0:0:
256,192,78324,1,0,0:0:0:0:
256,192,78597,1,0,0:0:0:0:
256,192,78870,1,2,0:0:0:0:
256,192,79142,1,0,0:0:0:0:
256,192,79415,1,0,0:0:0:0:
256,192,79688,1,10,0:3:0:0:
256,192,79960,1,0,0:0:0:0:
256,192,80233,1,0,0:0:0:0:
256,192,80506,1,2,0:0:0:0:
256,192,80779,1,0,0:0:0:0:
256,192,81051,1,0,0:0:0:0:
256,192,81324,1,10,0:3:0:0:
256,192,81597,1,2,0:0:0:0:
256,192,81870,1,2,0:0:0:0:
256,192,82142,1,10,0:3:0:0:
256,192,82415,1,2,0:0:0:0:
256,192,82688,1,2,0:0:0:0:
256,192,82960,1,10,0:3:0:0:
256,192,83233,1,2,0:0:0:0:
256,192,83506,1,2,0:0:0:0:
256,192,83779,1,10,0:3:0:0:
256,192,84051,1,2,0:0:0:0:
256,192,84324,1,0,0:0:0:0:
256,192,84460,1,10,0:3:0:0:
256,192,84597,1,10,0:3:0:0:
