osu file format v14

[General]
AudioFilename: audio.mp3
AudioLeadIn: 0
PreviewTime: 57087
Countdown: 0
SampleSet: Soft
StackLeniency: 0.3
Mode: 0
LetterboxInBreaks: 0
WidescreenStoryboard: 0

[Editor]
Bookmarks: 56658,140132,179405,248132
DistanceSpacing: 2
BeatDivisor: 4
GridSize: 16
TimelineZoom: 1.7

[Metadata]
Title:Katayoku no Tori
TitleUnicode:片翼の鳥
Artist:Shikata Akiko
ArtistUnicode:志方あきこ
Creator:IceKalt
Version:Rio & Ice's Insane
Source:うみねこのなく頃に
Tags:opening japanese blue 古戸 ヱリカ furudo erika umineko no naku koro ni sakurauchi_riko phyloukz imoutosan fushimi_rio loreley namki italian 波乃 渉 namino wataru
BeatmapID:1361543
BeatmapSetID:622500

[Difficulty]
HPDrainRate:6.1
CircleSize:3.5
OverallDifficulty:7.5
ApproachRate:8.9
SliderMultiplier:1.6
SliderTickRate:1

[Events]
//Background and Video events
0,0,"Umineko 1.jpg",0,0
//Break Periods
2,91242,102496
2,176332,178587
2,205787,216222
//Storyboard Layer 0 (Background)
//Storyboard Layer 1 (Fail)
//Storyboard Layer 2 (Pass)
//Storyboard Layer 3 (Foreground)
//Storyboard Sound Samples

[TimingPoints]
1042,272.727272727273,3,2,2,100,1,0
2678,-100,3,2,1,80,0,0
3087,-100,3,2,1,100,0,0
4042,-100,3,2,1,80,0,0
4178,-100,3,2,1,100,0,0
4314,-100,3,2,1,80,0,0
4723,-100,3,2,1,100,0,0
5951,-100,3,2,1,80,0,0
6223,-100,3,2,1,100,0,0
7314,-100,3,2,1,80,0,0
7451,-100,3,2,1,100,0,0
7587,-100,3,2,2,100,0,0
7996,-100,3,2,1,100,0,0
9223,-100,3,2,1,80,0,0
9632,-100,3,2,1,100,0,0
10587,-100,3,2,1,80,0,0
10723,-100,3,2,1,100,0,0
10860,-100,3,2,1,80,0,0
11678,-100,3,2,1,100,0,0
12496,-100,3,2,1,80,0,0
13587,-100,3,2,1,100,0,0
14132,-133.333333333333,3,2,2,60,0,0
20678,-133.333333333333,3,2,1,60,0,0
26405,-100,3,2,2,50,0,0
27223,-133.333333333333,3,2,1,60,0,0
38678,-100,3,2,1,60,0,0
40314,-66.6666666666667,3,2,2,100,0,0
41678,-66.6666666666667,3,2,1,100,0,0
41951,-66.6666666666667,3,2,1,70,0,0
43587,-66.6666666666667,3,2,2,80,0,0
44951,-66.6666666666667,3,2,1,60,0,0
46860,-133.333333333333,3,2,2,50,0,0
50132,-100,3,2,2,50,0,0
53951,-100,3,2,1,60,0,0
54223,-100,3,2,1,70,0,0
54496,-100,3,2,1,75,0,0
54769,-100,3,2,2,80,0,0
55042,-100,3,2,2,50,0,0
56610,-100,3,2,2,40,0,0
56678,-100,3,2,2,5,0,0
57177,285.714285714286,3,2,2,5,1,0
58314,272.727272727273,3,2,2,100,1,1
58587,-100,3,2,1,100,0,1
59951,-100,3,2,1,80,0,1
60223,-100,3,2,1,100,0,1
61587,-100,3,2,1,80,0,1
61860,-100,3,2,1,100,0,1
63223,-100,3,2,1,80,0,1
63496,-100,3,2,1,100,0,1
64860,-100,3,2,1,80,0,1
65132,-100,3,2,1,100,0,1
66496,-100,3,2,1,80,0,1
66769,-100,3,2,1,100,0,1
68132,-66.6666666666667,3,2,1,80,0,1
68405,-66.6666666666667,3,2,1,100,0,1
68951,-100,3,2,1,80,0,1
69223,-66.6666666666667,3,2,1,100,0,1
69769,-100,3,2,1,80,0,1
70042,-100,3,2,1,100,0,1
70587,-100,3,2,1,80,0,1
70860,-100,3,2,1,100,0,1
71405,-100,3,2,2,80,0,1
71678,-100,3,2,1,100,0,1
73042,-100,3,2,1,80,0,1
73314,-100,3,2,1,100,0,1
74678,-100,3,2,1,80,0,1
74951,-100,3,2,1,100,0,1
76314,-100,3,2,1,80,0,1
76587,-100,3,2,1,100,0,1
77951,-100,3,2,1,80,0,1
78360,-100,3,2,1,100,0,1
78769,-100,3,2,1,80,0,1
78905,-100,3,2,1,100,0,1
79042,-100,3,2,1,80,0,1
79178,-100,3,2,1,100,0,1
79587,-100,3,2,1,80,0,1
79723,-100,3,2,1,100,0,1
79860,-100,3,2,1,80,0,1
79996,-100,3,2,1,100,0,1
81223,-100,3,2,1,80,0,1
81496,-100,3,2,1,100,0,1
82042,-100,3,2,1,80,0,1
82178,-100,3,2,1,100,0,1
82860,-100,3,2,1,80,0,1
83132,-100,3,2,1,100,0,1
83678,-100,3,2,1,80,0,1
83882,-100,3,2,1,5,0,1
83951,-100,3,2,1,80,0,1
84155,-100,3,2,1,5,0,1
84223,-100,3,2,1,100,0,0
84769,-100,3,2,1,75,0,0
89405,-100,3,2,1,80,0,0
89678,-100,3,2,1,50,0,0
90428,-100,3,2,1,5,0,0
90496,-100,3,2,1,50,0,0
90701,-100,3,2,1,5,0,0
90769,-100,3,2,1,50,0,0
90973,-100,3,2,1,5,0,0
91042,-100,3,2,1,70,0,0
104132,-142.857142857143,3,2,1,50,0,0
110678,-133.333333333333,3,2,1,45,0,0
122132,-100,3,2,1,45,0,0
123632,-100,3,2,2,75,0,0
123701,-100,3,2,2,5,0,0
123769,-66.6666666666667,3,2,2,75,0,0
124518,-66.6666666666667,3,2,2,5,0,0
124586,-66.6666666666667,3,2,2,75,0,0
125132,-66.6666666666667,3,2,1,50,0,0
125405,-100,3,2,1,50,0,0
127042,-66.6666666666667,3,2,2,75,0,0
127792,-66.6666666666667,3,2,2,5,0,0
127860,-66.6666666666667,3,2,2,75,0,0
128405,-66.6666666666667,3,2,1,50,0,0
128678,-100,3,2,1,50,0,0
136859,-133.333333333333,3,2,1,50,0,0
137678,-100,3,2,1,70,0,0
137951,-100,3,2,1,75,0,0
138223,-100,3,2,1,80,0,0
139073,272.727272727273,3,2,1,80,1,0
140132,272.727272727273,3,2,2,90,1,0
140405,-100,6,2,1,90,0,0
141769,-100,6,2,1,75,0,0
142042,-100,6,2,1,90,0,0
143405,-100,6,2,1,75,0,0
143678,-100,6,2,1,90,0,0
145042,-100,6,2,1,75,0,0
145314,-100,6,2,1,90,0,0
146678,-100,6,2,1,75,0,0
146814,-100,6,2,1,90,0,0
148314,-100,6,2,1,75,0,0
148451,-100,6,2,1,90,0,0
149951,-76.9230769230769,6,2,1,75,0,0
150360,-76.9230769230769,6,2,1,90,0,0
150769,-100,6,2,1,90,0,0
151587,-100,6,2,1,75,0,0
151860,-100,6,2,1,90,0,0
153223,-100,6,2,2,75,0,0
153496,-100,6,2,1,90,0,0
154860,-100,6,2,1,75,0,0
155132,-100,6,2,1,90,0,0
156496,-100,6,2,1,75,0,0
156769,-100,6,2,1,90,0,0
158132,-100,6,2,1,75,0,0
158678,-100,6,2,1,90,0,0
158951,-100,6,2,1,75,0,0
159360,-100,6,2,1,90,0,0
159769,-100,6,2,1,75,0,0
160178,-100,6,2,1,90,0,0
161405,-100,6,2,1,75,0,0
161542,-100,6,2,1,90,0,0
163042,-100,6,2,1,75,0,0
163314,-100,6,2,1,90,0,0
163860,-100,6,2,1,75,0,0
164132,-100,6,2,1,90,0,0
164678,-100,6,2,1,75,0,0
164951,-100,6,2,1,90,0,0
165496,-100,6,2,1,75,0,0
166042,-100,6,2,1,75,0,0
166314,-133.333333333333,6,2,1,50,0,0
166587,-133.333333333333,6,2,1,40,0,0
167813,-133.333333333333,6,2,1,5,0,0
167951,-133.333333333333,6,2,1,45,0,0
168223,-133.333333333333,6,2,1,40,0,0
169451,-133.333333333333,6,2,1,5,0,0
169587,-133.333333333333,6,2,1,50,0,0
170132,-133.333333333333,6,2,1,40,0,0
171155,-133.333333333333,6,2,1,5,0,0
171223,-133.333333333333,6,2,1,40,0,0
172042,-133.333333333333,6,2,1,30,0,0
172314,-133.333333333333,6,2,1,20,0,0
172587,-133.333333333333,6,2,1,10,0,0
172860,-100,6,2,1,60,0,0
173678,-100,6,2,1,50,0,0
174496,-100,6,2,1,40,0,0
175042,-100,6,2,1,30,0,0
175587,-100,6,2,1,20,0,0
175860,-100,6,2,1,10,0,0
179405,-200,6,2,1,70,0,0
192496,-200,6,2,1,50,0,0
205587,-100,6,2,1,70,0,0
220041,-100,6,2,1,50,0,0
220313,-100,6,2,1,20,0,0
220811,285.714285714286,3,2,1,40,1,0
221951,272.727272727273,3,2,2,100,1,1
221951,-66.6666666666667,6,2,2,100,0,1
222223,-66.6666666666667,6,2,1,80,0,1
222360,-100,6,2,1,100,0,1
223587,-100,6,2,1,80,0,1
223860,-100,6,2,1,100,0,1
225223,-100,6,2,1,80,0,1
225496,-100,6,2,1,100,0,1
226860,-100,6,2,1,80,0,1
227132,-100,6,2,1,100,0,1
228496,-100,6,2,1,80,0,1
228769,-100,6,2,1,100,0,1
230132,-100,6,2,1,80,0,1
230269,-100,6,2,1,100,0,1
231769,-100,6,2,1,80,0,1
232041,-100,6,2,1,100,0,1
232587,-100,6,2,1,80,0,1
232860,-100,6,2,1,100,0,1
233405,-100,6,2,1,80,0,1
233678,-100,6,2,1,100,0,1
235041,-100,6,2,2,80,0,1
235314,-100,6,2,1,100,0,1
236678,-100,6,2,1,80,0,1
236951,-100,6,2,1,100,0,1
238314,-100,6,2,1,80,0,1
238587,-100,6,2,1,100,0,1
239951,-100,6,2,1,80,0,1
240223,-100,6,2,1,100,0,1
241587,-100,6,2,1,80,0,1
241860,-100,6,2,1,100,0,1
242405,-100,6,2,1,80,0,1
242541,-100,6,2,1,100,0,1
243223,-100,6,2,1,80,0,1
243360,-100,6,2,1,100,0,1
244041,-100,6,2,1,80,0,1
244178,-100,6,2,1,100,0,1
244860,-100,6,2,1,80,0,1
245132,-100,6,2,1,100,0,1
245678,-100,6,2,1,80,0,1
245814,-100,6,2,1,100,0,1
246496,-100,6,2,1,80,0,1
246769,-100,6,2,1,100,0,1
247314,-100,6,2,1,80,0,1
248132,-133.333333333333,6,2,1,80,0,1
248405,-133.333333333333,6,2,1,60,0,0
261223,-133.333333333333,6,2,1,70,0,0
261769,-133.333333333333,6,2,1,50,0,0
262041,-166.666666666667,6,2,1,50,0,0
262314,-166.666666666667,6,2,1,20,0,0
262860,-166.666666666667,6,2,1,40,0,0
263132,-166.666666666667,6,2,1,20,0,0
264496,-166.666666666667,6,2,1,40,0,0
264769,-166.666666666667,6,2,1,20,0,0
266132,-166.666666666667,6,2,1,40,0,0
266405,-166.666666666667,6,2,1,20,0,0
267496,-166.666666666667,6,2,1,60,0,0
268042,-166.666666666667,6,2,1,50,0,0
268587,-166.666666666667,6,2,1,40,0,0
269405,-166.666666666667,6,2,1,30,0,0
271042,-166.666666666667,6,2,1,20,0,0
271860,-166.666666666667,6,2,1,10,0,0
272678,-166.666666666667,6,2,0,5,0,0

[Colours]
Combo1 : 253,66,99
Combo2 : 174,187,191
Combo3 : 0,81,232
Combo4 : 255,159,253
Combo5 : 12,177,186

[HitObjects]
128,60,1042,22,0,P|99:130|125:211,1,160,14|0,0:0|0:0,0:0:0:0:
346,215,1451,2,0,P|299:154|216:136,1,160,8|0,0:0|0:0,0:0:0:0:
195,289,1860,2,0,P|234:263|247:230,1,80,8|0,0:0|0:0,0:0:0:0:
122,317,2132,2,0,P|168:322|199:305,1,80,8|0,0:0|0:0,0:0:0:0:
50,293,2405,2,0,P|82:326|117:333,1,80,8|0,0:0|0:0,0:0:0:0:
139,189,2678,38,0,P|117:121|39:92,1,160,4|0,0:0|0:0,0:0:0:0:
209,123,3087,2,0,P|163:52|75:13,1,160,8|0,0:0|0:0,0:0:0:0:
59,214,3496,2,0,P|82:250|120:271,1,80,8|0,0:0|0:0,0:0:0:0:
35,138,3769,2,0,P|29:180|45:220,1,80,8|0,0:0|0:0,0:0:0:0:
139,189,4042,1,12,0:0:0:0:
139,189,4178,1,8,0:0:0:0:
110,348,4314,22,0,P|194:371|274:334,1,160,12|0,0:0|0:0,0:0:0:0:
325,228,4723,2,0,P|399:202|474:226,1,160,8|0,0:0|0:0,0:0:0:0:
409,337,5132,2,0,P|362:332|332:308,1,80,8|0,0:0|0:0,0:0:0:0:
488,327,5405,2,0,P|448:353|410:354,1,80,8|0,0:0|0:0,0:0:0:0:
474,226,5678,1,8,0:0:0:0:
272,43,5951,38,0,P|213:68|173:175,2,160,12|8|0,0:0|0:0|0:0,0:0:0:0:
152,234,6769,2,0,P|103:200|92:160,1,80,8|0,0:0|0:0,0:0:0:0:
234,259,7042,2,0,P|174:264|140:240,1,80,8|0,0:0|0:0,0:0:0:0:
171,150,7314,1,12,0:0:0:0:
171,150,7451,1,8,0:0:0:0:
299,130,7587,22,0,P|367:149|407:244,1,160,12|0,0:0|0:0,0:0:0:0:
231,198,7996,2,0,P|204:135|241:54,1,160,8|0,0:0|0:0,0:0:0:0:
311,226,8405,2,0,P|269:268|227:272,1,80,8|0,0:0|0:0,0:0:0:0:
344,153,8678,2,0,P|339:212|309:241,1,80,8|0,0:0|0:0,0:0:0:0:
321,77,8951,2,0,P|355:125|352:167,1,80,8|0,0:0|0:0,0:0:0:0:
214,140,9223,38,0,P|181:94|237:0,1,160,12|0,0:0|0:0,0:0:0:0:
321,77,9632,2,0,P|354:123|298:217,1,160,8|0,0:0|0:0,0:0:0:0:
197,267,10042,2,0,P|189:318|203:365,1,80,8|0,0:0|0:0,0:0:0:0:
237,191,10314,2,0,P|198:224|178:269,1,80,8|0,0:0|0:0,0:0:0:0:
286,308,10587,1,12,0:0:0:0:
286,308,10723,1,8,0:0:0:0:
318,126,10860,22,0,P|242:89|162:121,1,160,12|0,0:0|0:0,0:0:0:0:
173,110,11269,1,8,0:0:0:0:
431,110,11678,2,0,P|425:55|407:27,1,80,8|0,0:0|0:0,0:0:0:0:
407,188,11951,2,0,P|437:142|441:108,1,80,8|0,0:0|0:0,0:0:0:0:
340,235,12223,2,0,P|393:219|417:196,1,80,8|8,0:0|0:0,0:0:0:0:
275,163,12496,38,0,P|243:218|284:312,2,160,12|8|8,0:0|0:0|0:0,0:0:0:0:
140,153,13314,2,0,P|137:200|164:245,1,80,8|0,0:0|0:0,0:0:0:0:
170,81,13587,2,0,P|137:115|129:166,1,80,8|0,0:0|0:0,0:0:0:0:
240,43,13860,2,0,P|193:48|153:82,1,80,8|8,0:0|0:0,0:0:0:0:
225,181,14132,54,0,P|299:223|402:189,1,180.000006866455,14|0,0:0|0:0,0:0:0:0:
339,78,14678,2,0,P|340:108|332:137,1,60.0000022888184,2|0,0:0|0:0,0:0:0:0:
255,96,14951,2,0,P|192:97|149:132,2,120.000004577637,10|2|2,0:0|0:0|0:0,0:0:0:0:
113,257,15769,22,0,B|190:304|214:235|294:283,1,180.000006866455,14|2,0:0|0:0,0:0:0:0:
286,278,16314,1,2,0:0:0:0:
338,78,16587,2,0,L|354:4,2,60.0000022888184,10|2|2,0:0|0:0|0:0,0:0:0:0:
382,275,17132,1,0,0:0:0:0:
382,275,17269,1,0,0:0:0:0:
318,206,17405,38,0,B|255:204|222:155|222:155|177:211|177:211,1,180.000006866455,12|2,0:0|0:0,0:0:0:0:
75,194,17951,2,0,L|118:140,1,60.0000022888184,2|0,0:0|0:0,0:0:0:0:
162,64,18223,2,0,P|215:108|222:160,2,120.000004577637,10|2|2,0:0|0:0|0:0,0:0:0:0:
60,122,19042,22,0,B|62:177|25:207|25:207|61:240|60:287,1,180.000006866455,10|0,0:0|0:0,0:0:0:0:
59,281,19587,1,2,0:0:0:0:
194,192,19860,2,0,L|240:237,2,60.0000022888184,10|2|2,0:0|0:0|0:0,0:0:0:0:
272,13,20405,1,2,0:0:0:0:
272,13,20542,1,2,0:0:0:0:
183,20,20678,38,0,B|127:14|85:49|85:49|79:75|79:75|56:88|40:120,1,180.000006866455,14|2,0:0|0:0,0:0:0:0:
60,220,21223,2,0,P|100:196|113:175,1,60.0000022888184,2|0,0:0|0:0,0:0:0:0:
180,108,21496,2,0,P|213:137|287:148,2,120.000004577637,10|2|2,0:0|0:0|0:0,0:0:0:0:
300,51,22314,22,0,P|386:24|479:62,1,180.000006866455,10|2,0:0|0:0,0:0:0:0:
467,52,22860,1,2,0:0:0:0:
332,129,23132,2,0,P|385:105|441:136,2,120.000004577637,10|2|2,0:0|0:0|0:0,0:0:0:0:
208,238,23951,38,0,B|141:260|67:238|67:238|91:196|81:164|81:164|99:160,1,240.000009155274,10|2,0:0|0:0,0:0:0:0:
193,129,24769,2,0,P|162:80|106:60,2,120.000004577637,10|2|2,0:0|0:0|0:0,0:0:0:0:
252,288,25587,22,0,B|304:287|346:310|346:310|347:276|347:276|411:279|452:211,1,240.000009155274,10|2,0:0|0:0,0:0:0:0:
350,170,26405,22,0,L|187:129,2,160,6|6|6,0:0|0:0|0:0,0:0:0:0:
425,56,27087,1,10,0:0:0:0:
323,84,27223,38,0,P|361:138|498:131,1,180.000006866455,14|2,0:0|0:0,0:0:0:0:
385,37,27769,2,0,P|360:15|317:6,1,60.0000022888184,2|0,0:0|0:0,0:0:0:0:
207,52,28042,2,0,P|146:42|94:-3,2,120.000004577637,10|2|2,0:0|0:0|0:0,0:0:0:0:
65,16,28860,38,0,B|49:107|49:107|83:141|83:141|64:249,1,240.000009155274,10|2,0:0|0:0,0:0:0:0:
118,312,29678,1,8,0:0:0:0:
359,244,30223,1,2,0:0:0:0:
417,179,30360,1,0,0:0:0:0:
426,97,30496,54,0,B|392:82|374:59|374:59|297:102|229:91|229:91|198:68,1,240.000009155274,10|0,0:0|0:0,0:0:0:0:
108,13,31314,2,0,P|91:91|110:141,2,120.000004577637,10|2|2,0:0|0:0|0:0,0:0:0:0:
126,163,32132,6,0,B|193:198|226:118|304:180|304:180|328:161|357:152,1,240.000009155274,10|2,0:0|0:0,0:0:0:0:
468,149,32951,1,10,0:0:0:0:
214,323,33769,22,0,P|293:341|362:256,1,180.000006866455,14|2,0:0|0:0,0:0:0:0:
371,196,34314,1,2,0:0:0:0:
268,246,34587,2,0,B|219:239|187:210|187:210|162:291|107:307|107:307|96:284,1,240.000009155274,10|2,0:0|0:0,0:0:0:0:
206,35,35405,38,0,P|127:17|58:102,1,180.000006866455,10|2,0:0|0:0,0:0:0:0:
49,162,35950,1,2,0:0:0:0:
235,146,36223,1,10,0:0:0:0:
222,14,36496,1,2,0:0:0:0:
145,95,36769,1,2,0:0:0:0:
328,125,37042,22,0,B|376:130|406:169|406:169|422:125|474:112|474:112|470:148|426:159,1,240.000009155274,10|2,0:0|0:0,0:0:0:0:
426,255,37860,2,0,B|358:269|325:215|325:215|331:265|293:288|314:335,1,240.000009155274,10|2,0:0|0:0,0:0:0:0:
232,378,38678,22,0,B|177:242|282:258|204:127|204:127|205:162|187:191,1,320,10|0,0:0|0:0,0:0:0:0:
138,314,39496,2,0,P|87:346|117:214,1,320,10|0,0:0|0:0,0:0:0:0:
304,308,40314,22,0,B|349:200|277:107|277:107|258:146,1,240.000009155274,4|0,0:0|0:0,0:0:0:0:
238,241,40723,2,0,P|344:258|416:143,1,240.000009155274,4|0,0:0|0:0,0:0:0:0:
269,75,41132,2,0,P|320:99|393:84,1,120.000004577637,4|0,0:0|0:0,0:0:0:0:
197,113,41405,2,0,P|270:165|420:158,1,240.000009155274,4|10,0:0|0:0,0:0:0:0:
335,13,41951,37,10,0:0:0:0:
143,30,42223,1,2,0:0:0:0:
269,75,42496,1,2,0:0:0:0:
361,9,42769,5,10,0:0:0:0:
169,26,43041,1,2,0:0:0:0:
295,71,43314,1,2,0:0:0:0:
180,172,43587,6,0,P|100:161|76:16,1,240.000009155274,4|0,0:0|0:0,0:0:0:0:
209,99,43996,2,0,B|240:191|240:191|216:236|216:236|255:332,1,240.000009155274,4|0,0:0|0:0,0:0:0:0:
140,258,44405,2,0,L|186:368,1,120.000004577637,4|0,0:0|0:0,0:0:0:0:
82,325,44678,2,0,B|148:363|198:321|198:321|208:348|208:348|249:305|315:321,1,240.000009155274,4|10,0:0|0:0,0:0:0:0:
414,358,45223,37,10,0:0:0:0:
390,264,45496,1,2,0:0:0:0:
368,170,45769,1,2,0:0:0:0:
430,335,46042,5,10,0:0:0:0:
406,241,46315,1,2,0:0:0:0:
384,147,46588,1,2,0:0:0:0:
364,53,46860,22,0,B|374:124|336:166|272:172|272:172|246:131|200:123,1,240.000009155274,14|0,0:0|0:0,0:0:0:0:
113,131,47678,2,0,P|129:188|176:224,2,120.000004577637,10|2|2,0:0|0:0|0:0,0:0:0:0:
172,259,48496,38,0,B|157:332|80:378|80:378|129:368|173:386,1,240.000009155274,10|0,0:0|0:0,0:0:0:0:
327,384,49314,2,0,P|392:375|439:336,2,120.000004577637,10|2|2,0:0|0:0|0:0,0:0:0:0:
246,228,50132,22,0,P|289:153|374:142,1,160,10|0,0:0|0:0,0:0:0:0:
267,304,50542,2,0,P|238:272|225:221,1,80,2|2,0:0|0:0,0:0:0:0:
468,160,50951,2,0,P|424:234|339:245,1,160,10|0,0:0|0:0,0:0:0:0:
447,84,51361,2,0,P|475:115|488:166,1,80,2|2,0:0|0:0,0:0:0:0:
266,90,51769,38,0,L|351:75,1,80,10|0,0:0|0:0,0:0:0:0:
187,103,52042,2,0,L|272:88,1,80,0|2,0:0|0:0,0:0:0:0:
362,157,52314,1,0,0:0:0:0:
362,157,52451,1,0,0:0:0:0:
269,170,52587,21,10,0:0:0:0:
329,264,52860,1,0,0:0:0:0:
217,272,53132,1,2,0:0:0:0:
105,167,53405,21,14,0:0:0:0:
256,192,53473,12,0,56678,0:0:0:0:
122,238,58314,54,0,P|187:242|255:180,1,160,14|0,0:0|0:0,0:0:0:0:
277,41,58723,2,0,P|352:19|419:58,1,160,8|0,0:0|0:0,0:0:0:0:
354,193,59132,38,0,L|341:115,1,80,10|0,0:0|0:0,0:0:0:0:
367,271,59405,2,0,L|354:193,1,80,8|0,0:0|0:0,0:0:0:0:
380,349,59678,2,0,L|367:271,1,80,8|0,0:0|0:0,0:0:0:0:
157,147,59951,22,0,P|98:176|70:263,1,160,14|0,0:0|0:0,0:0:0:0:
258,160,60360,2,0,P|237:84|169:46,1,160,8|0,0:0|0:0,0:0:0:0:
249,262,60769,38,0,L|171:247,1,80,10|0,0:0|0:0,0:0:0:0:
327,278,61042,2,0,L|248:262,1,80,8|0,0:0|0:0,0:0:0:0:
405,293,61314,2,0,L|326:277,1,80,8|0,0:0|0:0,0:0:0:0:
285,82,61587,22,0,P|360:60|427:99,1,160,14|0,0:0|0:0,0:0:0:0:
405,293,61996,2,0,P|349:238|348:160,1,160,8|0,0:0|0:0,0:0:0:0:
138,312,62405,38,0,L|71:356,1,80,10|0,0:0|0:0,0:0:0:0:
203,267,62678,2,0,L|136:311,1,80,8|0,0:0|0:0,0:0:0:0:
269,223,62950,2,0,L|202:267,1,80,8|0,0:0|0:0,0:0:0:0:
348,160,63223,22,0,P|280:121|205:142,1,160,14|0,0:0|0:0,0:0:0:0:
105,210,63632,1,8,0:0:0:0:
96,89,63769,1,8,0:0:0:0:
96,89,63905,1,2,0:0:0:0:
82,286,64042,38,0,L|105:210,1,80,10|0,0:0|0:0,0:0:0:0:
207,46,64314,2,0,L|229:122,1,80,8|0,0:0|0:0,0:0:0:0:
294,355,64587,2,0,L|271:278,1,80,8|0,0:0|0:0,0:0:0:0:
336,69,64860,22,0,P|411:47|478:86,1,160,14|0,0:0|0:0,0:0:0:0:
478,86,65269,1,8,0:0:0:0:
462,190,65405,2,0,P|425:177|399:148,1,80,8|0,0:0|0:0,0:0:0:0:
408,291,65678,38,0,P|394:328|365:354,1,80,10|0,0:0|0:0,0:0:0:0:
307,218,65951,2,0,P|276:243|237:251,1,80,8|0,0:0|0:0,0:0:0:0:
256,104,66223,2,0,P|216:110|179:98,1,80,8|0,0:0|0:0,0:0:0:0:
26,218,66496,22,0,P|101:239|168:200,1,160,14|0,0:0|0:0,0:0:0:0:
168,200,66905,1,8,0:0:0:0:
152,96,67041,2,0,P|114:109|88:138,1,80,8|0,0:0|0:0,0:0:0:0:
337,159,67314,38,0,P|323:121|294:95,1,80,10|0,0:0|0:0,0:0:0:0:
236,233,67587,2,0,P|205:207|166:199,1,80,8|0,0:0|0:0,0:0:0:0:
184,347,67859,2,0,P|144:340|107:352,1,80,8|2,0:0|0:0,0:0:0:0:
295,363,68132,38,0,B|377:323|392:219|334:162|334:162|324:240|398:315|488:305,1,480.000018310548,14|8,0:0|0:0,0:0:0:0:
412,98,68951,54,0,P|303:68|233:157,1,240,14|8,0:0|0:0,0:0:0:0:
233,156,69496,1,8,0:0:0:0:
70,55,69769,6,0,B|143:107|143:107|119:154|133:218|178:239,1,240,14|8,0:0|0:0,0:0:0:0:
307,185,70314,54,0,L|233:156,1,80,8|2,0:0|0:0,0:0:0:0:
382,213,70587,2,0,L|307:184,1,80,14|0,0:0|0:0,0:0:0:0:
167,290,70860,38,0,L|241:261,1,80,12|0,0:0|0:0,0:0:0:0:
92,319,71133,2,0,L|166:290,1,80,8|2,0:0|0:0,0:0:0:0:
437,344,71405,22,0,P|380:290|381:213,1,160,14|0,0:0|0:0,0:0:0:0:
435,33,71814,2,0,P|491:86|491:164,1,160,8|0,0:0|0:0,0:0:0:0:
326,111,72223,38,0,L|404:124,1,80,10|0,0:0|0:0,0:0:0:0:
246,97,72496,2,0,L|324:110,1,80,8|0,0:0|0:0,0:0:0:0:
167,83,72769,2,0,L|245:96,1,80,8|0,0:0|0:0,0:0:0:0:
117,308,73042,22,0,P|60:254|60:176,1,160,14|0,0:0|0:0,0:0:0:0:
245,96,73451,2,0,P|226:171|159:210,1,160,8|0,0:0|0:0,0:0:0:0:
317,235,73860,38,0,L|238:221,1,80,10|0,0:0|0:0,0:0:0:0:
395,248,74133,2,0,L|316:234,1,80,8|0,0:0|0:0,0:0:0:0:
473,261,74404,2,0,L|394:247,1,80,8|2,0:0|0:0,0:0:0:0:
392,28,74678,22,0,P|448:81|448:159,1,160,14|0,0:0|0:0,0:0:0:0:
217,181,75087,2,0,P|271:124|349:125,1,160,8|2,0:0|0:0,0:0:0:0:
203,101,75496,38,0,L|189:22,1,80,10|0,0:0|0:0,0:0:0:0:
217,181,75769,2,0,L|203:102,1,80,8|0,0:0|0:0,0:0:0:0:
231,260,76042,2,0,L|217:181,1,80,8|0,0:0|0:0,0:0:0:0:
6,332,76314,22,0,P|59:276|137:276,1,160,14|0,0:0|0:0,0:0:0:0:
218,366,76723,1,8,0:0:0:0:
255,252,76860,1,8,0:0:0:0:
255,252,76996,1,0,0:0:0:0:
445,311,77132,38,0,L|369:287,1,80,10|0,0:0|0:0,0:0:0:0:
86,203,77405,2,0,L|162:178,1,80,8|0,0:0|0:0,0:0:0:0:
446,87,77678,2,0,L|369:111,1,80,8|2,0:0|0:0,0:0:0:0:
222,258,77951,22,0,P|261:191|239:117,1,160,14|0,0:0|0:0,0:0:0:0:
238,116,78360,1,0,0:0:0:0:
317,288,78496,2,0,L|357:377,1,80,8|2,0:0|0:0,0:0:0:0:
452,200,78769,38,0,L|354:190,1,80,14|0,0:0|0:0,0:0:0:0:
303,294,79042,2,0,L|343:383,1,80,10|0,0:0|0:0,0:0:0:0:
459,377,79314,2,0,L|516:297,1,80,8|2,0:0|0:0,0:0:0:0:
221,40,79587,22,0,L|142:49,1,80,14|0,0:0|0:0,0:0:0:0:
258,215,79860,2,0,L|291:143,1,80,10|0,0:0|0:0,0:0:0:0:
88,161,80132,2,0,L|135:226,1,80,8|2,0:0|0:0,0:0:0:0:
323,49,80405,38,0,P|397:26|464:65,1,160,14|10,0:0|0:0,0:0:0:0:
464,65,80814,1,0,0:0:0:0:
416,204,80950,2,0,P|397:170|390:131,1,80,8|2,0:0|0:0,0:0:0:0:
352,192,81155,1,0,0:0:0:0:
352,192,81223,22,0,P|277:214|210:175,1,160,14|0,0:0|0:0,0:0:0:0:
210,175,81632,1,8,0:0:0:0:
172,293,81769,2,0,P|121:264|78:266,1,80,8|0,0:0|0:0,0:0:0:0:
44,130,82042,38,0,P|100:183|100:261,1,160,10|8,0:0|0:0,0:0:0:0:
100,260,82451,1,2,0:0:0:0:
193,120,82587,2,0,P|156:136|131:167,1,80,8|2,0:0|0:0,0:0:0:0:
281,189,82860,22,0,P|241:121|264:47,1,160,14|0,0:0|0:0,0:0:0:0:
264,47,83269,1,8,0:0:0:0:
379,174,83404,2,0,P|365:137|337:110,1,80,8|0,0:0|0:0,0:0:0:0:
341,276,83678,6,0,L|504:240,2,160,14|14|8,0:0|0:0|0:0,0:0:0:0:
128,320,84496,6,0,L|128:160,2,160,14|10|8,0:0|0:0|0:0,0:0:0:0:
238,254,85314,54,0,L|238:63,2,160,12|12|12,0:0|0:0|0:0,0:0:0:0:
512,104,86132,54,0,P|438:75|365:102,1,160,14|8,0:0|0:0,0:0:0:0:
312,167,86542,2,0,P|239:194|166:166,1,160,8|8,0:0|0:0,0:0:0:0:
128,94,86951,2,0,P|85:154|115:230,2,160,14|8|8,0:0|0:0|0:0,0:0:0:0:
322,30,87769,6,0,L|478:64,2,160,14|14|8,0:0|0:0|0:0,0:0:0:0:
171,108,88587,6,0,L|14:142,2,160,14|14|14,0:0|0:0|0:0,0:0:0:0:
274,130,89405,54,0,L|274:321,1,160,14|2,0:0|0:0,0:0:0:0:
322,355,89814,1,2,0:0:0:0:
398,330,89950,1,2,0:0:0:0:
398,250,90087,1,2,0:0:0:0:
322,226,90223,5,10,0:0:0:0:
306,221,90496,1,10,0:0:0:0:
290,215,90769,1,10,0:0:0:0:
86,273,91042,5,14,0:0:0:0:
127,144,104132,54,0,L|1:177,2,111.999996582031,6|2|2,0:0|0:0|0:0,0:0:0:0:
319,186,104950,1,6,0:0:0:0:
225,114,105223,1,2,0:0:0:0:
197,228,105496,1,2,0:0:0:0:
319,73,105769,53,6,0:0:0:0:
283,278,106042,1,2,0:0:0:0:
396,226,106314,1,2,0:0:0:0:
298,77,106587,37,6,0:0:0:0:
298,285,106860,1,2,0:0:0:0:
400,214,107132,1,2,0:0:0:0:
199,227,107405,38,0,L|73:194,2,111.999996582031,6|2|2,0:0|0:0|0:0,0:0:0:0:
291,170,108224,1,6,0:0:0:0:
269,42,108495,1,2,0:0:0:0:
202,109,108768,1,2,0:0:0:0:
377,21,109042,22,0,P|374:72|399:143,1,111.999996582031,6|0,0:0|0:0,0:0:0:0:
440,302,109587,1,2,0:0:0:0:
468,208,109723,1,2,0:0:0:0:
372,229,109860,2,0,P|338:232|297:224,1,55.9999982910157,10|0,0:0|0:0,0:0:0:0:
240,149,110132,2,0,P|212:146|184:149,1,55.9999982910157,10|0,0:0|0:0,0:0:0:0:
220,309,110405,2,0,P|222:281|219:253,1,55.9999982910157,2|2,0:0|0:0,0:0:0:0:
86,220,110678,38,0,P|155:235|272:131,1,240.000009155274,14|2,0:0|0:0,0:0:0:0:
366,290,111496,2,0,P|309:274|272:229,2,120.000004577637,10|2|2,0:0|0:0|0:0,0:0:0:0:
442,177,112314,22,0,P|404:131|347:115,1,120.000004577637,10|0,0:0|0:0,0:0:0:0:
249,136,112723,2,0,L|267:71,1,60.0000022888184,2|2,0:0|0:0,0:0:0:0:
214,247,113132,2,0,P|162:276|103:270,2,120.000004577637,10|2|2,0:0|0:0|0:0,0:0:0:0:
242,161,113814,1,2,0:0:0:0:
292,298,113951,38,0,P|362:206|477:209,1,240.000009155274,14|0,0:0|0:0,0:0:0:0:
512,377,114769,2,0,P|455:361|417:315,2,120.000004577637,10|0|0,0:0|0:0|0:0,0:0:0:0:
393,123,115587,22,0,L|364:256,2,120.000004577637,14|0|2,0:0|0:0|0:0,0:0:0:0:
292,298,116405,2,0,P|240:327|181:321,2,120.000004577637,10|2|2,0:0|0:0|0:0,0:0:0:0:
276,75,117223,38,0,P|216:139|220:227,1,180.000006866455,14|2,0:0|0:0,0:0:0:0:
219,226,117769,1,2,0:0:0:0:
44,76,118042,2,0,B|144:115|160:22|276:74,1,240.000009155274,10|2,0:0|0:0,0:0:0:0:
259,327,118859,22,0,P|318:262|315:175,1,180.000006866455,14|2,0:0|0:0,0:0:0:0:
315,175,119405,1,2,0:0:0:0:
357,279,119678,2,0,P|430:295|480:269,2,120.000004577637,10|2|2,0:0|0:0|0:0,0:0:0:0:
295,0,120496,38,0,B|310:107|400:74|412:201,1,240.000009155274,10|2,0:0|0:0,0:0:0:0:
230,297,121314,2,0,P|242:240|286:200,2,120.000004577637,10|0|2,0:0|0:0|0:0,0:0:0:0:
219,140,122132,54,0,B|180:66|90:33|22:55|22:55|48:99|121:99,1,320,14|0,0:0|0:0,0:0:0:0:
321,256,122951,6,0,B|338:176|417:121|488:125|488:125|475:174|428:185,1,320,14|0,0:0|0:0,0:0:0:0:
270,131,123632,5,4,0:0:0:0:
245,98,123701,1,0,0:0:0:0:
249,58,123769,2,0,B|315:152|200:179|259:285,1,240.000009155274,12|0,0:0|0:0,0:0:0:0:
353,230,124178,22,0,P|281:180|196:199,1,180.000006866455,6|0,0:0|0:0,0:0:0:0:
250,343,124451,2,0,P|259:314|259:285,1,60.0000022888184,4|0,0:0|0:0,0:0:0:0:
137,104,124587,38,0,P|86:206|150:300,2,240.000009155274,12|8|10,0:0|0:0|0:0,0:0:0:0:
386,113,125405,53,10,0:0:0:0:
429,233,125678,1,0,0:0:0:0:
304,204,125951,1,2,0:0:0:0:
397,128,126223,21,10,0:0:0:0:
440,248,126496,1,0,0:0:0:0:
315,219,126769,1,0,0:0:0:0:
184,188,127042,6,0,P|182:73|281:14,1,240.000009155274,4|0,0:0|0:0,0:0:0:0:
378,302,127451,38,0,P|379:188|281:129,1,240.000009155274,4|0,0:0|0:0,0:0:0:0:
276,358,127860,2,0,P|262:300|280:244,1,120.000004577637,4|0,0:0|0:0,0:0:0:0:
474,80,128132,22,0,P|391:159|281:129,1,240.000009155274,4|10,0:0|0:0,0:0:0:0:
157,43,128678,53,10,0:0:0:0:
75,134,128951,1,0,0:0:0:0:
200,163,129224,1,2,0:0:0:0:
168,58,129496,37,10,0:0:0:0:
86,149,129769,1,2,0:0:0:0:
211,178,130042,1,2,0:0:0:0:
186,82,130314,22,0,P|230:46|335:63,1,160,14|2,0:0|0:0,0:0:0:0:
370,126,130723,2,0,P|445:143|511:100,1,160
428,244,131132,1,10,0:0:0:0:
417,274,131405,1,2,0:0:0:0:
406,304,131678,1,2,0:0:0:0:
330,160,131951,38,0,P|286:124|181:141,1,160,14|0,0:0|0:0,0:0:0:0:
146,204,132360,2,0,P|70:221|4:178,1,160,0|0,0:0|0:0,0:0:0:0:
88,322,132769,1,10,0:0:0:0:
99,352,133042,1,2,0:0:0:0:
110,382,133314,1,2,0:0:0:0:
266,350,133587,22,0,P|302:306|285:201,1,160,10|0,0:0|0:0,0:0:0:0:
191,91,133996,2,0,P|191:130|208:166,1,80,2|2,0:0|0:0,0:0:0:0:
430,96,134405,38,0,P|378:72|281:116,1,160,10|0,0:0|0:0,0:0:0:0:
290,208,134814,2,0,P|328:203|363:174,1,80,2|2,0:0|0:0,0:0:0:0:
116,74,135223,21,10,0:0:0:0:
98,100,135496,1,0,0:0:0:0:
87,130,135769,1,0,0:0:0:0:
214,166,136041,37,10,0:0:0:0:
209,212,136314,1,0,0:0:0:0:
217,259,136586,1,2,0:0:0:0:
466,248,136859,54,0,P|412:180|326:188,2,180.000006866455,14|0|0,0:0|0:0|0:0,0:0:0:0:
466,248,138223,1,0,0:0:0:0:
427,48,138496,1,0,0:0:0:0:
398,18,140132,6,0,P|349:79|353:157,1,160,14|0,0:0|0:0,0:0:0:0:
392,275,140542,2,0,P|313:279|252:230,1,160,0|8,0:0|0:0,0:0:0:0:
290,115,140951,2,0,P|340:136|358:169,1,80,10|0,0:0|0:0,0:0:0:0:
222,101,141223,2,0,P|275:94|307:113,1,80,8|0,0:0|0:0,0:0:0:0:
157,120,141496,2,0,P|200:87|237:88,1,80,8|0,0:0|0:0,0:0:0:0:
148,212,141769,6,0,P|85:177|73:81,1,160,14|0,0:0|0:0,0:0:0:0:
225,169,142178,2,0,P|232:234|159:300,1,160,8|2,0:0|0:0,0:0:0:0:
74,225,142587,2,0,P|111:206|150:212,1,80,10|0,0:0|0:0,0:0:0:0:
32,295,142860,2,0,P|48:256|81:236,1,80,8|0,0:0|0:0,0:0:0:0:
43,377,143132,2,0,P|30:337|43:299,1,80,8|0,0:0|0:0,0:0:0:0:
169,323,143405,54,0,P|257:347|324:317,1,160,14|0,0:0|0:0,0:0:0:0:
363,217,143814,2,0,P|437:191|511:216,1,160,8|2,0:0|0:0,0:0:0:0:
394,306,144223,2,0,P|350:323|309:320,1,80,10|0,0:0|0:0,0:0:0:0:
462,268,144496,2,0,P|432:304|395:322,1,80,8|0,0:0|0:0,0:0:0:0:
498,204,144769,2,0,P|490:250|467:284,1,80,8|0,0:0|0:0,0:0:0:0:
324,207,145042,6,0,P|307:123|354:37,1,160,14|0,0:0|0:0,0:0:0:0:
409,177,145451,1,8,0:0:0:0:
331,224,145586,1,8,0:0:0:0:
418,193,145722,1,0,0:0:0:0:
346,305,145860,2,0,P|300:299|259:269,1,80,10|0,0:0|0:0,0:0:0:0:
433,295,146132,2,0,P|393:319|343:323,1,80,8|0,0:0|0:0,0:0:0:0:
492,232,146405,2,0,P|478:276|441:311,1,80,8|0,0:0|0:0,0:0:0:0:
319,151,146678,54,0,P|392:178|472:146,1,160,14|8,0:0|0:0,0:0:0:0:
392,69,147087,1,0,0:0:0:0:
257,94,147223,2,0,P|237:132|245:194,1,80,8|0,0:0|0:0,0:0:0:0:
387,284,147496,2,0,L|291:285,1,80,10|0,0:0|0:0,0:0:0:0:
165,207,147769,2,0,L|251:187,1,80,8|0,0:0|0:0,0:0:0:0:
90,136,148042,2,0,L|4:182,1,80,8|0,0:0|0:0,0:0:0:0:
80,330,148314,6,0,P|151:299|172:225,1,160,14|8,0:0|0:0,0:0:0:0:
81,238,148723,1,0,0:0:0:0:
168,140,148859,2,0,P|208:146|247:187,1,80,8|0,0:0|0:0,0:0:0:0:
310,345,149132,2,0,L|341:256,1,80,10|0,0:0|0:0,0:0:0:0:
365,48,149405,2,0,L|338:123,1,80,8|0,0:0|0:0,0:0:0:0:
421,322,149678,2,0,L|448:247,1,80,8|2,0:0|0:0,0:0:0:0:
248,203,149951,38,0,B|148:243|150:146|45:184|45:184|73:228|73:228|12:299|54:370,1,415.999980957032,14|8,0:0|0:0,0:0:0:0:
340,265,150769,54,0,P|358:189|216:103,1,240,10|2,0:0|0:0,0:0:0:0:
248,203,151314,1,8,0:0:0:0:
116,33,151587,6,0,B|108:79|146:111|146:111|70:110|30:179|30:179|52:182,1,240,14|0,0:0|0:0,0:0:0:0:
167,290,152132,6,0,P|224:290|251:275,1,80,0|8,0:0|0:0,0:0:0:0:
91,258,152405,2,0,P|134:294|164:300,1,80,10|0,0:0|0:0,0:0:0:0:
283,161,152678,2,0,P|226:161|199:176,1,80,8|0,0:0|0:0,0:0:0:0:
359,193,152951,2,0,P|315:156|285:150,1,80,8|2,0:0|0:0,0:0:0:0:
296,317,153223,6,0,P|369:335|458:289,1,160,14|0,0:0|0:0,0:0:0:0:
497,149,153632,2,0,P|424:117|348:135,1,160,8|0,0:0|0:0,0:0:0:0:
295,227,154042,2,0,P|247:234|208:219,1,80,10|0,0:0|0:0,0:0:0:0:
359,157,154314,2,0,P|326:193|287:206,1,80,8|0,0:0|0:0,0:0:0:0:
364,59,154587,2,0,P|362:107|341:143,1,80,8|0,0:0|0:0,0:0:0:0:
157,167,154860,54,0,P|213:90|311:91,1,160,14|0,0:0|0:0,0:0:0:0:
401,247,155269,2,0,P|323:246|268:192,1,160,8|2,0:0|0:0,0:0:0:0:
444,173,155678,2,0,P|477:201|491:252,1,80,10|0,0:0|0:0,0:0:0:0:
377,129,155951,2,0,P|419:136|457:173,1,80,8|0,0:0|0:0,0:0:0:0:
301,122,156223,2,0,P|341:107|392:120,1,80,8|0,0:0|0:0,0:0:0:0:
286,271,156496,6,0,P|210:254|171:147,1,160,14|0,0:0|0:0,0:0:0:0:
363,206,156905,2,0,P|386:280|313:367,1,160,8|0,0:0|0:0,0:0:0:0:
268,172,157314,2,0,P|295:131|341:108,1,80,10|0,0:0|0:0,0:0:0:0:
254,244,157587,2,0,P|248:195|268:148,1,80,8|0,0:0|0:0,0:0:0:0:
289,307,157860,2,0,P|253:273|238:223,1,80,8|2,0:0|0:0,0:0:0:0:
363,206,158132,54,0,P|399:137|376:63,1,160,14|0,0:0|0:0,0:0:0:0:
289,126,158541,1,0,0:0:0:0:
363,51,158678,1,0,0:0:0:0:
278,113,158814,1,8,0:0:0:0:
292,6,158951,2,0,P|245:11|196:38,1,80,14|0,0:0|0:0,0:0:0:0:
302,139,159223,2,0,P|259:159|222:201,1,80,0|0,0:0|0:0,0:0:0:0:
369,257,159496,2,0,P|336:291|316:343,1,80,8|2,0:0|0:0,0:0:0:0:
500,284,159769,6,0,P|492:208|410:139,1,160,14|0,0:0|0:0,0:0:0:0:
369,257,160178,1,0,0:0:0:0:
441,342,160314,2,0,P|487:365|535:360,1,80,8|0,0:0|0:0,0:0:0:0:
369,257,160587,2,0,P|323:234|275:239,1,80,10|0,0:0|0:0,0:0:0:0:
108,256,160860,2,0,P|154:233|202:238,1,80,8|0,0:0|0:0,0:0:0:0:
382,240,161132,2,0,P|336:217|288:222,1,80,8|0,0:0|0:0,0:0:0:0:
261,336,161405,54,0,P|215:359|167:354,1,80,14|0,0:0|0:0,0:0:0:0:
0,337,161678,2,0,P|46:360|94:355,1,80,8|0,0:0|0:0,0:0:0:0:
274,353,161950,2,0,P|228:376|180:371,1,80,8|0,0:0|0:0,0:0:0:0:
235,241,162223,2,0,P|307:237|383:295,1,160,10|8,0:0|0:0,0:0:0:0:
274,353,162632,1,0,0:0:0:0:
147,254,162769,2,0,P|151:211|194:164,1,80,8|2,0:0|0:0,0:0:0:0:
195,174,162973,1,0,0:0:0:0:
222,167,163041,6,0,P|143:164|92:106,1,160,14|0,0:0|0:0,0:0:0:0:
197,66,163451,1,8,0:0:0:0:
303,167,163587,2,0,P|290:213|251:241,1,80,8|2,0:0|0:0,0:0:0:0:
277,87,163860,2,0,P|344:92|386:174,1,160,14|0,0:0|0:0,0:0:0:0:
267,233,164269,1,8,0:0:0:0:
197,66,164405,2,0,P|220:28|279:5,1,80,8|2,0:0|0:0,0:0:0:0:
218,159,164678,54,0,P|137:139|103:65,1,160,14|0,0:0|0:0,0:0:0:0:
197,66,165087,1,8,0:0:0:0:
303,165,165223,2,0,P|295:202|257:235,1,80,8|2,0:0|0:0,0:0:0:0:
143,290,165496,2,0,B|98:313|85:342|85:342|51:331|-3:352,2,160,14|14|8,0:0|0:0|0:0,0:0:0:0:
299,379,166314,38,0,B|397:312|516:366|516:366|439:331|392:263|385:226|385:226|424:230|459:220|486:181|465:145|432:122|394:118|344:152,1,660.000025177003,14|0,0:0|0:0,0:0:0:0:
307,275,167951,6,0,B|247:235|257:152|257:152|221:194|172:196|172:196|161:268|219:332|219:332|189:371|128:374|84:361|84:361|47:322|48:260|48:260|65:272|70:292,1,660.000025177003,14|0,0:0|0:0,0:0:0:0:
1,157,169587,54,0,B|60:117|40:48|40:48|91:76|194:62|194:62|160:13|160:13|127:115|122:148|137:192|137:192|183:205|234:189|269:135,1,660.000025177003,14|0,0:0|0:0,0:0:0:0:
278,50,171223,6,0,B|287:108|256:152|256:152|291:120|394:77|445:20|524:84|523:165|465:223|390:216|349:158|371:97|413:65|443:32|443:32|407:32|384:-2,1,660.000025177003,14|0,0:0|0:0,0:0:0:0:
240,58,172860,21,14,0:0:0:0:
256,192,172928,12,0,176132,0:0:0:0:
256,191,179405,53,14,0:0:0:0:
256,191,179678,2,0,P|301:210|336:208,1,80,0|0,0:0|0:0,0:0:0:0:
134,266,180223,21,0,0:0:0:0:
134,266,180496,2,0,P|89:285|54:283,1,80,0|0,0:0|0:0,0:0:0:0:
206,86,181042,37,0,0:0:0:0:
206,86,181313,2,0,P|161:67|126:69,1,80
266,304,181860,21,0,0:0:0:0:
333,130,182132,1,0,0:0:0:0:
149,159,182405,1,0,0:0:0:0:
379,309,182678,21,0,0:0:0:0:
405,317,182814,1,0,0:0:0:0:
460,258,182951,21,0,0:0:0:0:
486,266,183087,1,0,0:0:0:0:
512,345,183223,5,0,0:0:0:0:
234,246,183496,37,0,0:0:0:0:
234,246,183769,2,0,P|213:297|217:334,1,80,0|0,0:0|0:0,0:0:0:0:
313,86,184314,21,0,0:0:0:0:
313,86,184587,2,0,P|305:31|283:1,1,80,0|0,0:0|0:0,0:0:0:0:
112,121,185132,37,0,0:0:0:0:
112,121,185405,2,0,P|119:175|141:205,1,80,0|0,0:0|0:0,0:0:0:0:
306,221,185951,53,0,0:0:0:0:
330,195,186087,1,0,0:0:0:0:
410,200,186223,21,0,0:0:0:0:
434,174,186359,1,0,0:0:0:0:
447,93,186496,5,0,0:0:0:0:
246,145,186769,37,0,0:0:0:0:
479,121,187042,1,0,0:0:0:0:
384,334,187314,1,0,0:0:0:0:
315,144,187587,21,0,0:0:0:0:
315,144,187860,2,0,P|355:110|391:100,1,80,0|0,0:0|0:0,0:0:0:0:
165,42,188405,37,0,0:0:0:0:
165,42,188678,2,0,P|124:8|88:-1,1,80,0|0,0:0|0:0,0:0:0:0:
95,279,189223,53,0,0:0:0:0:
113,314,189360,1,0,0:0:0:0:
196,324,189496,21,0,0:0:0:0:
214,359,189632,1,0,0:0:0:0:
296,384,189769,5,0,0:0:0:0:
276,176,190042,37,0,0:0:0:0:
276,176,190313,2,0,P|235:142|199:132,1,80
322,353,190860,21,0,0:0:0:0:
322,353,191132,2,0,P|371:334|397:308,1,80,0|0,0:0|0:0,0:0:0:0:
159,288,191678,37,0,0:0:0:0:
159,288,191951,2,0,P|107:279|70:289,1,80,0|0,0:0|0:0,0:0:0:0:
370,260,192496,53,6,0:0:0:0:
367,212,192632,1,0,0:0:0:0:
290,235,192769,21,2,0:0:0:0:
287,187,192905,1,0,0:0:0:0:
208,161,193042,5,2,0:0:0:0:
469,146,193314,37,6,0:0:0:0:
469,146,193587,2,0,P|499:111|508:78,1,80,2|2,0:0|0:0,0:0:0:0:
253,240,194132,21,6,0:0:0:0:
253,240,194405,2,0,P|222:274|213:307,1,80,2|2,0:0|0:0,0:0:0:0:
365,97,194951,37,6,0:0:0:0:
148,170,195223,1,2,0:0:0:0:
320,321,195496,1,2,0:0:0:0:
321,117,195769,21,6,0:0:0:0:
115,129,196041,1,2,0:0:0:0:
229,301,196314,1,2,0:0:0:0:
276,127,196587,37,6,0:0:0:0:
96,90,196859,1,2,0:0:0:0:
155,264,197132,1,2,0:0:0:0:
288,67,197405,21,6,0:0:0:0:
298,226,197677,1,0,0:0:0:0:
154,155,197950,1,2,0:0:0:0:
245,32,198223,37,6,0:0:0:0:
296,183,198495,1,0,0:0:0:0:
139,152,198768,1,0,0:0:0:0:
384,65,199042,53,6,0:0:0:0:
431,61,199178,1,0,0:0:0:0:
418,140,199314,21,2,0:0:0:0:
465,136,199450,1,0,0:0:0:0:
448,213,199587,5,2,0:0:0:0:
282,261,199860,37,6,0:0:0:0:
341,56,200132,1,2,0:0:0:0:
489,209,200405,1,2,0:0:0:0:
160,302,200678,21,6,0:0:0:0:
313,153,200950,1,2,0:0:0:0:
365,360,201223,1,2,0:0:0:0:
218,99,201496,37,6,0:0:0:0:
366,252,201768,1,2,0:0:0:0:
159,303,202041,1,2,0:0:0:0:
212,68,202314,21,6,0:0:0:0:
263,274,202586,1,2,0:0:0:0:
58,216,202859,1,2,0:0:0:0:
378,143,203132,22,0,P|414:145|459:168,2,80,6|0|2,0:0|0:0|0:0,0:0:0:0:
134,241,203951,6,0,P|98:239|53:216,2,80,6|0|0,0:0|0:0|0:0,0:0:0:0:
337,88,204769,22,0,P|369:72|419:69,2,80,6|0|0,0:0|0:0|0:0,0:0:0:0:
256,191,205587,53,14,0:0:0:0:
256,192,217041,12,0,220313,0:0:0:0:
293,265,220811,69,2,0:0:0:0:
293,110,221096,53,2,0:0:0:0:
201,235,221382,53,2,0:0:0:0:
349,188,221668,21,2,0:0:0:0:
189,143,221951,38,0,P|146:70|256:9,1,240.000009155274,14|0,0:0|0:0,0:0:0:0:
274,209,222360,54,0,P|204:244|127:225,1,160,8|0,0:0|0:0,0:0:0:0:
413,188,222769,38,0,P|435:220|443:259,1,80,10|0,0:0|0:0,0:0:0:0:
339,165,223042,2,0,P|378:170|413:188,1,80,8|0,0:0|0:0,0:0:0:0:
274,208,223314,2,0,P|302:181|339:166,1,80,8|0,0:0|0:0,0:0:0:0:
256,301,223587,22,0,L|206:116,1,160,14|0,0:0|0:0,0:0:0:0:
142,384,223996,2,0,L|192:199,1,160,8|0,0:0|0:0,0:0:0:0:
58,306,224405,38,0,P|97:308|135:296,1,80,10|0,0:0|0:0,0:0:0:0:
1,252,224678,2,0,P|24:284|58:305,1,80,8|0,0:0|0:0,0:0:0:0:
6,175,224950,2,0,P|-3:213|1:252,1,80,8|0,0:0|0:0,0:0:0:0:
209,111,225223,22,0,P|159:51|82:45,1,160,14|0,0:0|0:0,0:0:0:0:
177,260,225632,2,0,P|226:200|304:193,1,160,8|0,0:0|0:0,0:0:0:0:
345,326,226041,38,0,P|306:317|276:293,1,80,10|0,0:0|0:0,0:0:0:0:
418,300,226314,2,0,P|384:321|345:325,1,80,8|0,0:0|0:0,0:0:0:0:
451,230,226587,2,0,P|442:268|417:299,1,80,8|0,0:0|0:0,0:0:0:0:
231,81,226860,22,0,L|272:246,1,160,14|0,0:0|0:0,0:0:0:0:
319,53,227269,1,8,0:0:0:0:
158,178,227405,1,8,0:0:0:0:
338,130,227541,1,0,0:0:0:0:
139,101,227678,38,0,L|159:183,1,80,10|0,0:0|0:0,0:0:0:0:
226,374,227951,2,0,L|287:314,1,80,8|0,0:0|0:0,0:0:0:0:
338,130,228223,1,8,0:0:0:0:
158,178,228360,1,0,0:0:0:0:
283,317,228496,22,0,P|357:337|434:306,1,160,14|0,0:0|0:0,0:0:0:0:
432,307,228905,1,8,0:0:0:0:
177,345,229041,2,0,P|135:324|116:296,1,80,8|0,0:0|0:0,0:0:0:0:
65,69,229314,38,0,P|100:100|111:132,1,80,10|0,0:0|0:0,0:0:0:0:
85,352,229587,2,0,P|59:312|56:279,1,80,8|0,0:0|0:0,0:0:0:0:
156,85,229859,2,0,P|170:129|164:162,1,80,8|0,0:0|0:0,0:0:0:0:
1,312,230132,22,0,P|-1:265|92:235,1,160,14|0,0:0|0:0,0:0:0:0:
90,233,230541,1,8,0:0:0:0:
335,345,230678,2,0,P|377:324|396:296,1,80,8|0,0:0|0:0,0:0:0:0:
447,69,230951,38,0,P|411:100|400:132,1,80,10|0,0:0|0:0,0:0:0:0:
427,352,231224,2,0,P|452:312|455:279,1,80,8|0,0:0|0:0,0:0:0:0:
356,85,231496,2,0,P|341:129|347:162,1,80,8|2,0:0|0:0,0:0:0:0:
359,199,231701,1,0,0:0:0:0:
389,224,231769,38,0,B|274:184|271:282|154:242,1,240,14|8,0:0|0:0,0:0:0:0:
338,317,232314,1,8,0:0:0:0:
51,53,232587,54,0,P|163:45|207:149,1,240,14|8,0:0|0:0,0:0:0:0:
157,243,233132,1,8,0:0:0:0:
512,119,233405,6,0,L|331:83,1,160,14|0,0:0|0:0,0:0:0:0:
355,87,233814,1,8,0:0:0:0:
467,260,233951,54,0,L|415:183,1,80,8|2,0:0|0:0,0:0:0:0:
310,20,234223,2,0,L|355:87,1,80,10|0,0:0|0:0,0:0:0:0:
298,325,234496,38,0,P|337:324|370:303,1,80,8|0,0:0|0:0,0:0:0:0:
473,137,234768,2,0,P|455:173|421:192,1,80,8|2,0:0|0:0,0:0:0:0:
217,356,235041,22,0,P|153:301|153:227,1,160,14|0,0:0|0:0,0:0:0:0:
340,197,235451,2,0,P|317:268|242:262,1,160,8|0,0:0|0:0,0:0:0:0:
306,55,235860,38,0,P|359:75|385:108,1,80,10|0,0:0|0:0,0:0:0:0:
232,78,236132,2,0,P|283:54|325:59,1,80,8|0,0:0|0:0,0:0:0:0:
195,146,236405,2,0,P|215:92|248:67,1,80,8|0,0:0|0:0,0:0:0:0:
381,311,236678,22,0,P|339:245|263:231,1,160,14|0,0:0|0:0,0:0:0:0:
63,318,237087,2,0,P|3:267|0:189,1,160,8|0,0:0|0:0,0:0:0:0:
209,350,237496,38,0,P|256:348|287:325,1,80,10|0,0:0|0:0,0:0:0:0:
155,296,237769,2,0,P|180:335|215:351,1,80,8|0,0:0|0:0,0:0:0:0:
174,222,238041,2,0,P|152:263|156:302,1,80,8|2,0:0|0:0,0:0:0:0:
340,153,238314,22,0,L|389:0,1,160,14|0,0:0|0:0,0:0:0:0:
448,238,238723,2,0,L|401:52,1,160,8|0,0:0|0:0,0:0:0:0:
315,229,239132,38,0,L|344:137,1,80,10|0,0:0|0:0,0:0:0:0:
290,305,239405,2,0,L|319:213,1,80,8|0,0:0|0:0,0:0:0:0:
266,381,239678,2,0,L|289:304,1,80,8|0,0:0|0:0,0:0:0:0:
259,59,239951,22,0,P|180:7|100:34,1,160,14|0,0:0|0:0,0:0:0:0:
260,157,240360,1,8,0:0:0:0:
338,6,240496,1,8,0:0:0:0:
174,106,240632,1,2,0:0:0:0:
350,106,240769,38,0,P|300:97|246:135,1,80,10|0,0:0|0:0,0:0:0:0:
313,246,241041,2,0,P|360:228|389:168,1,80,8|0,0:0|0:0,0:0:0:0:
274,106,241314,2,0,P|241:145|247:211,1,80,8|2,0:0|0:0,0:0:0:0:
372,329,241587,22,0,P|313:278|237:294,1,160,14|0,0:0|0:0,0:0:0:0:
158,359,241996,1,8,0:0:0:0:
236,172,242132,1,8,0:0:0:0:
236,172,242269,1,2,0:0:0:0:
371,328,242405,38,0,P|405:347|447:347,1,80,14|0,0:0|0:0,0:0:0:0:
457,140,242678,2,0,P|417:136|380:151,1,80,2|0,0:0|0:0,0:0:0:0:
445,347,242951,2,0,P|483:335|511:308,1,80,8|2,0:0|0:0,0:0:0:0:
310,65,243223,22,0,P|275:45|233:45,1,80,14|0,0:0|0:0,0:0:0:0:
224,253,243496,2,0,P|263:256|300:241,1,80,10|0,0:0|0:0,0:0:0:0:
236,46,243769,2,0,P|197:57|169:84,1,80,8|2,0:0|0:0,0:0:0:0:
148,324,244041,38,0,P|93:353|18:295,1,160,14|8,0:0|0:0,0:0:0:0:
19,302,244451,1,0,0:0:0:0:
243,340,244587,2,0,P|274:313|287:274,1,80,8|2,0:0|0:0,0:0:0:0:
282,237,244791,1,0,0:0:0:0:
260,202,244860,22,0,P|270:278|363:311,1,160,14|0,0:0|0:0,0:0:0:0:
421,251,245269,1,8,0:0:0:0:
179,337,245405,2,0,P|218:330|248:305,1,80,8|0,0:0|0:0,0:0:0:0:
486,200,245678,38,0,P|415:170|340:234,1,160,14|8,0:0|0:0,0:0:0:0:
363,314,246087,1,2,0:0:0:0:
265,91,246223,2,0,P|270:135|258:167,1,80,8|2,0:0|0:0,0:0:0:0:
104,228,246496,22,0,P|114:152|207:119,1,160,14|0,0:0|0:0,0:0:0:0:
258,167,246905,1,8,0:0:0:0:
23,92,247041,2,0,P|61:99|92:124,1,80,8|0,0:0|0:0,0:0:0:0:
154,315,247314,38,0,L|177:239,1,80,14|0,0:0|0:0,0:0:0:0:
308,0,247586,2,0,L|330:76,1,80,14|0,0:0|0:0,0:0:0:0:
422,377,247859,2,0,L|399:300,1,80,12|10,0:0|0:0,0:0:0:0:
445,223,248132,38,0,P|376:260|269:229,1,180.000006866455,14|2,0:0|0:0,0:0:0:0:
280,238,248678,1,2,0:0:0:0:
435,109,248951,1,14,0:0:0:0:
461,200,249223,1,2,0:0:0:0:
490,291,249496,1,8,0:0:0:0:
116,187,249769,6,0,P|185:224|292:193,1,180.000006866455,14|2,0:0|0:0,0:0:0:0:
280,202,250314,1,2,0:0:0:0:
126,73,250588,1,10,0:0:0:0:
100,164,250860,1,2,0:0:0:0:
71,255,251133,1,8,0:0:0:0:
225,137,251405,53,14,0:0:0:0:
343,118,251678,1,2,0:0:0:0:
416,213,251951,1,2,0:0:0:0:
231,251,252223,5,10,0:0:0:0:
236,167,252496,1,2,0:0:0:0:
307,122,252769,1,2,0:0:0:0:
299,294,253041,53,14,0:0:0:0:
181,313,253314,1,2,0:0:0:0:
108,218,253587,1,2,0:0:0:0:
254,376,253860,5,10,0:0:0:0:
88,312,254132,1,2,0:0:0:0:
305,209,254405,1,0,0:0:0:0:
154,71,254678,54,0,P|167:160|205:126,1,180.000006866455,14|2,0:0|0:0,0:0:0:0:
199,138,255223,1,0,0:0:0:0:
55,186,255496,1,10,0:0:0:0:
130,245,255769,1,2,0:0:0:0:
225,234,256042,1,8,0:0:0:0:
396,131,256314,6,0,P|383:220|345:186,1,180.000006866455,14|2,0:0|0:0,0:0:0:0:
350,198,256860,1,2,0:0:0:0:
495,246,257132,1,10,0:0:0:0:
420,305,257405,1,2,0:0:0:0:
325,294,257678,1,8,0:0:0:0:
239,75,257951,54,0,L|289:200,2,120.000004577637,14|2|2,0:0|0:0|0:0,0:0:0:0:
182,164,258769,2,0,L|132:289,2,120.000004577637,10|2|2,0:0|0:0|0:0,0:0:0:0:
238,253,259587,2,0,L|288:378,2,120.000004577637,14|2|2,0:0|0:0|0:0,0:0:0:0:
151,94,260405,1,10,0:0:0:0:
78,258,260678,1,2,0:0:0:0:
235,170,260951,1,0,0:0:0:0:
71,19,261223,21,14,0:0:0:0:
192,100,262041,54,0,P|239:86|285:102,2,95.9999970703126,14|2|2,0:0|0:0|0:0,0:0:0:0:
164,242,262860,2,0,L|125:140,2,95.9999970703126,10|2|2,0:0|0:0|0:0,0:0:0:0:
314,241,263678,2,0,L|353:139,2,95.9999970703126,10|2|2,0:0|0:0|0:0,0:0:0:0:
175,323,264496,22,0,L|69:324,1,95.9999970703126,14|2,0:0|0:0,0:0:0:0:
205,303,265041,1,2,0:0:0:0:
336,213,265314,2,0,L|442:214,1,95.9999970703126,10|2,0:0|0:0,0:0:0:0:
306,193,265859,1,2,0:0:0:0:
163,102,266132,2,0,L|57:103,1,95.9999970703126,14|2,0:0|0:0,0:0:0:0:
193,82,266677,1,2,0:0:0:0:
257,251,266951,2,0,L|256:354,1,95.9999970703126,2|2,0:0|0:0,0:0:0:0:
370,90,267496,5,14,0:0:0:0:
256,192,267564,12,0,272678,0:0:0:0:
