osu file format v14

[General]
AudioFilename: audio.mp3
AudioLeadIn: 0
PreviewTime: 57087
Countdown: 0
SampleSet: Soft
StackLeniency: 0.3
Mode: 0
LetterboxInBreaks: 0
WidescreenStoryboard: 0

[Editor]
Bookmarks: 58314,91042,221951,247996
DistanceSpacing: 1
BeatDivisor: 4
GridSize: 16
TimelineZoom: 1.7

[Metadata]
Title:Katayoku no Tori
TitleUnicode:片翼の鳥
Artist:Shikata Akiko
ArtistUnicode:志方あきこ
Creator:IceKalt
Version:Namki & Ice's Advanced
Source:うみねこのなく頃に
Tags:opening japanese blue 古戸 ヱリカ furudo erika umineko no naku koro ni sakurauchi_riko phyloukz imoutosan fushimi_rio loreley namki italian 波乃 渉 namino wataru
BeatmapID:1324311
BeatmapSetID:622500

[Difficulty]
HPDrainRate:4.5
CircleSize:3.5
OverallDifficulty:4.5
ApproachRate:5.5
SliderMultiplier:1
SliderTickRate:1

[Events]
//Background and Video events
0,0,"Umineko 1.jpg",0,0
//Break Periods
2,14332,25280
2,91242,103007
2,176332,178280
2,179605,191371
//Storyboard Layer 0 (Background)
//Storyboard Layer 1 (Fail)
//Storyboard Layer 2 (Pass)
//Storyboard Layer 3 (Foreground)
//Storyboard Sound Samples

[TimingPoints]
1042,272.727272727273,3,2,2,100,1,0
1860,-100,6,2,1,80,0,0
26405,-100,6,2,1,75,0,0
27223,-100,6,2,1,50,0,0
40314,-100,6,2,1,80,0,0
41678,-100,6,2,1,50,0,0
43587,-100,6,2,1,80,0,0
44951,-100,6,2,1,50,0,0
53405,-100,6,2,1,60,0,0
53951,-100,6,2,1,70,0,0
54496,-100,6,2,1,75,0,0
55042,-100,6,2,1,80,0,0
55314,-100,6,2,1,70,0,0
55587,-100,6,2,1,55,0,0
55860,-100,6,2,1,40,0,0
56132,-100,6,2,1,30,0,0
56405,-100,6,2,1,20,0,0
56678,-100,6,2,1,5,0,0
57177,285.714285714286,3,2,1,5,1,0
58314,272.727272727273,3,2,2,75,1,1
59132,-100,6,2,1,75,0,1
71405,-100,6,2,2,75,0,1
72223,-100,6,2,1,75,0,1
84496,-100,6,2,1,70,0,1
89404,-100,6,2,1,75,0,0
104132,-100,6,2,1,50,0,0
110678,-100,6,2,1,45,0,0
122132,-100,6,2,1,55,0,0
123769,-100,6,2,1,75,0,0
125405,-100,6,2,1,50,0,0
127042,-100,6,2,1,75,0,0
128678,-100,6,2,1,50,0,0
137405,-100,6,2,1,60,0,0
137951,-100,6,2,1,70,0,0
138496,-100,6,2,1,80,0,0
139073,272.727272727273,3,2,1,80,1,0
140132,272.727272727273,3,2,2,75,1,0
140951,-100,6,2,1,75,0,0
153223,-100,6,2,2,75,0,0
154042,-100,6,2,1,75,0,0
166314,-100,6,2,1,70,0,0
166587,-100,6,2,1,40,0,0
167951,-100,6,2,1,60,0,0
168223,-100,6,2,1,40,0,0
169587,-100,6,2,1,70,0,0
169860,-100,6,2,1,55,0,0
170132,-100,6,2,1,40,0,0
171223,-100,6,2,1,50,0,0
171496,-100,6,2,1,40,0,0
172314,-100,6,2,1,30,0,0
172587,-100,6,2,1,20,0,0
172860,-100,6,2,1,10,0,0
179405,-100,6,2,1,75,0,0
192496,-100,6,2,1,55,0,0
205587,-100,6,2,1,50,0,0
208042,-100,6,2,1,65,0,0
212951,-100,6,2,1,50,0,0
214587,-100,6,2,1,65,0,0
217042,-100,6,2,1,65,0,0
217314,-100,6,2,1,70,0,0
217860,-100,6,2,1,75,0,0
218678,-100,6,2,1,80,0,0
219223,-100,6,2,1,70,0,0
219496,-100,6,2,1,60,0,0
219769,-100,6,2,1,50,0,0
220042,-100,6,2,1,40,0,0
220314,-100,6,2,1,20,0,0
220811,285.714285714286,3,2,1,80,1,0
221951,272.727272727273,3,2,2,75,1,1
222769,-100,6,2,1,75,0,1
235041,-100,6,2,2,75,0,1
235860,-100,6,2,1,75,0,1
248132,-100,6,2,1,50,0,0
261223,-100,6,2,1,70,0,0
262041,-133.333333333333,6,2,1,40,0,0
267496,-133.333333333333,6,2,1,70,0,0
267769,-100,6,2,1,65,0,0
268314,-100,6,2,1,60,0,0
269132,-100,6,2,1,50,0,0
269951,-100,6,2,1,40,0,0
270769,-100,6,2,1,30,0,0
271587,-100,6,2,1,20,0,0
272405,-100,6,2,1,10,0,0
272678,-100,6,2,0,5,0,0

[Colours]
Combo1 : 253,66,99
Combo2 : 174,187,191
Combo3 : 0,81,232
Combo4 : 255,159,253
Combo5 : 12,177,186

[HitObjects]
9,18,1042,22,0,B|59:40|80:110|80:110|114:39|185:11|236:32,1,300,12|8,0:0|0:0,0:0:0:0:
270,116,2132,1,8,0:0:0:0:
223,204,2405,1,8,0:0:0:0:
270,292,2678,2,0,B|327:314|370:294|370:294|429:297|465:349|465:349|478:305|454:254,1,300,4|8,0:0|0:0,0:0:0:0:
416,177,3769,1,8,0:0:0:0:
337,114,4042,1,12,0:0:0:0:
240,90,4314,38,0,B|152:91|60:17|60:17|36:63|53:121,1,300,12|8,0:0|0:0,0:0:0:0:
107,198,5405,1,8,0:0:0:0:
52,282,5678,1,8,0:0:0:0:
108,365,5951,2,0,B|161:368|200:330|200:330|240:365|296:366,1,200,12|0,0:0|0:0,0:0:0:0:
367,302,6769,2,0,P|408:329|468:347,2,100,8|8|12,0:0|0:0|0:0,0:0:0:0:
300,227,7587,22,0,B|264:154|303:90|303:90|209:50|137:108,1,300,12|8,0:0|0:0,0:0:0:0:
126,192,8678,1,8,0:0:0:0:
158,286,8951,1,8,0:0:0:0:
246,332,9223,2,0,B|310:339|352:292|352:292|381:345|422:358|422:358|473:339|481:300,1,300,12|8,0:0|0:0,0:0:0:0:
482,203,10314,1,8,0:0:0:0:
435,114,10587,1,12,0:0:0:0:
340,81,10860,38,0,P|343:169|208:94,1,300,12|8,0:0|0:0,0:0:0:0:
107,84,11951,1,8,0:0:0:0:
50,165,12223,1,8,0:0:0:0:
60,264,12496,2,0,B|132:291|205:262|205:262|282:298|350:263,1,300,12|8,0:0|0:0,0:0:0:0:
439,215,13587,1,8,0:0:0:0:
368,143,13860,1,8,0:0:0:0:
281,192,14132,37,14,0:0:0:0:
15,48,26405,69,6,0:0:0:0:
35,145,26678,1,6,0:0:0:0:
62,241,26951,2,0,L|123:251,1,50,6|10,0:0|0:0,0:0:0:0:
155,272,27223,6,0,P|191:189|323:180,1,200,14|2,0:0|0:0,0:0:0:0:
381,208,28042,1,10,0:0:0:0:
300,267,28314,1,2,0:0:0:0:
391,307,28587,1,2,0:0:0:0:
311,367,28860,2,0,B|277:385|217:365|217:365|167:387|91:360,1,200,10|2,0:0|0:0,0:0:0:0:
70,278,29678,1,8,0:0:0:0:
210,139,30223,1,2,0:0:0:0:
295,191,30496,22,0,P|360:213|470:139,1,200,10|0,0:0|0:0,0:0:0:0:
443,51,31314,1,10,0:0:0:0:
367,116,31587,1,0,0:0:0:0:
288,53,31860,1,2,0:0:0:0:
213,119,32132,2,0,P|186:209|214:317,1,200,10|2,0:0|0:0,0:0:0:0:
290,369,32951,2,0,P|317:279|289:171,1,200,0|0,0:0|0:0,0:0:0:0:
213,119,33769,38,0,P|155:98|100:106,2,100,14|0|2,0:0|0:0|0:0,0:0:0:0:
203,218,34587,2,0,B|159:240|95:233|95:233|125:252|139:271|139:271|153:290|190:291,1,200,0|2,0:0|0:0,0:0:0:0:
245,348,35405,2,0,P|303:369|358:361,2,100,10|0|2,0:0|0:0|0:0,0:0:0:0:
299,263,36223,1,10,0:0:0:0:
262,169,36496,1,2,0:0:0:0:
316,84,36769,1,2,0:0:0:0:
244,14,37042,54,0,B|176:36|105:16|105:16|113:52|154:61,1,200,10|2,0:0|0:0,0:0:0:0:
218,122,37860,2,0,B|286:144|357:124|357:124|349:160|308:169,1,200,10|2,0:0|0:0,0:0:0:0:
242,229,38678,2,0,P|151:197|52:250,1,200,10|0,0:0|0:0,0:0:0:0:
71,338,39496,2,0,P|161:369|260:316,1,200,10|0,0:0|0:0,0:0:0:0:
242,229,40314,22,0,P|292:226|343:250,1,100,4|0,0:0|0:0,0:0:0:0:
362,288,40723,2,0,B|373:338|399:352|399:352|429:353|469:302,1,150,4|4,0:0|0:0,0:0:0:0:
474,214,41405,2,0,P|467:166|443:121,1,100,4|2,0:0|0:0,0:0:0:0:
344,139,41951,37,6,0:0:0:0:
261,82,42223,2,0,P|212:71|166:88,1,100,2|2,0:0|0:0,0:0:0:0:
91,155,42769,1,10,0:0:0:0:
82,254,43042,2,0,P|51:276|14:291,2,50,2|0|2,0:0|0:0|0:0,0:0:0:0:
177,285,43587,22,0,P|223:289|274:320,1,100,4|0,0:0|0:0,0:0:0:0:
312,340,43996,2,0,B|368:344|368:344|399:296|391:233,1,150,4|4,0:0|0:0,0:0:0:0:
381,155,44678,2,0,P|332:164|282:156,1,100,4|2,0:0|0:0,0:0:0:0:
224,78,45223,37,12,0:0:0:0:
142,160,45496,1,2,0:0:0:0:
209,234,45769,2,0,P|216:283|207:332,2,100,2|10|2,0:0|0:0|0:0,0:0:0:0:
110,253,46587,1,2,0:0:0:0:
44,177,46860,6,0,B|56:126|42:73|42:73|85:88|134:72|134:72|163:89|163:89|202:81|249:95,1,300,14|10,0:0|0:0,0:0:0:0:
300,160,47951,2,0,P|348:171|406:157,1,100,2|2,0:0|0:0,0:0:0:0:
465,87,48496,2,0,P|499:179|342:268,1,300,10|10,0:0|0:0,0:0:0:0:
261,232,49587,2,0,P|213:221|155:235,1,100,2|2,0:0|0:0,0:0:0:0:
79,179,50132,22,0,P|69:130|76:80,2,100,10|0|2,0:0|0:0|0:0,0:0:0:0:
79,279,50951,2,0,P|69:327|76:377,2,100,10|0|2,0:0|0:0|0:0,0:0:0:0:
163,230,51769,1,10,0:0:0:0:
368,62,52587,37,10,0:0:0:0:
290,125,52860,1,0,0:0:0:0:
209,66,53132,1,2,0:0:0:0:
208,166,53405,54,0,B|222:251|164:298|164:298|262:345|291:271|291:271|318:347|421:298|421:298|358:251|372:166,1,600,14|0,0:0|0:0,0:0:0:0:
256,192,55110,12,0,56678,0:0:0:0:
52,41,58314,54,0,B|38:97|38:97|61:137|41:200|41:200|117:176|179:202,1,300,14|10,0:0|0:0,0:0:0:0:
266,238,59405,2,0,B|314:231|366:247,1,100,8|8,0:0|0:0,0:0:0:0:
459,212,59951,2,0,P|426:174|400:131,1,100,14|0,0:0|0:0,0:0:0:0:
331,59,60496,2,0,P|315:106|290:149,1,100,10|0,0:0|0:0,0:0:0:0:
223,74,61042,1,8,0:0:0:0:
141,16,61314,1,8,0:0:0:0:
56,70,61587,38,0,P|40:117|42:177,1,100,14|0,0:0|0:0,0:0:0:0:
93,250,62132,2,0,B|212:228|204:266|299:245,1,200,10|8,0:0|0:0,0:0:0:0:
353,167,62951,1,8,0:0:0:0:
268,113,63223,2,0,B|284:65|266:33|266:33|227:51|188:43|188:43|163:19|130:18,1,200,14|8,0:0|0:0,0:0:0:0:
74,80,64042,2,0,P|24:84|-32:64,2,100,10|8|8,0:0|0:0|0:0,0:0:0:0:
144,150,64860,22,0,B|163:209|126:203|154:277,2,100,14|0|8,0:0|0:0|0:0,0:0:0:0:
246,149,65678,2,0,B|223:94|266:100|236:22,2,100,10|8|8,0:0|0:0|0:0,0:0:0:0:
312,223,66496,2,0,L|480:216,1,150,14|10,0:0|0:0,0:0:0:0:
504,242,67042,1,2,0:0:0:0:
493,142,67314,1,8,0:0:0:0:
411,84,67587,2,0,P|358:81|293:87,1,100,8|8,0:0|0:0,0:0:0:0:
220,41,68132,38,0,P|171:40|88:175,1,200,14|0,0:0|0:0,0:0:0:0:
39,238,68951,2,0,L|145:234,1,100,14|0,0:0|0:0,0:0:0:0:
227,281,69496,1,8,0:0:0:0:
315,328,69769,2,0,L|421:324,1,100,14|0,0:0|0:0,0:0:0:0:
485,253,70314,1,8,0:0:0:0:
400,200,70587,1,14,0:0:0:0:
300,193,70860,2,0,P|228:209|197:206,1,100,8|8,0:0|0:0,0:0:0:0:
155,223,71269,1,8,0:0:0:0:
102,231,71405,22,0,B|44:214|-1:228|-1:228|10:184|-3:140|-3:140|45:156|102:139,1,300,14|10,0:0|0:0,0:0:0:0:
197,108,72496,2,0,L|322:106,1,100,8|8,0:0|0:0,0:0:0:0:
354,188,73042,2,0,L|229:186,1,100,10|8,0:0|0:0,0:0:0:0:
192,265,73587,2,0,L|317:263,1,100,8|2,0:0|0:0,0:0:0:0:
372,322,74132,1,2,0:0:0:0:
447,256,74405,1,2,0:0:0:0:
410,162,74678,38,0,P|406:103|412:49,1,100,4|0,0:0|0:0,0:0:0:0:
315,27,75223,2,0,P|219:13|146:84,1,200,8|0,0:0|0:0,0:0:0:0:
110,171,76042,1,8,0:0:0:0:
184,237,76314,2,0,B|190:241|215:217|215:217|254:209|293:227|293:227|311:195|295:147,1,200,14|8,0:0|0:0,0:0:0:0:
382,99,77132,2,0,L|387:199,1,100,10|8,0:0|0:0,0:0:0:0:
432,289,77678,1,8,0:0:0:0:
352,349,77951,22,0,P|301:331|272:284,1,100,14|2,0:0|0:0,0:0:0:0:
239,254,78360,2,0,L|177:261,1,50
136,174,78769,1,14,0:0:0:0:
170,79,79042,1,10,0:0:0:0:
92,21,79314,1,8,0:0:0:0:
28,98,79587,38,0,L|25:210,1,100,14|10,0:0|0:0,0:0:0:0:
105,259,80132,1,8,0:0:0:0:
185,198,80405,2,0,P|230:172|288:176,1,100,10|8,0:0|0:0,0:0:0:0:
373,201,80951,1,8,0:0:0:0:
357,300,81223,22,0,B|265:340|265:340|157:340,1,200,14|0,0:0|0:0,0:0:0:0:
99,264,82042,2,0,B|191:224|191:224|299:224,1,200,14|2,0:0|0:0,0:0:0:0:
389,207,82860,1,14,0:0:0:0:
321,133,83132,2,0,L|206:131,1,100,0|0,0:0|0:0,0:0:0:0:
130,174,83678,2,0,P|111:235|147:330,1,150,14|0,0:0|0:0,0:0:0:0:
180,337,84223,2,0,L|248:332,1,50,8|4,0:0|0:0,0:0:0:0:
279,337,84496,37,14,0:0:0:0:
353,269,84769,2,0,P|360:211|346:154,1,100,10|8,0:0|0:0,0:0:0:0:
274,107,85314,1,8,0:0:0:0:
179,138,85587,2,0,P|171:187|178:236,1,100,12|12,0:0|0:0,0:0:0:0:
265,286,86132,2,0,L|384:293,2,100,14|8|8,0:0|0:0|0:0,0:0:0:0:
299,191,86951,1,14,0:0:0:0:
213,139,87223,1,8,0:0:0:0:
152,219,87496,1,8,0:0:0:0:
179,315,87769,22,0,P|123:306|79:312,2,100,14|14|8,0:0|0:0|0:0,0:0:0:0:
273,351,88587,1,14,0:0:0:0:
335,273,88860,1,14,0:0:0:0:
302,180,89132,1,14,0:0:0:0:
206,149,89405,6,0,L|205:263,1,100,14|0,0:0|0:0,0:0:0:0:
179,292,89814,2,0,P|149:289|121:279,2,50,2|2|2,0:0|0:0|0:0,0:0:0:0:
206,334,90223,2,0,P|252:344|316:333,2,100,2|2|2,0:0|0:0|0:0,0:0:0:0:
109,362,91042,5,12,0:0:0:0:
104,16,104132,6,0,L|-9:35,2,100,6|2|2,0:0|0:0|0:0,0:0:0:0:
182,78,104951,2,0,L|295:97,2,100,6|2|2,0:0|0:0|0:0,0:0:0:0:
89,115,105769,5,6,0:0:0:0:
47,206,106042,1,2,0:0:0:0:
96,292,106314,1,2,0:0:0:0:
151,208,106587,21,6,0:0:0:0:
248,189,106859,1,2,0:0:0:0:
334,239,107132,1,2,0:0:0:0:
364,334,107405,22,0,P|417:346|468:329,2,100,6|2|2,0:0|0:0|0:0,0:0:0:0:
263,336,108223,2,0,P|210:324|159:341,2,100,6|2|2,0:0|0:0|0:0,0:0:0:0:
314,248,109042,38,0,P|328:191|310:130,1,100,6|0,0:0|0:0,0:0:0:0:
258,72,109587,1,2,0:0:0:0:
159,57,109860,2,0,B|87:63|37:29|37:29|18:70|24:118,1,200,10|10,0:0|0:0,0:0:0:0:
102,162,110678,38,0,B|194:124|206:198|300:163,1,200,14|0,0:0|0:0,0:0:0:0:
342,75,111496,2,0,P|294:62|246:76,2,100,10|2|2,0:0|0:0|0:0,0:0:0:0:
397,158,112314,2,0,B|397:229|335:259|335:259|264:252|220:294|220:294|224:257|212:221,1,300,10|10,0:0|0:0,0:0:0:0:
54,127,113678,1,2,0:0:0:0:
140,77,113951,22,0,P|118:50|55:30,2,100,14|0|0,0:0|0:0|0:0,0:0:0:0:
218,138,114769,2,0,P|240:111|303:91,2,100,10|0|0,0:0|0:0|0:0,0:0:0:0:
164,222,115587,2,0,B|242:258|296:199|296:199|369:258|381:197|445:239,1,300,14|10,0:0|0:0,0:0:0:0:
157,333,117223,38,0,B|109:313|88:351|43:327,2,100,14|0|2,0:0|0:0|0:0,0:0:0:0:
249,371,118042,2,0,P|318:325|244:288,1,200,10|2,0:0|0:0,0:0:0:0:
249,188,118860,2,0,P|309:190|370:232,2,100,14|0|2,0:0|0:0|0:0,0:0:0:0:
162,237,119678,2,0,P|102:235|41:193,1,100,10|2,0:0|0:0,0:0:0:0:
22,127,120223,1,2,0:0:0:0:
83,46,120496,22,0,B|139:11|139:11|278:65,1,200,10|2,0:0|0:0,0:0:0:0:
362,74,121314,2,0,P|434:57|492:159,1,200,10|2,0:0|0:0,0:0:0:0:
441,236,122132,2,0,B|397:279|397:279|337:153,1,200,14|0,0:0|0:0,0:0:0:0:
244,115,122951,2,0,P|199:120|254:203,1,200,14|0,0:0|0:0,0:0:0:0:
296,182,123632,1,4,0:0:0:0:
337,153,123769,22,0,P|340:81|282:24,1,150,4|4,0:0|0:0,0:0:0:0:
190,40,124451,2,0,L|131:41,1,50,4|4,0:0|0:0,0:0:0:0:
40,31,124860,2,0,L|24:132,1,100,4|2,0:0|0:0,0:0:0:0:
84,210,125405,37,10,0:0:0:0:
185,202,125678,2,0,P|231:219|279:209,1,100,0|2,0:0|0:0,0:0:0:0:
379,215,126223,2,0,P|370:164|328:125,2,100,10|0|0,0:0|0:0|0:0,0:0:0:0:
320,297,127042,22,0,L|212:287,1,100,4|0,0:0|0:0,0:0:0:0:
187,250,127451,2,0,B|167:193|194:153|194:153|195:127|181:103,1,150,4|4,0:0|0:0,0:0:0:0:
110,37,128132,1,4,0:0:0:0:
19,80,128405,1,10,0:0:0:0:
36,181,128678,38,0,P|75:235|47:364,1,200,10|2,0:0|0:0,0:0:0:0:
152,356,129496,1,10,0:0:0:0:
221,283,129769,2,0,P|170:256|152:212,1,100,2|2,0:0|0:0,0:0:0:0:
153,119,130314,6,0,P|185:54|397:80,1,300,14|10,0:0|0:0,0:0:0:0:
368,160,131405,2,0,P|359:205|388:255,1,100,2|2,0:0|0:0,0:0:0:0:
467,305,131951,2,0,B|471:350|437:376|437:376|336:319|212:357,1,300,14|10,0:0|0:0,0:0:0:0:
129,323,133042,2,0,L|106:215,1,100,2|2,0:0|0:0,0:0:0:0:
38,153,133587,22,0,P|25:107|41:57,2,100,10|0|2,0:0|0:0|0:0,0:0:0:0:
127,108,134405,2,0,P|160:73|209:63,2,100,10|0|2,0:0|0:0|0:0,0:0:0:0:
209,164,135223,1,10,0:0:0:0:
462,8,136042,2,0,P|503:49|513:90,2,100,10|0|2,0:0|0:0|0:0,0:0:0:0:
414,95,136860,22,0,B|409:129|382:147|382:147|386:189|440:220|440:220|386:189|342:211|342:211|345:257|289:289|236:270|214:208|249:149|311:167,1,500,14|0,0:0|0:0,0:0:0:0:
256,66,138496,1,0,0:0:0:0:
35,74,140132,6,0,B|130:98|195:59|195:59|207:125|158:140|191:215,1,300,14|10,0:0|0:0,0:0:0:0:
249,265,141223,2,0,B|298:285|349:274,1,100,8|8,0:0|0:0,0:0:0:0:
411,197,141769,2,0,B|362:177|311:188,1,100,14|0,0:0|0:0,0:0:0:0:
262,182,142178,2,0,P|317:125|330:46,1,150,2|10,0:0|0:0,0:0:0:0:
244,8,142860,1,8,0:0:0:0:
154,51,143132,1,8,0:0:0:0:
59,17,143405,6,0,P|43:64|45:124,1,100,14|0,0:0|0:0,0:0:0:0:
105,192,143951,2,0,B|159:166|200:187|200:187|226:223|192:284,1,200,8|8,0:0|0:0,0:0:0:0:
227,376,144769,1,8,0:0:0:0:
315,329,145042,2,0,P|395:278|498:295,1,200,14|8,0:0|0:0,0:0:0:0:
509,194,145860,2,0,P|500:142|457:95,2,100,10|8|8,0:0|0:0|0:0,0:0:0:0:
409,184,146678,38,0,B|376:186|376:186|343:178|343:178|308:183,2,100,14|8|8,0:0|0:0|0:0,0:0:0:0:
456,272,147496,2,0,B|454:305|454:305|462:338|462:338|457:373,2,100,10|8|8,0:0|0:0|0:0,0:0:0:0:
355,269,148314,2,0,B|357:302|357:302|349:335|349:335|354:370,2,100,14|8|0,0:0|0:0|0:0,0:0:0:0:
300,185,149132,1,8,0:0:0:0:
357,103,149405,2,0,P|321:64|266:55,1,100,8|8,0:0|0:0,0:0:0:0:
179,77,149950,22,0,B|128:87|76:60|76:60|105:103|94:152,1,200,14|0,0:0|0:0,0:0:0:0:
48,238,150769,2,0,L|150:247,1,100,10|8,0:0|0:0,0:0:0:0:
226,308,151314,1,2,0:0:0:0:
325,296,151587,2,0,P|340:239|332:185,1,100,14|0,0:0|0:0,0:0:0:0:
263,129,152132,1,8,0:0:0:0:
349,77,152405,1,8,0:0:0:0:
269,15,152678,2,0,P|225:4|170:17,1,100,8|8,0:0|0:0,0:0:0:0:
142,55,153087,1,2,0:0:0:0:
135,104,153223,54,0,B|143:158|195:192|195:192|81:204|63:318,1,300,14|10,0:0|0:0,0:0:0:0:
144,369,154314,2,0,P|196:357|259:370,1,100,8|8,0:0|0:0,0:0:0:0:
336,331,154860,2,0,P|322:282|332:231,1,100,14|2,0:0|0:0,0:0:0:0:
370,202,155269,2,0,B|297:217|293:173|219:201,1,150,2|10,0:0|0:0,0:0:0:0:
145,262,155950,1,8,0:0:0:0:
131,162,156223,1,8,0:0:0:0:
69,84,156496,6,0,B|129:88|169:54|169:54|226:50|259:83,1,200,14|0,0:0|0:0,0:0:0:0:
335,139,157314,2,0,P|335:89|359:44,1,100,10|8,0:0|0:0,0:0:0:0:
455,21,157860,1,8,0:0:0:0:
500,109,158132,2,0,B|487:163|518:203|518:203|440:194|450:246|368:222,1,250,14|0,0:0|0:0,0:0:0:0:
329,197,158950,2,0,P|288:188|214:211,1,100,14|0,0:0|0:0,0:0:0:0:
157,267,159496,1,8,0:0:0:0:
85,197,159769,54,0,B|109:132|92:71|92:71|132:83|168:70,1,200,14|0,0:0|0:0,0:0:0:0:
246,17,160587,1,10,0:0:0:0:
319,84,160860,1,8,0:0:0:0:
403,30,161132,1,8,0:0:0:0:
466,107,161405,6,0,L|463:219,1,100,14|0,0:0|0:0,0:0:0:0:
384,268,161950,1,0,0:0:0:0:
301,210,162223,2,0,P|251:210|209:235,1,100,10|0,0:0|0:0,0:0:0:0:
162,324,162769,1,0,0:0:0:0:
80,266,163042,54,0,B|56:163|125:170|96:70,1,200,14|2,0:0|0:0,0:0:0:0:
190,37,163860,2,0,B|241:56|293:34|293:34|326:62|326:62|359:48|396:50,1,200,10|2,0:0|0:0,0:0:0:0:
465,93,164678,1,14,0:0:0:0:
482,192,164950,2,0,P|434:208|373:206,1,100,0|2,0:0|0:0,0:0:0:0:
333,294,165496,2,0,P|285:310|224:308,1,100,14|14,0:0|0:0,0:0:0:0:
136,296,166041,2,0,L|132:214,1,50,8|0,0:0|0:0,0:0:0:0:
174,216,166314,54,0,B|242:233|297:183|315:122|278:79|278:79|309:59|340:100|395:74|395:74|363:131|371:194|414:236,1,500,14|0,0:0|0:0,0:0:0:0:
475,287,167951,54,0,B|417:288|389:325|376:370|376:370|353:292|353:292|329:318|287:349|232:360|182:352|151:335|139:320|130:300|122:273|122:273,1,500,14|0,0:0|0:0,0:0:0:0:
21,274,169587,22,0,B|-10:219|10:157|69:171|76:134|61:112|61:112|20:84|20:18|55:-14|114:-12|153:1|167:41|170:94|132:124|90:120,1,500,14|0,0:0|0:0,0:0:0:0:
188,170,171223,6,0,B|198:199|191:234|191:234|224:246|311:219|311:219|288:191|284:153|284:153|306:121|309:64|295:35|295:35|347:69|403:45|403:45|391:71|374:129|387:169,1,600,14|14,0:0|0:0,0:0:0:0:
256,192,172928,12,0,176132,0:0:0:0:
256,192,179405,53,14,0:0:0:0:
29,148,192496,69,6,0:0:0:0:
126,125,192769,2,0,L|245:98,1,100,2|2,0:0|0:0,0:0:0:0:
304,162,193314,1,6,0:0:0:0:
401,185,193587,2,0,L|520:212,1,100,2|2,0:0|0:0,0:0:0:0:
497,307,194132,2,0,P|468:354|408:384,2,100,6|2|2,0:0|0:0|0:0,0:0:0:0:
398,288,194951,2,0,P|344:300|280:279,2,100,6|2|2,0:0|0:0|0:0,0:0:0:0:
463,212,195769,21,6,0:0:0:0:
449,113,196042,2,0,L|431:-7,1,100,2|2,0:0|0:0,0:0:0:0:
334,3,196587,1,6,0:0:0:0:
320,102,196860,2,0,L|302:222,1,100,2|2,0:0|0:0,0:0:0:0:
230,267,197405,2,0,P|135:251|98:154,1,200,6|2,0:0|0:0,0:0:0:0:
163,88,198223,2,0,P|192:128|185:197,2,100,6|0|0,0:0|0:0|0:0,0:0:0:0:
62,86,199042,37,6,0:0:0:0:
45,184,199314,2,0,L|27:282,1,100,2|2,0:0|0:0,0:0:0:0:
115,329,199860,1,6,0:0:0:0:
212,348,200132,2,0,L|310:365,1,100,2|2,0:0|0:0,0:0:0:0:
397,315,200678,2,0,P|435:277|446:221,2,100,6|2|2,0:0|0:0|0:0,0:0:0:0:
349,226,201496,2,0,P|349:172|317:124,2,100,6|2|2,0:0|0:0|0:0,0:0:0:0:
248,226,202314,21,6,0:0:0:0:
148,213,202587,2,0,L|48:201,1,100,2|2,0:0|0:0,0:0:0:0:
9,109,203132,1,6,0:0:0:0:
109,96,203405,2,0,L|208:84,1,100,0|2,0:0|0:0,0:0:0:0:
304,112,203951,2,0,P|325:156|326:218,2,100,6|0|0,0:0|0:0|0:0,0:0:0:0:
233,182,204769,1,6,0:0:0:0:
138,150,205042,1,0,0:0:0:0:
41,176,205314,1,0,0:0:0:0:
26,276,205587,38,0,B|91:304|91:304|156:284|156:284|233:323|309:278,1,300,14|10,0:0|0:0,0:0:0:0:
388,215,206678,2,0,P|399:165|381:112,1,100,2|10,0:0|0:0,0:0:0:0:
315,48,207223,2,0,B|267:78|191:77|133:35|133:35|160:120|148:160,1,300,14|10,0:0|0:0,0:0:0:0:
98,332,208587,1,2,0:0:0:0:
196,347,208860,22,0,B|238:328|256:214|256:214|272:328|331:358,1,300,14|10,0:0|0:0,0:0:0:0:
368,154,210223,1,10,0:0:0:0:
460,115,210496,2,0,B|430:56|367:55|367:55|295:16|295:16|304:71|263:114,1,300,10|10,0:0|0:0,0:0:0:0:
85,192,211860,1,10,0:0:0:0:
176,231,212132,38,0,B|239:233|274:192|274:192|276:243|276:243|307:209|364:187|430:226,1,300,14|10,0:0|0:0,0:0:0:0:
430,309,213223,2,0,P|392:340|332:353,1,100,2|10,0:0|0:0,0:0:0:0:
244,336,213769,2,0,B|186:319|130:338|130:338|83:311|47:255|115:213|70:157,1,300,14|10,0:0|0:0,0:0:0:0:
270,111,215132,1,2,0:0:0:0:
333,33,215405,22,0,P|369:98|217:196,1,300,14|6,0:0|0:0,0:0:0:0:
71,60,216769,2,0,P|105:65|131:55,2,50,2|2|4,0:0|0:0|0:0,0:0:0:0:
256,192,217110,12,14,220314,0:0:0:0:
165,54,221951,6,0,B|122:121|135:206|135:206|192:184|244:210|244:210|273:185,1,300,14|10,0:0|0:0,0:0:0:0:
362,166,223041,2,0,P|407:158|471:175,1,100,8|8,0:0|0:0,0:0:0:0:
481,267,223587,2,0,P|441:290|376:297,1,100,14|2,0:0|0:0,0:0:0:0:
341,282,223996,2,0,P|260:282|207:337,1,150,2|10,0:0|0:0,0:0:0:0:
111,325,224678,1,8,0:0:0:0:
128,226,224951,1,8,0:0:0:0:
60,152,225223,38,0,P|110:150|174:131,1,100,14|0,0:0|0:0,0:0:0:0:
235,73,225769,2,0,P|327:51|443:91,1,200,8|8,0:0|0:0,0:0:0:0:
509,138,226587,1,8,0:0:0:0:
484,234,226860,2,0,P|428:218|378:217,1,100,14|0,0:0|0:0,0:0:0:0:
298,264,227405,2,0,P|242:280|192:281,2,100,8|10|8,0:0|0:0|0:0,0:0:0:0:
312,164,228223,2,0,P|311:130|306:106,1,50,8|0,0:0|0:0,0:0:0:0:
273,78,228496,22,0,P|220:81|140:77,2,100,14|0|8,0:0|0:0|0:0,0:0:0:0:
312,164,229314,2,0,L|420:163,2,100,10|8|8,0:0|0:0|0:0,0:0:0:0:
219,203,230132,2,0,P|183:248|129:267,1,100,14|2,0:0|0:0,0:0:0:0:
99,284,230541,2,0,P|170:297|237:366,1,150,2|10,0:0|0:0,0:0:0:0:
323,322,231223,1,8,0:0:0:0:
266,239,231496,1,8,0:0:0:0:
311,149,231769,38,0,B|404:119|404:119|514:154,1,200,14|0,0:0|0:0,0:0:0:0:
490,50,232587,1,14,0:0:0:0:
394,21,232860,2,0,P|337:27|286:19,1,100,0|2,0:0|0:0,0:0:0:0:
217,85,233405,2,0,P|167:78|117:84,1,100,14|0,0:0|0:0,0:0:0:0:
23,50,233951,1,2,0:0:0:0:
14,149,234223,1,10,0:0:0:0:
78,225,234496,2,0,P|140:209|184:213,1,100,8|8,0:0|0:0,0:0:0:0:
214,242,234905,1,2,0:0:0:0:
263,250,235041,22,0,B|317:283|362:250|362:250|389:202|356:158|356:158|294:135|255:173,1,300,14|10,0:0|0:0,0:0:0:0:
198,89,236132,2,0,P|135:94|85:76,1,100,8|8,0:0|0:0,0:0:0:0:
11,37,236678,2,0,P|23:94|21:149,1,100,14|0,0:0|0:0,0:0:0:0:
87,211,237223,2,0,L|236:221,1,150,8|0,0:0|0:0,0:0:0:0:
282,241,237769,1,8,0:0:0:0:
373,201,238041,1,8,0:0:0:0:
327,111,238314,38,0,P|268:117|207:107,1,100,14|0,0:0|0:0,0:0:0:0:
151,46,238860,1,8,0:0:0:0:
69,103,239132,2,0,L|75:204,1,100,10|8,0:0|0:0,0:0:0:0:
132,285,239678,1,8,0:0:0:0:
231,276,239951,2,0,B|273:303|326:281|326:281|382:307|424:283,1,200,14|8,0:0|0:0,0:0:0:0:
483,204,240769,2,0,L|482:88,1,100,10|8,0:0|0:0,0:0:0:0:
410,33,241314,1,8,0:0:0:0:
318,73,241587,22,0,B|269:87|269:87|203:82,1,100,14|0,0:0|0:0,0:0:0:0:
178,54,241996,2,0,B|129:50|129:50|80:64,1,100,8|2,0:0|0:0,0:0:0:0:
52,105,242405,1,14,0:0:0:0:
92,198,242678,1,2,0:0:0:0:
186,164,242951,1,8,0:0:0:0:
258,232,243223,2,0,L|372:229,1,100,14|10,0:0|0:0,0:0:0:0:
390,134,243769,1,2,0:0:0:0:
466,197,244041,2,0,P|481:257|475:316,1,100,14|10,0:0|0:0,0:0:0:0:
405,362,244587,1,8,0:0:0:0:
311,326,244860,38,0,B|257:310|213:338|213:338|167:308|104:324,1,200,14|0,0:0|0:0,0:0:0:0:
29,275,245678,2,0,P|59:181|26:63,1,200,14|2,0:0|0:0,0:0:0:0:
101,6,246496,1,14,0:0:0:0:
183,62,246769,2,0,L|301:60,1,100,0|0,0:0|0:0,0:0:0:0:
377,28,247314,38,0,P|440:45|452:171,1,200,14|8,0:0|0:0,0:0:0:0:
408,176,247996,1,2,0:0:0:0:
363,152,248132,6,0,B|303:130|283:186|203:148,2,150,14|2|14,0:0|0:0|0:0,0:0:0:0:
382,250,249223,1,2,0:0:0:0:
308,318,249496,1,8,0:0:0:0:
217,274,249769,2,0,B|135:250|87:271|87:271|99:223|99:223|62:155|116:89,1,300,14|10,0:0|0:0,0:0:0:0:
181,170,250860,1,2,0:0:0:0:
271,127,251132,1,8,0:0:0:0:
340,199,251405,54,0,P|365:157|365:96,2,100,14|2|2,0:0|0:0|0:0,0:0:0:0:
241,224,252223,2,0,L|122:206,2,100,10|2|2,0:0|0:0|0:0,0:0:0:0:
311,294,253041,2,0,L|409:308,2,100,14|2|2,0:0|0:0|0:0,0:0:0:0:
214,320,253860,2,0,L|95:302,2,100,10|2|2,0:0|0:0|0:0,0:0:0:0:
311,294,254678,6,0,B|339:182|339:182|318:140,2,150,14|2|10,0:0|0:0|0:0,0:0:0:0:
214,321,255769,1,2,0:0:0:0:
124,276,256041,1,8,0:0:0:0:
91,181,256314,2,0,B|158:156|164:90|164:90|214:125|214:125|208:54|255:23,1,300,14|10,0:0|0:0,0:0:0:0:
354,15,257405,1,2,0:0:0:0:
313,106,257678,1,8,0:0:0:0:
353,197,257951,54,0,L|457:188,2,100,14|2|2,0:0|0:0|0:0,0:0:0:0:
258,230,258769,2,0,P|214:228|168:193,2,100,10|2|2,0:0|0:0|0:0,0:0:0:0:
331,297,259587,2,0,P|297:323|238:327,2,100,14|2|2,0:0|0:0|0:0,0:0:0:0:
430,303,260405,2,0,P|421:345|376:386,2,100,10|2|2,0:0|0:0|0:0,0:0:0:0:
384,213,261223,5,14,0:0:0:0:
184,108,262041,2,0,P|291:136|398:107,2,225.000008583069,14|10|10,0:0|0:0|0:0,0:0:0:0:
376,333,264496,54,0,L|307:378,2,75.0000028610231,14|0|0,0:0|0:0|0:0,0:0:0:0:
430,251,265314,2,0,L|492:210,2,75.0000028610231,10|0|0,0:0|0:0|0:0,0:0:0:0:
332,245,266132,2,0,L|263:290,2,75.0000028610231,14|2|2,0:0|0:0|0:0,0:0:0:0:
387,164,266951,2,0,L|449:123,1,75.0000028610231,2|2,0:0|0:0,0:0:0:0:
449,25,267496,53,14,0:0:0:0:
256,192,267632,12,0,272678,0:0:0:0:
