osu file format v14

[General]
AudioFilename: audio.mp3
AudioLeadIn: 0
PreviewTime: 57087
Countdown: 0
SampleSet: Soft
StackLeniency: 0.3
Mode: 0
LetterboxInBreaks: 0
WidescreenStoryboard: 0

[Editor]
Bookmarks: 57231,138504,192504,248140
DistanceSpacing: 1.4
BeatDivisor: 4
GridSize: 16
TimelineZoom: 2.6

[Metadata]
Title:Katayoku no Tori
TitleUnicode:片翼の鳥
Artist:Shikata Akiko
ArtistUnicode:志方あきこ
Creator:IceKalt
Version:Lore & Ice's Hard
Source:うみねこのなく頃に
Tags:opening japanese blue 古戸 ヱリカ furudo erika umineko no naku koro ni sakurauchi_riko phyloukz imoutosan fushimi_rio loreley namki italian 波乃 渉 namino wataru
BeatmapID:1410088
BeatmapSetID:622500

[Difficulty]
HPDrainRate:5.6
CircleSize:3.7
OverallDifficulty:6
ApproachRate:7.5
SliderMultiplier:1.3
SliderTickRate:1

[Events]
//Background and Video events
0,0,"Umineko 1.jpg",0,0
//Break Periods
2,91242,96762
2,176332,178580
2,179605,191671
//Storyboard Layer 0 (Background)
//Storyboard Layer 1 (Fail)
//Storyboard Layer 2 (Pass)
//Storyboard Layer 3 (Foreground)
//Storyboard Sound Samples

[TimingPoints]
1042,272.727272727273,3,2,2,100,1,0
2678,-100,3,2,1,80,0,0
3087,-100,3,2,1,100,0,0
4042,-100,3,2,1,80,0,0
4178,-100,3,2,1,100,0,0
4314,-100,3,2,1,80,0,0
4723,-100,3,2,1,100,0,0
5951,-100,3,2,1,80,0,0
6223,-100,3,2,1,100,0,0
7314,-100,3,2,1,80,0,0
7451,-100,3,2,1,100,0,0
7587,-100,3,2,2,100,0,0
7996,-100,3,2,1,100,0,0
9223,-100,3,2,1,80,0,0
9632,-100,3,2,1,100,0,0
10587,-100,3,2,1,80,0,0
10723,-100,3,2,1,100,0,0
10860,-100,3,2,1,80,0,0
11678,-100,3,2,1,100,0,0
12496,-100,3,2,1,80,0,0
13587,-100,3,2,1,100,0,0
14132,-117.647058823529,3,2,2,60,0,0
20678,-117.647058823529,3,2,1,60,0,0
26405,-117.647058823529,3,2,2,50,0,0
27223,-117.647058823529,3,2,1,60,0,0
33769,-100,3,2,1,60,0,0
40314,-83.3333333333333,3,2,2,100,0,0
41678,-83.3333333333333,3,2,1,100,0,0
41951,-83.3333333333333,3,2,1,70,0,0
43587,-83.3333333333333,3,2,2,80,0,0
44951,-83.3333333333333,3,2,1,60,0,0
46860,-117.647058823529,3,2,2,50,0,0
53951,-117.647058823529,3,2,1,60,0,0
54223,-117.647058823529,3,2,1,70,0,0
54496,-117.647058823529,3,2,1,75,0,0
54769,-117.647058823529,3,2,2,80,0,0
55042,-117.647058823529,3,2,2,50,0,0
57177,285.714285714286,3,2,1,40,1,0
57177,-200,3,2,1,40,0,0
58314,272.727272727273,3,2,2,100,1,1
58587,-100,3,2,1,80,0,1
60223,-100,3,2,1,100,0,1
61587,-100,3,2,1,80,0,1
61860,-100,3,2,1,100,0,1
63155,-100,3,2,1,5,0,1
63223,-100,3,2,1,80,0,1
63496,-100,3,2,1,100,0,1
64860,-100,3,2,1,80,0,1
65132,-100,3,2,1,100,0,1
66496,-100,3,2,1,80,0,1
66769,-100,3,2,1,100,0,1
68132,-100,3,2,1,80,0,1
68405,-100,3,2,1,100,0,1
68951,-100,3,2,1,80,0,1
69223,-100,3,2,1,100,0,1
69769,-100,3,2,1,80,0,1
70042,-100,3,2,1,100,0,1
70587,-86.9565217391304,3,2,1,80,0,1
70860,-86.9565217391304,3,2,1,100,0,1
71405,-100,3,2,2,80,0,1
71678,-100,3,2,1,100,0,1
73042,-100,3,2,1,80,0,1
73314,-100,3,2,1,100,0,1
74678,-100,3,2,1,80,0,1
74951,-100,3,2,1,100,0,1
76246,-100,3,2,1,5,0,1
76314,-100,3,2,1,80,0,1
76587,-100,3,2,1,100,0,1
77951,-100,3,2,1,80,0,1
78360,-100,3,2,1,100,0,1
78769,-100,3,2,1,80,0,1
78905,-100,3,2,1,100,0,1
79042,-100,3,2,1,80,0,1
79178,-100,3,2,1,100,0,1
79587,-100,3,2,1,80,0,1
79723,-100,3,2,1,100,0,1
79860,-100,3,2,1,80,0,1
79996,-100,3,2,1,100,0,1
81223,-100,3,2,1,80,0,1
81496,-100,3,2,1,100,0,1
82042,-100,3,2,1,80,0,1
82178,-100,3,2,1,100,0,1
82860,-100,3,2,1,80,0,1
83132,-100,3,2,1,100,0,1
83678,-100,3,2,1,80,0,1
84495,-100,3,2,1,80,0,0
84769,-100,3,2,1,75,0,0
89405,-100,3,2,1,80,0,0
97587,-133.333333333333,3,2,1,55,0,0
100860,-117.647058823529,3,2,1,55,0,0
104132,-117.647058823529,3,2,1,50,0,0
110678,-117.647058823529,3,2,1,45,0,0
123496,-100,3,2,1,45,0,0
123632,-100,3,2,2,75,0,0
125132,-117.647058823529,3,2,1,50,0,0
127042,-100,3,2,2,75,0,0
128405,-117.647058823529,3,2,1,50,0,0
137405,-117.647058823529,3,2,1,60,0,0
137678,-117.647058823529,3,2,1,70,0,0
137951,-117.647058823529,3,2,1,75,0,0
138223,-117.647058823529,3,2,1,80,0,0
139073,272.727272727273,3,2,1,45,1,0
139073,-117.647058823529,3,2,1,45,0,0
139618,-117.647058823529,3,2,1,60,0,0
139891,-117.647058823529,3,2,1,45,0,0
140132,272.727272727273,3,2,2,90,1,0
140404,-100,3,2,1,90,0,0
141769,-100,3,2,1,75,0,0
142042,-100,3,2,1,90,0,0
143405,-100,3,2,1,75,0,0
143678,-100,3,2,1,90,0,0
144973,-100,3,2,1,45,0,0
145042,-100,3,2,1,75,0,0
145314,-100,3,2,1,90,0,0
146678,-100,3,2,1,75,0,0
146814,-100,3,2,1,90,0,0
148314,-100,3,2,1,75,0,0
148451,-100,3,2,1,90,0,0
149951,-100,3,2,1,75,0,0
150360,-100,3,2,1,90,0,0
151587,-100,3,2,1,75,0,0
151860,-100,3,2,1,90,0,0
152405,-86.9565217391303,3,2,1,90,0,0
153223,-100,3,2,2,75,0,0
153496,-100,3,2,1,90,0,0
154860,-100,3,2,1,75,0,0
155132,-100,3,2,1,90,0,0
156496,-100,3,2,1,75,0,0
156769,-100,3,2,1,90,0,0
158064,-100,3,2,1,45,0,0
158132,-100,3,2,1,75,0,0
158678,-100,3,2,1,90,0,0
158951,-100,3,2,1,75,0,0
159360,-100,3,2,1,90,0,0
159769,-100,3,2,1,75,0,0
160178,-100,3,2,1,90,0,0
161405,-100,3,2,1,75,0,0
161542,-100,3,2,1,90,0,0
163042,-100,3,2,1,75,0,0
163314,-100,3,2,1,90,0,0
163860,-100,3,2,1,75,0,0
164132,-100,3,2,1,90,0,0
164678,-100,3,2,1,75,0,0
164951,-100,3,2,1,90,0,0
165496,-100,3,2,1,75,0,0
165701,-100,3,2,1,5,0,0
165769,-100,3,2,1,75,0,0
165973,-100,3,2,1,5,0,0
166042,-100,3,2,1,75,0,0
166314,-142.857142857143,3,2,1,50,0,0
166587,-142.857142857143,3,2,1,40,0,0
167813,-142.857142857143,3,2,1,5,0,0
167951,-142.857142857143,3,2,1,45,0,0
168223,-142.857142857143,3,2,1,40,0,0
169587,-142.857142857143,3,2,1,50,0,0
170132,-142.857142857143,3,2,1,40,0,0
171223,-142.857142857143,3,2,1,40,0,0
172042,-142.857142857143,3,2,1,30,0,0
172314,-142.857142857143,3,2,1,20,0,0
172587,-142.857142857143,3,2,1,10,0,0
172860,-142.857142857143,3,2,1,60,0,0
173678,-142.857142857143,3,2,1,50,0,0
174496,-142.857142857143,3,2,1,40,0,0
175042,-142.857142857143,3,2,1,30,0,0
175587,-142.857142857143,3,2,1,20,0,0
175860,-142.857142857143,3,2,1,10,0,0
179405,-142.857142857143,3,2,1,60,0,0
192496,-117.647058823529,3,2,1,50,0,0
205587,-117.647058823529,3,2,1,70,0,0
206132,-117.647058823529,3,2,1,50,0,0
208042,-117.647058823529,3,2,1,65,0,0
214587,-117.647058823529,3,2,1,65,0,0
217042,-200,3,2,1,65,0,0
217110,-200,3,2,1,10,0,0
217314,-200,3,2,1,20,0,0
217587,-200,3,2,1,30,0,0
217860,-200,3,2,1,40,0,0
218132,-200,3,2,1,50,0,0
218405,-200,3,2,1,60,0,0
218678,-200,3,2,1,70,0,0
218951,-200,3,2,1,60,0,0
219223,-200,3,2,1,50,0,0
219496,-200,3,2,1,40,0,0
219769,-200,3,2,1,30,0,0
220042,-200,3,2,1,20,0,0
220314,-200,3,2,1,10,0,0
220811,285.714285714286,3,2,1,40,1,0
221951,272.727272727273,3,2,2,100,1,1
222223,-100,3,2,1,80,0,1
223860,-100,3,2,1,100,0,1
225223,-100,3,2,1,80,0,1
225496,-100,3,2,1,100,0,1
226791,-100,3,2,1,50,0,1
226860,-100,3,2,1,80,0,1
227132,-100,3,2,1,100,0,1
228496,-100,3,2,1,80,0,1
228769,-100,3,2,1,100,0,1
230132,-100,3,2,1,80,0,1
230269,-100,3,2,1,100,0,1
231769,-100,3,2,1,80,0,1
232041,-100,3,2,1,100,0,1
232587,-100,3,2,1,80,0,1
232860,-100,3,2,1,100,0,1
233405,-100,3,2,1,80,0,1
233678,-100,3,2,1,100,0,1
234223,-86.9565217391304,3,2,1,100,0,1
235041,-100,3,2,1,80,0,1
235314,-100,3,2,1,100,0,1
236678,-100,3,2,1,80,0,1
236951,-100,3,2,1,100,0,1
238314,-100,3,2,1,80,0,1
238587,-100,3,2,1,100,0,1
239882,-100,3,2,1,50,0,1
239951,-100,3,2,1,80,0,1
240223,-100,3,2,1,100,0,1
241587,-100,3,2,1,80,0,1
241860,-100,3,2,1,100,0,1
242405,-100,3,2,1,80,0,1
242541,-100,3,2,1,100,0,1
243223,-100,3,2,1,80,0,1
243360,-100,3,2,1,100,0,1
244041,-100,3,2,1,80,0,1
244178,-100,3,2,1,100,0,1
244860,-100,3,2,1,80,0,1
245132,-100,3,2,1,100,0,1
245678,-100,3,2,1,80,0,1
245814,-100,3,2,1,100,0,1
246496,-100,3,2,1,80,0,1
246769,-100,3,2,1,100,0,1
247314,-100,3,2,1,80,0,1
247519,-100,3,2,1,5,0,1
247587,-100,3,2,1,80,0,1
247792,-100,3,2,1,5,0,1
247860,-100,3,2,1,80,0,1
248132,-133.333333333333,3,2,1,80,0,0
248405,-133.333333333333,3,2,1,60,0,0
261223,-133.333333333333,3,2,1,70,0,0
262041,-200,3,2,1,50,0,0
262042,-200,3,2,1,40,0,0
262314,-200,3,2,1,20,0,0
262860,-200,3,2,1,40,0,0
263132,-200,3,2,1,20,0,0
264496,-200,3,2,1,40,0,0
264769,-200,3,2,1,20,0,0
266132,-200,3,2,1,40,0,0
266405,-200,3,2,1,20,0,0
267496,-200,3,2,1,60,0,0
268042,-200,3,2,1,50,0,0
268587,-200,3,2,1,40,0,0
269405,-200,3,2,1,30,0,0
271042,-200,3,2,1,20,0,0
271860,-200,3,2,1,10,0,0
272678,-200,3,2,0,5,0,0

[Colours]
Combo1 : 253,66,99
Combo2 : 174,187,191
Combo3 : 0,81,232
Combo4 : 255,159,253
Combo5 : 12,177,186

[HitObjects]
22,321,1042,22,0,P|96:351|147:352,1,130,12|0,0:0|0:0,0:0:0:0:
253,300,1451,2,0,P|179:270|128:269,1,130,8|0,0:0|0:0,0:0:0:0:
47,229,1860,2,0,L|28:159,1,65,8|0,0:0|0:0,0:0:0:0:
120,165,2132,2,0,L|139:95,1,65,8|0,0:0|0:0,0:0:0:0:
47,81,2405,2,0,L|28:11,1,65,8|0,0:0|0:0,0:0:0:0:
172,26,2678,38,0,P|234:40|311:23,1,130,4|0,0:0|0:0,0:0:0:0:
420,113,3087,2,0,P|358:99|281:116,1,130,8|0,0:0|0:0,0:0:0:0:
262,196,3496,2,0,P|283:233|313:255,1,65,8|0,0:0|0:0,0:0:0:0:
360,315,3769,2,0,P|339:352|309:374,1,65,8|0,0:0|0:0,0:0:0:0:
240,325,4042,1,12,0:0:0:0:
240,325,4178,1,8,0:0:0:0:
164,223,4314,22,0,B|156:306|156:306|138:356,1,130,12|0,0:0|0:0,0:0:0:0:
72,260,4723,2,0,B|80:177|80:177|98:127,1,130,8|0,0:0|0:0,0:0:0:0:
174,86,5132,2,0,L|249:66,1,65,8|0,0:0|0:0,0:0:0:0:
308,126,5405,2,0,L|400:149,1,65,8|0,0:0|0:0,0:0:0:0:
400,228,5678,2,0,L|448:288,1,65,8|0,0:0|0:0,0:0:0:0:
349,343,5951,38,0,P|301:355|214:323,2,130,12|8|0,0:0|0:0|0:0,0:0:0:0:
258,184,6769,2,0,L|216:256,1,65,8|0,0:0|0:0,0:0:0:0:
133,240,7042,2,0,L|100:183,1,65,8|0,0:0|0:0,0:0:0:0:
178,138,7314,1,12,0:0:0:0:
178,138,7451,1,8,0:0:0:0:
224,53,7587,22,0,P|300:71|338:118,1,130,12|0,0:0|0:0,0:0:0:0:
414,201,7996,2,0,P|338:219|300:266,1,130,8|0,0:0|0:0,0:0:0:0:
372,317,8405,2,0,P|413:301|439:281,1,65,8|0,0:0|0:0,0:0:0:0:
498,229,8678,2,0,P|502:195|498:163,1,65,8|0,0:0|0:0,0:0:0:0:
431,102,8951,2,0,P|403:84|372:74,1,65,8|0,0:0|0:0,0:0:0:0:
287,155,9223,38,0,L|157:193,1,130,12|0,0:0|0:0,0:0:0:0:
278,259,9632,2,0,L|402:222,1,130,8|0,0:0|0:0,0:0:0:0:
466,156,10042,2,0,L|441:95,1,65,8|0,0:0|0:0,0:0:0:0:
352,77,10314,2,0,L|376:137,1,65,8|0,0:0|0:0,0:0:0:0:
402,221,10587,1,12,0:0:0:0:
402,221,10723,1,8,0:0:0:0:
378,309,10860,22,0,P|310:290|239:318,1,130,12|0,0:0|0:0,0:0:0:0:
236,217,11269,2,0,P|168:236|97:208,1,130,8|0,0:0|0:0,0:0:0:0:
7,156,11678,2,0,P|40:137|84:137,1,65,8|0,0:0|0:0,0:0:0:0:
120,60,11951,2,0,P|157:66|192:95,1,65,8|0,0:0|0:0,0:0:0:0:
269,70,12223,2,0,P|293:99|301:142,1,65,8|8,0:0|0:0,0:0:0:0:
269,210,12496,38,0,L|144:243,2,130,12|8|8,0:0|0:0|0:0,0:0:0:0:
350,47,13314,2,0,L|475:80,2,130,8|8|8,0:0|0:0|0:0,0:0:0:0:
183,155,14132,54,0,P|213:81|122:112,1,221.000004215241,14|2,0:0|0:0,0:0:0:0:
197,243,14951,2,0,P|132:228|101:182,2,110.50000210762,10|2|10,0:0|0:0|0:0,0:0:0:0:
349,269,15769,2,0,P|420:267|461:225,1,110.50000210762,10|0,0:0|0:0,0:0:0:0:
382,195,16178,1,2,0:0:0:0:
382,195,16314,1,2,0:0:0:0:
305,60,16587,22,0,P|277:79|235:89,2,55.2500010538101,10|2|2,0:0|0:0|0:0,0:0:0:0:
195,169,17132,2,0,L|194:238,1,55.2500010538101,2|0,0:0|0:0,0:0:0:0:
158,293,17405,38,0,P|217:260|328:257,1,165.75000316143,14|2,0:0|0:0,0:0:0:0:
365,311,17951,1,2,0:0:0:0:
408,163,18223,1,10,0:0:0:0:
283,70,18496,1,2,0:0:0:0:
145,140,18769,1,2,0:0:0:0:
158,293,19042,22,0,P|96:303|43:260,1,110.50000210762,10|0,0:0|0:0,0:0:0:0:
20,211,19451,1,0,0:0:0:0:
20,211,19587,2,0,L|71:171,1,55.2500010538101,2|0,0:0|0:0,0:0:0:0:
101,106,19860,2,0,P|122:127|159:144,2,55.2500010538101,10|2|0,0:0|0:0|0:0,0:0:0:0:
257,146,20405,2,0,L|259:227,1,55.2500010538101,2|2,0:0|0:0,0:0:0:0:
290,272,20678,38,0,P|284:205|371:258,1,221.000004215241,14|2,0:0|0:0,0:0:0:0:
253,352,21496,2,0,P|209:312|189:257,2,110.50000210762,10|2|2,0:0|0:0|0:0,0:0:0:0:
303,210,22314,22,0,B|315:189|322:150|322:150|369:165|415:151|415:151|425:199|440:225,1,221.000004215241,10|2,0:0|0:0,0:0:0:0:
482,358,23132,2,0,P|509:309|504:238,2,110.50000210762,10|2|2,0:0|0:0|0:0,0:0:0:0:
433,211,23951,38,0,L|407:80,2,110.50000210762,14|0|2,0:0|0:0|0:0,0:0:0:0:
322,141,24769,1,10,0:0:0:0:
342,276,25042,2,0,P|340:328|290:339,1,110.50000210762,2|2,0:0|0:0,0:0:0:0:
235,211,25587,22,0,B|149:223|83:276|83:276|100:238|134:219,1,221.000004215241,10|2,0:0|0:0,0:0:0:0:
136,79,26405,2,0,P|140:120|133:150,1,55.2500010538101,6|0,0:0|0:0,0:0:0:0:
236,156,26678,2,0,P|232:197|239:227,1,55.2500010538101,6|0,0:0|0:0,0:0:0:0:
241,297,26951,1,6,0:0:0:0:
241,297,27087,1,10,0:0:0:0:
319,335,27223,38,0,B|379:341|414:313|414:313|440:351|477:361|492:330|492:330|461:305,1,221.000004215241,14|2,0:0|0:0,0:0:0:0:
418,171,28042,2,0,B|366:204|366:204|342:257,2,110.50000210762,10|2|2,0:0|0:0|0:0,0:0:0:0:
292,80,28860,2,0,B|245:117|190:110|190:110|207:134|207:134|160:152|148:191,1,221.000004215241,10|2,0:0|0:0,0:0:0:0:
105,336,29678,2,0,P|159:323|224:342,1,110.50000210762,8|0,0:0|0:0,0:0:0:0:
362,372,30224,1,2,0:0:0:0:
313,312,30360,1,2,0:0:0:0:
381,276,30496,22,0,B|413:239|430:148|409:106|409:106|390:117|386:146,1,221.000004215241,10|0,0:0|0:0,0:0:0:0:
273,244,31314,2,0,P|217:253|163:230,2,110.50000210762,10|0|2,0:0|0:0|0:0,0:0:0:0:
400,332,32132,2,0,P|456:341|510:318,2,110.50000210762,10|0|2,0:0|0:0|0:0,0:0:0:0:
273,244,32951,2,0,P|253:294|256:357,1,110.50000210762
377,256,33496,1,0,0:0:0:0:
278,156,33769,38,0,P|208:119|189:62,2,130,14|0|0,0:0|0:0|0:0,0:0:0:0:
453,106,34587,2,0,L|370:108,1,65
430,26,34860,2,0,L|365:27,1,65
282,64,35132,1,2,0:0:0:0:
255,244,35405,22,0,P|325:207|344:150,2,130,10|0|2,0:0|0:0|0:0,0:0:0:0:
166,84,36223,2,0,L|232:63,1,65,10|0,0:0|0:0,0:0:0:0:
308,21,36496,2,0,L|368:44,1,65,2|0,0:0|0:0,0:0:0:0:
426,115,36769,2,0,P|442:148|440:184,1,65,2|0,0:0|0:0,0:0:0:0:
403,273,37042,22,0,P|307:359|174:302,1,260,14|2,0:0|0:0,0:0:0:0:
58,200,37860,2,0,P|154:114|287:171,1,260,10|2,0:0|0:0,0:0:0:0:
301,327,38678,2,0,B|320:263|266:232|266:232|329:235|363:187|352:128,1,260,14|0,0:0|0:0,0:0:0:0:
177,37,39496,2,0,B|273:55|269:149|269:149|273:54|369:35,1,325,14|0,0:0|0:0,0:0:0:0:
191,233,40314,22,0,B|155:116|155:116|201:132,1,155.999995239258,4|0,0:0|0:0,0:0:0:0:
356,232,40723,2,0,B|392:115|392:115|346:131,1,155.999995239258,4|0,0:0|0:0,0:0:0:0:
397,28,41132,2,0,L|313:61,1,77.999997619629,4|0,0:0|0:0,0:0:0:0:
150,30,41405,2,0,L|234:63,1,77.999997619629,4|0,0:0|0:0,0:0:0:0:
273,143,41678,38,0,L|273:233,1,77.999997619629,10|0,0:0|0:0,0:0:0:0:
194,221,41951,1,10,0:0:0:0:
122,190,42223,1,2,0:0:0:0:
106,113,42496,1,2,0:0:0:0:
250,3,42769,5,10,0:0:0:0:
259,79,43041,1,2,0:0:0:0:
200,132,43314,1,2,0:0:0:0:
250,3,43587,6,0,B|304:53|385:37|385:37|377:48|368:54,1,155.999995239258,4|0,0:0|0:0,0:0:0:0:
378,194,43996,2,0,B|376:190|384:202|384:202|303:186|250:235,1,155.999995239258,4|0,0:0|0:0,0:0:0:0:
178,119,44405,2,0,P|217:118|256:119,1,77.999997619629,4|0,0:0|0:0,0:0:0:0:
111,208,44678,2,0,L|33:208,1,77.999997619629,4|0,0:0|0:0,0:0:0:0:
46,123,44951,38,0,P|72:85|82:41,1,77.999997619629,10|0,0:0|0:0,0:0:0:0:
153,26,45223,1,10,0:0:0:0:
229,42,45496,1,2,0:0:0:0:
355,142,45769,5,10,0:0:0:0:
277,155,46042,1,2,0:0:0:0:
226,96,46314,1,2,0:0:0:0:
249,20,46587,1,2,0:0:0:0:
432,20,46860,22,0,P|426:123|326:149,1,221.000004215241,14|0,0:0|0:0,0:0:0:0:
259,209,47678,2,0,P|207:227|156:210,2,110.50000210762,10|2|2,0:0|0:0|0:0,0:0:0:0:
182,123,48496,38,0,P|79:161|83:266,1,221.000004215241,10|0,0:0|0:0,0:0:0:0:
276,127,49314,2,0,P|264:73|223:38,2,110.50000210762,10|2|2,0:0|0:0|0:0,0:0:0:0:
223,224,50132,22,0,L|339:263,2,110.50000210762,10|0|2,0:0|0:0|0:0,0:0:0:0:
148,306,50951,2,0,L|32:345,2,110.50000210762,10|0|2,0:0|0:0|0:0,0:0:0:0:
256,329,51769,1,10,0:0:0:0:
240,125,52587,37,10,0:0:0:0:
145,167,52860,1,0,0:0:0:0:
285,194,53132,1,2,0:0:0:0:
179,34,53405,5,14,0:0:0:0:
256,192,53473,12,0,55860,0:0:0:0:
379,350,57177,6,0,P|317:321|382:236,1,195,2|2,0:0|0:0,0:0:0:0:
369,235,58314,54,0,P|309:246|224:233,1,130,14|0,0:0|0:0,0:0:0:0:
185,329,58723,2,0,P|249:321|313:332,1,130,8|0,0:0|0:0,0:0:0:0:
394,290,59132,2,0,P|397:253|416:204,1,65,10|0,0:0|0:0,0:0:0:0:
452,148,59405,2,0,L|378:142,1,65,8|0,0:0|0:0,0:0:0:0:
336,66,59678,2,0,L|410:60,1,65,8|0,0:0|0:0,0:0:0:0:
296,168,59951,22,0,L|299:29,2,130,14|0|8,0:0|0:0|0:0,0:0:0:0:
191,317,60769,2,0,P|159:319|127:316,1,65,10|0,0:0|0:0,0:0:0:0:
164,232,61042,2,0,P|134:218|108:199,1,65,8|0,0:0|0:0,0:0:0:0:
180,143,61314,2,0,P|161:116|148:86,1,65,8|0,0:0|0:0,0:0:0:0:
64,50,61587,38,0,P|57:111|19:187,1,130,14|0,0:0|0:0,0:0:0:0:
6,260,61996,2,0,P|36:274|72:275,1,65,8|0,0:0|0:0,0:0:0:0:
148,329,62269,1,2,0:0:0:0:
148,329,62405,22,0,P|202:287|273:305,1,130,10|8,0:0|0:0,0:0:0:0:
437,336,62951,2,0,P|436:285|448:231,1,97.5,8|0,0:0|0:0,0:0:0:0:
471,202,63223,38,0,L|476:64,2,130,14|0|8,0:0|0:0|0:0,0:0:0:0:
292,160,64042,22,0,P|304:101|388:79,2,130,10|8|8,0:0|0:0|0:0,0:0:0:0:
344,234,64723,1,2,0:0:0:0:
297,317,64860,38,0,L|156:323,2,130,14|0|8,0:0|0:0|0:0,0:0:0:0:
193,167,65678,2,0,L|63:161,2,130,10|8|8,0:0|0:0|0:0,0:0:0:0:
334,52,66496,22,0,P|323:109|336:189,1,130,14|0,0:0|0:0,0:0:0:0:
409,229,66905,2,0,P|411:278|400:311,1,65,8|0,0:0|0:0,0:0:0:0:
321,307,67178,1,2,0:0:0:0:
321,307,67314,38,0,P|272:279|187:284,1,130,10|8,0:0|0:0,0:0:0:0:
58,159,67860,1,8,0:0:0:0:
122,222,67996,1,8,0:0:0:0:
65,289,68132,22,0,L|58:140,1,130,14|0,0:0|0:0,0:0:0:0:
111,83,68542,2,0,P|151:83|182:77,1,65,8|0,0:0|0:0,0:0:0:0:
260,123,68814,1,2,0:0:0:0:
260,123,68951,38,0,P|304:97|390:114,1,130,14|0,0:0|0:0,0:0:0:0:
453,161,69360,2,0,L|452:231,1,65,8|8,0:0|0:0,0:0:0:0:
442,319,69632,1,2,0:0:0:0:
442,319,69769,22,0,P|398:293|312:310,1,130,14|0,0:0|0:0,0:0:0:0:
240,342,70178,2,0,L|162:339,1,65,8|8,0:0|0:0,0:0:0:0:
154,255,70451,1,2,0:0:0:0:
154,255,70587,38,0,P|148:203|168:162,1,74.7500014257431,14|0,0:0|0:0,0:0:0:0:
288,184,70860,2,0,P|245:215|200:218,1,74.7500014257431,8|0,0:0|0:0,0:0:0:0:
159,104,71132,2,0,P|207:124|232:162,1,74.7500014257431,8|8,0:0|0:0,0:0:0:0:
154,255,71405,22,0,L|-4:246,1,130,14|0,0:0|0:0,0:0:0:0:
37,338,71814,2,0,L|195:329,1,130,8|0,0:0|0:0,0:0:0:0:
257,342,72223,2,0,P|259:311|291:257,1,65,10|0,0:0|0:0,0:0:0:0:
356,244,72496,2,0,L|420:249,1,65,8|0,0:0|0:0,0:0:0:0:
422,339,72769,2,0,L|357:344,1,65,8|0,0:0|0:0,0:0:0:0:
257,342,73042,38,0,L|260:203,2,130,14|0|8,0:0|0:0|0:0,0:0:0:0:
171,371,73723,1,0,0:0:0:0:
87,333,73860,2,0,P|54:331|22:325,1,65,10|0,0:0|0:0,0:0:0:0:
39,235,74132,2,0,P|71:236|103:242,1,65,8|0,0:0|0:0,0:0:0:0:
180,291,74405,1,8,0:0:0:0:
218,208,74542,1,2,0:0:0:0:
139,163,74678,22,0,P|127:97|138:33,1,130,14|0,0:0|0:0,0:0:0:0:
228,44,75087,2,0,P|260:42|292:45,1,65,8|8,0:0|0:0,0:0:0:0:
371,102,75360,1,2,0:0:0:0:
371,102,75496,38,0,P|308:95|259:135,1,130,10|8,0:0|0:0,0:0:0:0:
250,330,76042,2,0,P|303:337|355:330,1,97.5,8|0,0:0|0:0,0:0:0:0:
387,313,76314,22,0,P|453:293|526:317,2,130,14|0|8,0:0|0:0|0:0,0:0:0:0:
230,217,77132,2,0,L|226:86,2,130,10|8|8,0:0|0:0|0:0,0:0:0:0:
303,270,77814,1,2,0:0:0:0:
309,178,77951,38,0,B|367:191|367:191|438:168,1,130,14|0,0:0|0:0,0:0:0:0:
512,122,78360,2,0,L|503:270,1,130,2|8,0:0|0:0,0:0:0:0:
437,314,78769,22,0,P|375:296|307:308,2,130,14|10|8,0:0|0:0|0:0,0:0:0:0:
331,257,79587,38,0,P|331:225|346:196,1,65,14|2,0:0|0:0,0:0:0:0:
385,342,79860,2,0,P|325:362|269:333,1,130,8|10,0:0|0:0,0:0:0:0:
249,255,80269,1,0,0:0:0:0:
249,255,80405,22,0,P|200:224|115:232,2,130,10|8|8,0:0|0:0|0:0,0:0:0:0:
181,316,81087,1,2,0:0:0:0:
253,370,81223,38,0,L|398:351,1,130,14|0,0:0|0:0,0:0:0:0:
443,285,81632,2,0,P|418:258|410:222,1,65,8|0,0:0|0:0,0:0:0:0:
463,158,81905,1,2,0:0:0:0:
463,158,82042,22,0,P|437:93|377:88,1,130,14|8,0:0|0:0,0:0:0:0:
300,124,82451,2,0,L|299:194,1,65,8|2,0:0|0:0,0:0:0:0:
234,252,82723,1,2,0:0:0:0:
234,252,82860,38,0,L|99:268,1,130,14|0,0:0|0:0,0:0:0:0:
38,204,83269,2,0,P|32:167|30:126,1,65,8|0,0:0|0:0,0:0:0:0:
72,61,83542,1,2,0:0:0:0:
72,61,83678,38,0,P|120:45|208:93,2,130,14|14|8,0:0|0:0|0:0,0:0:0:0:
126,134,84360,1,4,0:0:0:0:
264,42,84495,54,0,P|261:107|201:148,1,130,14|10,0:0|0:0,0:0:0:0:
162,220,84905,1,0,0:0:0:0:
180,309,85042,2,0,L|262:303,1,65,8|0,0:0|0:0,0:0:0:0:
332,283,85314,38,0,L|321:357,1,65,8|0,0:0|0:0,0:0:0:0:
407,327,85587,2,0,L|417:263,1,65,12|0,0:0|0:0,0:0:0:0:
495,291,85860,2,0,L|484:365,1,65,12|0,0:0|0:0,0:0:0:0:
477,213,86132,22,0,P|479:177|471:131,1,65,14|0,0:0|0:0,0:0:0:0:
429,69,86405,1,8,0:0:0:0:
374,142,86542,2,0,P|341:143|312:130,1,65,0|8,0:0|0:0,0:0:0:0:
275,52,86814,1,8,0:0:0:0:
275,52,86951,38,0,L|123:50,2,130,14|8|8,0:0|0:0|0:0,0:0:0:0:
248,232,87769,2,0,P|182:245|135:182,1,130,14|14,0:0|0:0,0:0:0:0:
92,111,88178,1,0,0:0:0:0:
92,111,88314,2,0,P|49:113|16:144,1,65,8|0,0:0|0:0,0:0:0:0:
17,215,88587,22,0,L|1:352,2,130,14|14|14,0:0|0:0|0:0,0:0:0:0:
31,125,89269,1,0,0:0:0:0:
43,35,89405,1,14,0:0:0:0:
256,192,89473,12,0,90769,0:0:0:0:
256,192,91042,37,12,0:0:0:0:
425,87,97587,38,0,B|290:53|294:192|141:146,2,292.50001115799,4|0|0,0:0|0:0|0:0,0:0:0:0:
485,209,99496,1,2,0:0:0:0:
387,305,99769,1,2,0:0:0:0:
274,227,100042,5,2,0:0:0:0:
167,311,100314,1,2,0:0:0:0:
76,208,100587,1,2,0:0:0:0:
179,98,100860,54,0,B|202:167|202:167|162:328,1,221.000004215241,4|0,0:0|0:0,0:0:0:0:
304,239,101678,2,0,B|373:229|373:229|442:277|442:277|518:263,1,221.000004215241,2|0,0:0|0:0,0:0:0:0:
353,308,102496,5,2,0:0:0:0:
456,192,102769,1,2,0:0:0:0:
309,140,103042,1,2,0:0:0:0:
423,36,103314,54,0,L|430:112,1,55.2500010538101,2|0,0:0|0:0,0:0:0:0:
359,128,103587,2,0,L|364:183,1,55.2500010538101,2|0,0:0|0:0,0:0:0:0:
287,195,103860,2,0,L|294:271,1,55.2500010538101,2|0,0:0|0:0,0:0:0:0:
288,327,104132,6,0,P|265:324|229:326,1,55.2500010538101,6|0,0:0|0:0,0:0:0:0:
156,340,104405,2,0,P|92:336|61:284,1,110.50000210762,2|2,0:0|0:0,0:0:0:0:
51,147,104951,2,0,L|50:21,2,110.50000210762,6|2|2,0:0|0:0|0:0,0:0:0:0:
157,259,105769,21,6,0:0:0:0:
256,140,106042,1,2,0:0:0:0:
356,256,106314,1,2,0:0:0:0:
250,369,106587,2,0,L|256:258,1,110.50000210762,6|2,0:0|0:0,0:0:0:0:
163,134,107132,1,2,0:0:0:0:
314,165,107405,37,6,0:0:0:0:
266,17,107678,1,2,0:0:0:0:
417,46,107951,1,2,0:0:0:0:
451,196,108223,2,0,P|402:170|347:165,1,110.50000210762,6|2,0:0|0:0,0:0:0:0:
247,284,108769,1,2,0:0:0:0:
386,343,109042,21,6,0:0:0:0:
247,284,109314,1,0,0:0:0:0:
225,150,109587,1,2,0:0:0:0:
225,150,109723,1,2,0:0:0:0:
225,150,109860,38,0,P|181:128|66:228,1,221.000004215241,10|10,0:0|0:0,0:0:0:0:
87,297,110542,1,0,0:0:0:0:
158,326,110678,22,0,L|293:330,2,110.50000210762,14|0|0,0:0|0:0|0:0,0:0:0:0:
291,248,111496,2,0,P|329:264|349:345,1,110.50000210762,10|2,0:0|0:0,0:0:0:0:
407,179,112042,2,0,L|412:111,1,55.2500010538101,2|0,0:0|0:0,0:0:0:0:
365,61,112314,38,0,B|313:72|313:72|233:58,1,110.50000210762,10|0,0:0|0:0,0:0:0:0:
203,44,112723,1,2,0:0:0:0:
149,59,112860,1,2,0:0:0:0:
246,224,113132,22,0,P|292:187|359:204,1,110.50000210762,10|2,0:0|0:0,0:0:0:0:
425,315,113678,2,0,P|393:323|352:313,1,55.2500010538101,2|0,0:0|0:0,0:0:0:0:
311,263,113951,38,0,L|316:385,1,110.50000210762,14|0,0:0|0:0,0:0:0:0:
174,310,114496,2,0,L|170:243,1,55.2500010538101,0|0,0:0|0:0,0:0:0:0:
155,178,114769,2,0,P|116:152|48:164,2,110.50000210762,10|0|0,0:0|0:0|0:0,0:0:0:0:
288,92,115587,22,0,P|237:90|181:48,1,110.50000210762,14|0,0:0|0:0,0:0:0:0:
335,10,116132,2,0,P|302:6|268:17,1,55.2500010538101,2|0,0:0|0:0,0:0:0:0:
205,29,116405,22,0,L|-20:40,1,221.000004215241,10|2,0:0|0:0,0:0:0:0:
21,189,117223,6,0,L|20:303,1,110.50000210762,14|0,0:0|0:0,0:0:0:0:
84,342,117632,1,2,0:0:0:0:
150,301,117769,2,0,L|213:286,1,55.2500010538101,2|0,0:0|0:0,0:0:0:0:
251,227,118041,22,0,P|205:190|138:207,1,110.50000210762,10|0,0:0|0:0,0:0:0:0:
156,194,118587,1,2,0:0:0:0:
245,67,118860,38,0,L|366:58,1,110.50000210762,14|0,0:0|0:0,0:0:0:0:
422,100,119269,1,2,0:0:0:0:
387,169,119405,2,0,L|385:235,1,55.2500010538101,2|0,0:0|0:0,0:0:0:0:
353,295,119678,54,0,P|325:278|245:281,2,110.50000210762,10|2|2,0:0|0:0|0:0,0:0:0:0:
249,179,120496,38,0,L|119:183,1,110.50000210762,10|0,0:0|0:0,0:0:0:0:
64,45,121042,2,0,L|55:118,1,55.2500010538101,2|0,0:0|0:0,0:0:0:0:
40,175,121314,37,10,0:0:0:0:
111,312,121587,1,0,0:0:0:0:
253,251,121860,1,2,0:0:0:0:
201,105,122132,54,0,P|249:81|317:95,1,110.50000210762,14|0,0:0|0:0,0:0:0:0:
425,173,122678,2,0,L|421:245,1,55.2500010538101,0|0,0:0|0:0,0:0:0:0:
355,268,122951,6,0,P|307:244|239:258,1,110.50000210762,14|0,0:0|0:0,0:0:0:0:
82,318,123496,1,0,0:0:0:0:
131,241,123632,1,4,0:0:0:0:
39,237,123769,6,0,L|38:97,1,130,4|0,0:0|0:0,0:0:0:0:
125,81,124178,2,0,L|124:210,1,130,4|4,0:0|0:0,0:0:0:0:
168,290,124587,2,0,L|316:277,1,130,4|0,0:0|0:0,0:0:0:0:
297,278,125132,37,10,0:0:0:0:
382,148,125405,1,10,0:0:0:0:
474,272,125678,1,0,0:0:0:0:
489,117,125951,1,2,0:0:0:0:
389,234,126223,5,10,0:0:0:0:
272,144,126496,1,0,0:0:0:0:
125,212,126769,1,0,0:0:0:0:
178,20,127042,6,0,P|199:81|177:157,1,130,4|0,0:0|0:0,0:0:0:0:
125,212,127451,2,0,P|104:150|126:74,1,130,4|0,0:0|0:0,0:0:0:0:
185,143,127860,2,0,L|324:129,1,130,4|4,0:0|0:0,0:0:0:0:
314,129,128405,37,10,0:0:0:0:
314,283,128678,1,10,0:0:0:0:
445,201,128951,1,0,0:0:0:0:
290,209,129223,1,2,0:0:0:0:
413,115,129496,5,10,0:0:0:0:
397,269,129769,1,2,0:0:0:0:
310,140,130042,2,0,L|307:195,1,55.2500010538101,2|0,0:0|0:0,0:0:0:0:
307,108,130314,54,0,B|161:80|161:80|81:127,1,221.000004215241,14|0,0:0|0:0,0:0:0:0:
58,266,131132,5,10,0:0:0:0:
197,332,131405,1,2,0:0:0:0:
339,271,131678,1,2,0:0:0:0:
468,356,131951,54,0,P|435:254|495:165,1,221.000004215241,14|0,0:0|0:0,0:0:0:0:
396,45,132769,5,10,0:0:0:0:
294,161,133042,1,2,0:0:0:0:
172,65,133314,1,2,0:0:0:0:
60,172,133587,22,0,P|74:225|72:306,1,110.50000210762,10|0,0:0|0:0,0:0:0:0:
97,364,133995,1,2,0:0:0:0:
97,364,134132,2,0,L|158:374,1,55.2500010538101,2|0,0:0|0:0,0:0:0:0:
207,318,134405,38,0,L|324:303,1,110.50000210762,10|0,0:0|0:0,0:0:0:0:
384,369,134814,1,2,0:0:0:0:
384,369,134951,2,0,L|445:379,1,55.2500010538101,2|0,0:0|0:0,0:0:0:0:
501,316,135223,2,0,P|506:269|496:183,1,110.50000210762,10|0,0:0|0:0,0:0:0:0:
446,151,135632,2,0,L|445:88,1,55.2500010538101,2|0,0:0|0:0,0:0:0:0:
300,67,136042,22,0,L|298:143,1,55.2500010538101,10|0,0:0|0:0,0:0:0:0:
235,166,136314,2,0,L|233:221,1,55.2500010538101,10|0,0:0|0:0,0:0:0:0:
291,272,136587,2,0,L|284:398,1,110.50000210762,2|14,0:0|0:0,0:0:0:0:
256,192,136928,12,0,138223,0:0:0:0:
256,192,138496,21,0,0:0:0:0:
416,32,139073,2,0,P|364:50|305:48,1,110.50000210762,2|2,0:0|0:0,0:0:0:0:
142,137,139618,2,0,P|194:155|253:153,1,110.50000210762,2|2,0:0|0:0,0:0:0:0:
431,177,140132,6,0,P|395:223|324:239,1,130,14|0,0:0|0:0,0:0:0:0:
213,267,140542,2,0,P|264:284|310:349,1,130,0|8,0:0|0:0,0:0:0:0:
223,375,140951,2,0,P|189:376|156:365,1,65,10|0,0:0|0:0,0:0:0:0:
97,300,141223,2,0,P|66:309|33:308,1,65,8|0,0:0|0:0,0:0:0:0:
59,220,141496,2,0,P|63:186|53:151,1,65,8|0,0:0|0:0,0:0:0:0:
3,78,141769,6,0,P|50:113|140:95,2,130,14|0|8,0:0|0:0|0:0,0:0:0:0:
174,15,142587,2,0,P|218:13|259:28,1,65,10|0,0:0|0:0,0:0:0:0:
315,65,142860,2,0,P|338:87|353:116,1,65,8|0,0:0|0:0,0:0:0:0:
331,204,143132,1,8,0:0:0:0:
241,186,143269,1,0,0:0:0:0:
272,271,143405,54,0,P|332:253|405:270,1,130,14|0,0:0|0:0,0:0:0:0:
417,354,143814,2,0,P|384:349|353:355,1,65,8|2,0:0|0:0,0:0:0:0:
266,363,144087,1,2,0:0:0:0:
266,363,144223,2,0,P|207:341|180:284,1,130,10|8,0:0|0:0,0:0:0:0:
257,118,144769,2,0,P|266:165|265:214,1,97.5,8|0,0:0|0:0,0:0:0:0:
228,187,145041,6,0,P|176:179|107:227,2,130,14|0|8,0:0|0:0|0:0,0:0:0:0:
159,380,145860,2,0,P|154:319|196:247,2,130,10|8|8,0:0|0:0|0:0,0:0:0:0:
246,352,146541,1,0,0:0:0:0:
283,268,146678,54,0,B|340:259|340:259|419:285,2,130,14|8|8,0:0|0:0|0:0,0:0:0:0:
108,217,147496,2,0,B|176:194|176:194|233:203,2,130,8|8|8,0:0|0:0|0:0,0:0:0:0:
248,101,148314,6,0,P|191:112|111:99,1,130,14|8,0:0|0:0,0:0:0:0:
72,24,148723,2,0,P|120:26|154:16,1,65,8|2,0:0|0:0,0:0:0:0:
229,4,148996,1,2,0:0:0:0:
229,4,149132,2,0,P|244:60|234:143,1,130,10|8,0:0|0:0,0:0:0:0:
55,146,149678,1,8,0:0:0:0:
102,223,149814,1,2,0:0:0:0:
11,226,149950,54,0,P|34:176|16:80,1,130,14|0,0:0|0:0,0:0:0:0:
93,37,150360,2,0,P|124:27|164:31,1,65,8|0,0:0|0:0,0:0:0:0:
237,80,150632,1,2,0:0:0:0:
237,80,150769,2,0,P|299:91|362:69,1,130,10|8,0:0|0:0,0:0:0:0:
450,89,151178,2,0,P|446:124|455:159,1,65,8|2,0:0|0:0,0:0:0:0:
512,228,151451,1,2,0:0:0:0:
512,228,151587,6,0,P|468:202|382:219,1,130,14|0,0:0|0:0,0:0:0:0:
330,279,151996,1,2,0:0:0:0:
330,279,152132,2,0,P|293:285|252:276,1,65,8|8,0:0|0:0,0:0:0:0:
182,187,152405,2,0,L|188:275,1,74.7500014257431,10|0,0:0|0:0,0:0:0:0:
97,206,152678,2,0,L|103:294,1,74.7500014257431,8|0,0:0|0:0,0:0:0:0:
12,225,152951,2,0,L|18:313,1,74.7500014257431,8|2,0:0|0:0,0:0:0:0:
164,336,153223,54,0,P|251:310|267:274,1,130,14|0,0:0|0:0,0:0:0:0:
248,190,153632,2,0,P|286:239|349:245,1,130,8|0,0:0|0:0,0:0:0:0:
329,154,154042,2,0,P|302:120|262:102,1,65,10|0,0:0|0:0,0:0:0:0:
197,82,154314,2,0,P|164:84|135:98,1,65,8|0,0:0|0:0,0:0:0:0:
139,190,154587,2,0,P|145:222|127:274,1,65,8|0,0:0|0:0,0:0:0:0:
54,219,154860,6,0,P|41:142|61:79,2,130,14|0|8,0:0|0:0|0:0,0:0:0:0:
218,140,155678,2,0,P|248:128|294:126,1,65,10|0,0:0|0:0,0:0:0:0:
371,126,155951,2,0,P|406:130|438:142,1,65,8|0,0:0|0:0,0:0:0:0:
453,228,156223,1,8,0:0:0:0:
386,290,156360,1,0,0:0:0:0:
322,224,156496,54,0,P|339:294|312:367,1,130,14|0,0:0|0:0,0:0:0:0:
235,372,156905,2,0,P|202:376|170:369,1,65,8|0,0:0|0:0,0:0:0:0:
97,324,157178,1,2,0:0:0:0:
97,324,157314,2,0,P|146:283|209:290,1,130,10|8,0:0|0:0,0:0:0:0:
46,205,157860,2,0,P|97:213|142:202,1,97.5,8|0,0:0|0:0,0:0:0:0:
146,157,158132,6,0,P|86:130|17:126,2,130,14|0|0,0:0|0:0|0:0,0:0:0:0:
186,335,158951,2,0,P|246:362|315:366,2,130,14|0|8,0:0|0:0|0:0,0:0:0:0:
160,247,159632,1,2,0:0:0:0:
227,185,159769,54,0,B|304:209|304:209|357:180,1,130,14|0,0:0|0:0,0:0:0:0:
411,120,160178,2,0,P|391:172|417:245,1,130,10|0,0:0|0:0,0:0:0:0:
474,308,160587,2,0,P|412:290|344:302,2,130,10|8|8,0:0|0:0|0:0,0:0:0:0:
300,364,161405,2,0,P|238:382|170:370,1,130,14|0,0:0|0:0,0:0:0:0:
107,309,161814,2,0,P|58:311|25:300,1,65
16,225,162087,1,2,0:0:0:0:
16,225,162223,6,0,P|9:169|52:101,2,130,10|0|0,0:0|0:0|0:0,0:0:0:0:
107,223,162905,1,2,0:0:0:0:
156,146,163041,2,0,P|217:161|301:127,1,130,14|0,0:0|0:0,0:0:0:0:
344,76,163451,2,0,P|380:72|422:87,1,65,8|2,0:0|0:0,0:0:0:0:
383,169,163723,1,2,0:0:0:0:
383,169,163860,54,0,P|302:176|277:128,1,130,10|0,0:0|0:0,0:0:0:0:
205,196,164269,2,0,L|204:266,1,65,8|2,0:0|0:0,0:0:0:0:
258,358,164542,1,2,0:0:0:0:
258,358,164678,2,0,P|177:351|152:399,1,130,14|0,0:0|0:0,0:0:0:0:
82,327,165087,2,0,L|81:257,1,65,8|2,0:0|0:0,0:0:0:0:
105,154,165360,1,2,0:0:0:0:
105,154,165496,6,0,P|153:138|241:186,2,130,14|14|8,0:0|0:0|0:0,0:0:0:0:
157,270,166314,22,0,B|222:297|279:251|279:251|297:276|297:276|300:337|300:337|366:305|430:339|430:339|409:275|446:231|446:231|493:233,1,500.499984725953,14|0,0:0|0:0,0:0:0:0:
471,131,167951,22,0,B|486:56|430:28|430:28|374:52|387:128|387:128|310:98|237:125|237:125|259:97|264:48|264:48|278:79,1,500.499984725953,14|0,0:0|0:0,0:0:0:0:
313,188,169587,6,0,B|362:200|392:248|390:310|363:345|317:383|252:363|221:334|209:293|209:293|217:224|217:224|245:259|295:270,1,500.499984725953,14|0,0:0|0:0,0:0:0:0:
242,149,171223,6,0,B|228:116|200:95|200:95|302:126|384:107|384:107|466:74|422:-20|307:34|383:107|383:107|418:135|423:182,1,545.999983337403,14|14,0:0|0:0,0:0:0:0:
256,192,172928,12,0,176132,0:0:0:0:
256,192,179405,5,14,0:0:0:0:
445,318,192496,54,0,P|405:284|345:284,1,110.50000210762,6|2,0:0|0:0,0:0:0:0:
205,342,193042,1,2,0:0:0:0:
272,203,193314,38,0,L|279:89,1,110.50000210762,6|2,0:0|0:0,0:0:0:0:
174,207,193860,1,2,0:0:0:0:
106,68,194132,6,0,P|146:34|206:34,1,110.50000210762,6|2,0:0|0:0,0:0:0:0:
360,73,194678,1,2,0:0:0:0:
272,203,194950,22,0,L|279:313,1,110.50000210762,6|2,0:0|0:0,0:0:0:0:
404,221,195496,1,2,0:0:0:0:
360,73,195769,54,0,L|291:79,2,55.2500010538101,6|0|2,0:0|0:0|0:0,0:0:0:0:
272,203,196314,1,2,0:0:0:0:
155,101,196587,38,0,L|154:40,2,55.2500010538101,6|0|2,0:0|0:0|0:0,0:0:0:0:
97,244,197132,1,2,0:0:0:0:
155,192,197269,1,0,0:0:0:0:
174,266,197405,6,0,L|172:337,2,55.2500010538101,6|0|0,0:0|0:0|0:0,0:0:0:0:
277,149,197951,1,2,0:0:0:0:
382,261,198223,22,0,P|446:247|476:196,1,110.50000210762,6|0,0:0|0:0,0:0:0:0:
468,135,198632,1,0,0:0:0:0:
390,127,198769,2,0,L|397:190,1,55.2500010538101,0|0,0:0|0:0,0:0:0:0:
382,261,199042,54,0,L|386:333,2,55.2500010538101,6|0|2,0:0|0:0|0:0,0:0:0:0:
244,331,199587,1,2,0:0:0:0:
135,220,199860,37,6,0:0:0:0:
283,176,200132,1,2,0:0:0:0:
187,54,200405,6,0,L|186:122,1,55.2500010538101,2|0,0:0|0:0,0:0:0:0:
262,125,200678,2,0,L|262:69,1,55.2500010538101,6|0,0:0|0:0,0:0:0:0:
192,35,200951,2,0,L|62:58,1,110.50000210762,2|2,0:0|0:0,0:0:0:0:
59,207,201496,22,0,P|87:182|178:186,1,110.50000210762,6|2,0:0|0:0,0:0:0:0:
291,253,202042,1,2,0:0:0:0:
141,291,202314,54,0,L|137:346,2,55.2500010538101,6|0|2,0:0|0:0|0:0,0:0:0:0:
296,294,202860,1,2,0:0:0:0:
450,295,203132,37,6,0:0:0:0:
345,181,203405,1,0,0:0:0:0:
463,81,203678,1,2,0:0:0:0:
463,81,203814,1,0,0:0:0:0:
463,81,203951,6,0,L|454:203,1,110.50000210762,6|0,0:0|0:0,0:0:0:0:
269,332,204496,1,0,0:0:0:0:
269,332,204632,1,0,0:0:0:0:
269,332,204769,22,0,L|260:210,1,110.50000210762,6|0,0:0|0:0,0:0:0:0:
154,96,205314,1,0,0:0:0:0:
114,168,205451,1,0,0:0:0:0:
191,181,205587,6,0,P|233:148|309:157,1,110.50000210762,14|0,0:0|0:0,0:0:0:0:
414,236,206132,1,2,0:0:0:0:
386,83,206405,5,10,0:0:0:0:
392,237,206678,1,2,0:0:0:0:
405,82,206951,1,10,0:0:0:0:
360,229,207223,22,0,B|290:216|290:216|232:294|143:248,1,221.000004215241,14|0,0:0|0:0,0:0:0:0:
200,105,208042,2,0,B|161:94|135:64|135:64|72:81|56:174,1,221.000004215241,10|2,0:0|0:0,0:0:0:0:
87,244,208723,1,2,0:0:0:0:
24,290,208860,22,0,B|137:248|130:340|237:295,1,221.000004215241,14|0,0:0|0:0,0:0:0:0:
387,331,209678,2,0,P|435:293|392:160,1,221.000004215241,10|10,0:0|0:0,0:0:0:0:
315,147,210360,1,10,0:0:0:0:
361,85,210496,6,0,L|377:20,1,55.2500010538101,10|0,0:0|0:0,0:0:0:0:
296,32,210769,2,0,L|172:51,1,110.50000210762,2|0,0:0|0:0,0:0:0:0:
144,113,211178,1,0,0:0:0:0:
174,184,211314,2,0,P|76:148|97:53,1,221.000004215241,10|10,0:0|0:0,0:0:0:0:
6,180,212132,22,0,L|8:249,2,55.2500010538101,14|0|0,0:0|0:0|0:0,0:0:0:0:
102,301,212678,1,2,0:0:0:0:
243,239,212951,37,10,0:0:0:0:
385,298,213223,1,2,0:0:0:0:
249,373,213496,1,10,0:0:0:0:
102,301,213769,54,0,B|80:226|80:226|114:87,1,221.000004215241,14|0,0:0|0:0,0:0:0:0:
280,37,214587,2,0,B|302:112|302:112|261:276,1,221.000004215241,10|2,0:0|0:0,0:0:0:0:
225,316,215269,1,2,0:0:0:0:
301,321,215405,6,0,L|421:308,2,110.50000210762,14|0|0,0:0|0:0|0:0,0:0:0:0:
342,171,216223,2,0,P|347:114|481:135,1,221.000004215241,6|2,0:0|0:0,0:0:0:0:
484,198,216905,1,2,0:0:0:0:
461,280,217042,54,0,B|414:278|381:254|381:254|310:280|276:332|276:332|218:328|175:283|175:283|143:342|90:341|90:341|39:298|39:298|98:238|81:172|81:172|161:133|203:209,1,780,14|0,0:0|0:0,0:0:0:0:
196,197,220811,6,0,P|237:245|241:321,1,130,2|0,0:0|0:0,0:0:0:0:
196,197,221382,2,0,P|155:245|151:321,1,130,2|0,0:0|0:0,0:0:0:0:
196,197,221951,38,0,B|218:132|218:132|198:73,1,130,14|0,0:0|0:0,0:0:0:0:
297,15,222360,2,0,B|285:75|285:75|307:140,1,130,8|0,0:0|0:0,0:0:0:0:
370,206,222769,2,0,L|459:200,1,65,10|0,0:0|0:0,0:0:0:0:
481,280,223042,2,0,B|489:313|489:313|483:347,1,65,8|0,0:0|0:0,0:0:0:0:
393,349,223314,2,0,B|387:318|387:318|395:285,1,65,8|0,0:0|0:0,0:0:0:0:
434,201,223587,38,0,B|448:164|448:164|437:62,2,130,14|0|8,0:0|0:0|0:0,0:0:0:0:
305,329,224406,2,0,B|274:335|274:335|241:328,1,65,10|0,0:0|0:0,0:0:0:0:
154,298,224679,2,0,L|165:222,1,65,8|0,0:0|0:0,0:0:0:0:
242,188,224951,2,0,L|231:112,1,65,8|2,0:0|0:0,0:0:0:0:
172,55,225224,22,0,B|91:37|91:37|37:77,1,130,14|0,0:0|0:0,0:0:0:0:
53,155,225632,2,0,P|89:149|117:154,1,65,8|0,0:0|0:0,0:0:0:0:
171,234,225905,1,2,0:0:0:0:
171,234,226042,38,0,L|39:261,1,130,10|8,0:0|0:0,0:0:0:0:
214,325,226588,2,0,L|338:329,1,97.5,8|0,0:0|0:0,0:0:0:0:
356,330,226860,22,0,B|383:274|383:274|361:192,2,130,14|0|8,0:0|0:0|0:0,0:0:0:0:
230,198,227678,38,0,B|203:142|203:142|225:60,2,130,10|8|8,0:0|0:0|0:0,0:0:0:0:
292,130,228360,1,0,0:0:0:0:
298,221,228497,22,0,L|157:227,2,130,14|0|8,0:0|0:0|0:0,0:0:0:0:
341,44,229315,2,0,L|471:50,2,130,10|8|8,0:0|0:0|0:0,0:0:0:0:
462,179,230133,38,0,B|456:221|444:243|444:243|460:303,1,130,14|0,0:0|0:0,0:0:0:0:
372,327,230541,2,0,P|336:330|287:325,1,65,8|0,0:0|0:0,0:0:0:0:
222,312,230814,1,2,0:0:0:0:
222,312,230951,22,0,B|177:301|177:301|136:313|136:313|97:303,1,130,10|8,0:0|0:0,0:0:0:0:
266,236,231497,1,8,0:0:0:0:
330,172,231633,1,2,0:0:0:0:
272,106,231769,38,0,L|265:255,1,130,14|0,0:0|0:0,0:0:0:0:
351,269,232178,2,0,P|383:267|413:258,1,65,8|0,0:0|0:0,0:0:0:0:
478,193,232451,1,2,0:0:0:0:
478,193,232588,22,0,B|501:133|501:133|480:109|474:44,1,130,14|0,0:0|0:0,0:0:0:0:
389,47,232997,2,0,L|388:111,1,65,8|2,0:0|0:0,0:0:0:0:
366,202,233269,1,2,0:0:0:0:
366,202,233406,38,0,B|290:219|290:219|229:204,1,130,14|0,0:0|0:0,0:0:0:0:
176,139,233815,2,0,L|111:136,1,65,8|2,0:0|0:0,0:0:0:0:
57,211,234087,1,8,0:0:0:0:
57,211,234223,22,0,L|38:283,1,74.7500014257431,10|0,0:0|0:0,0:0:0:0:
114,355,234496,2,0,L|186:335,1,74.7500014257431,8|0,0:0|0:0,0:0:0:0:
214,233,234769,2,0,L|160:180,1,74.7500014257431,8|2,0:0|0:0,0:0:0:0:
130,266,235042,38,0,L|259:273,1,130,14|0,0:0|0:0,0:0:0:0:
314,346,235451,2,0,P|301:283|321:222,1,130,8|0,0:0|0:0,0:0:0:0:
384,155,235860,2,0,P|411:141|474:141,1,65,10|0,0:0|0:0,0:0:0:0:
502,223,236133,2,0,L|438:218,1,65,8|0,0:0|0:0,0:0:0:0:
400,302,236406,2,0,L|465:297,1,65,8|0,0:0|0:0,0:0:0:0:
334,367,236679,22,0,B|315:308|315:308|337:228,2,130,14|0|8,0:0|0:0|0:0,0:0:0:0:
242,209,237497,2,0,L|230:138,1,65,10|0,0:0|0:0,0:0:0:0:
321,154,237769,2,0,L|333:83,1,65,8|0,0:0|0:0,0:0:0:0:
245,60,238042,1,8,0:0:0:0:
322,11,238179,1,2,0:0:0:0:
237,44,238315,38,0,B|188:29|188:29|89:49,1,130,14|0,0:0|0:0,0:0:0:0:
72,127,238724,2,0,L|81:191,1,65,8|0,0:0|0:0,0:0:0:0:
45,275,238996,1,2,0:0:0:0:
45,275,239133,22,0,L|174:264,1,130,10|8,0:0|0:0,0:0:0:0:
280,357,239679,2,0,L|377:357,1,97.5,8|0,0:0|0:0,0:0:0:0:
387,313,239951,38,0,B|395:224|395:224|372:181,2,130,14|0|8,0:0|0:0|0:0,0:0:0:0:
481,157,240769,2,0,B|472:68|472:68|496:25,2,130,10|8|8,0:0|0:0|0:0,0:0:0:0:
390,142,241451,1,0,0:0:0:0:
308,112,241587,22,0,B|269:88|213:97|213:97|239:110|255:130,1,130,14|0,0:0|0:0,0:0:0:0:
296,192,241996,2,0,P|288:250|287:340,1,130,8|2,0:0|0:0,0:0:0:0:
197,329,242405,38,0,P|135:311|67:323,2,130,14|2|8,0:0|0:0|0:0,0:0:0:0:
142,136,243223,22,0,L|150:72,1,65,14|2,0:0|0:0,0:0:0:0:
60,91,243496,18,0,L|68:221,1,130,8|10,0:0|0:0,0:0:0:0:
161,231,243905,1,2,0:0:0:0:
161,231,244041,38,0,L|290:218,2,130,14|10|8,0:0|0:0|0:0,0:0:0:0:
142,320,244723,1,2,0:0:0:0:
230,341,244860,22,0,B|273:314|273:314|375:322,1,130,14|0,0:0|0:0,0:0:0:0:
434,278,245269,2,0,L|434:213,1,65,8|0,0:0|0:0,0:0:0:0:
491,144,245541,1,2,0:0:0:0:
491,144,245678,38,0,B|427:125|427:125|354:161,1,130,14|8,0:0|0:0,0:0:0:0:
282,180,246087,2,0,L|281:115,1,65,8|2,0:0|0:0,0:0:0:0:
316,33,246360,1,2,0:0:0:0:
316,33,246496,22,0,L|186:48,1,130,14|0,0:0|0:0,0:0:0:0:
143,129,246905,2,0,P|138:161|136:193,1,65,8|0,0:0|0:0,0:0:0:0:
169,278,247178,1,2,0:0:0:0:
169,278,247314,38,0,B|107:257|110:311|25:275,2,130,14|14|8,0:0|0:0|0:0,0:0:0:0:
245,328,247996,1,2,0:0:0:0:
334,319,248132,38,0,P|277:301|265:215,1,146.250005578995,14|2,0:0|0:0,0:0:0:0:
260,223,248678,1,2,0:0:0:0:
435,260,248951,2,0,P|381:236|327:244,2,97.50000371933,10|2|8,0:0|0:0|0:0,0:0:0:0:
351,347,249769,2,0,B|299:387|260:322|208:358,1,146.250005578995,14|2,0:0|0:0,0:0:0:0:
211,355,250314,1,2,0:0:0:0:
66,279,250587,2,0,P|120:255|174:263,2,97.50000371933,10|2|8,0:0|0:0|0:0,0:0:0:0:
194,326,251405,6,0,P|225:298|235:241,2,97.50000371933,14|2|2,0:0|0:0|0:0,0:0:0:0:
323,282,252223,2,0,P|335:242|316:187,2,97.50000371933,10|2|2,0:0|0:0|0:0,0:0:0:0:
213,200,253041,2,0,P|241:169|298:159,2,97.50000371933,14|2|2,0:0|0:0|0:0,0:0:0:0:
252,69,253859,2,0,P|291:56|346:75,2,97.50000371933,10|2|2,0:0|0:0|0:0,0:0:0:0:
275,191,254678,54,0,B|372:200|372:200|434:169,1,146.250005578995,14|2,0:0|0:0,0:0:0:0:
415,178,255223,1,2,0:0:0:0:
213,144,255496,2,0,P|197:194|223:248,2,97.50000371933,10|2|8,0:0|0:0|0:0,0:0:0:0:
293,254,256314,2,0,B|285:285|262:304|262:304|295:342|270:392,1,146.250005578995,14|2,0:0|0:0,0:0:0:0:
273,384,256860,1,2,0:0:0:0:
141,221,257132,2,0,P|125:271|151:325,2,97.50000371933,10|2|8,0:0|0:0|0:0,0:0:0:0:
258,292,257951,6,0,P|306:302|368:285,2,97.50000371933,14|2|2,0:0|0:0|0:0,0:0:0:0:
159,197,258769,2,0,P|111:187|49:204,2,97.50000371933,10|2|2,0:0|0:0|0:0,0:0:0:0:
293,223,259587,2,0,L|301:114,2,97.50000371933,14|2|2,0:0|0:0|0:0,0:0:0:0:
167,276,260405,2,0,L|159:373,2,97.50000371933,10|2|2,0:0|0:0|0:0,0:0:0:0:
278,355,261223,5,14,0:0:0:0:
322,85,262041,6,0,P|246:97|300:160,1,195,14|10,0:0|0:0,0:0:0:0:
319,177,263132,1,2,0:0:0:0:
329,200,263405,1,2,0:0:0:0:
282,274,263678,5,10,0:0:0:0:
265,254,263951,1,2,0:0:0:0:
240,244,264223,1,2,0:0:0:0:
152,251,264496,6,0,P|97:197|178:178,2,195,14|10|14,0:0|0:0|0:0,0:0:0:0:
175,262,266405,1,2,0:0:0:0:
194,280,266678,1,2,0:0:0:0:
149,354,266951,5,2,0:0:0:0:
127,341,267223,1,2,0:0:0:0:
111,320,267496,5,14,0:0:0:0:
256,192,267564,12,0,272678,0:0:0:0:
