osu file format v14

[General]
AudioFilename: audio.mp3
AudioLeadIn: 0
PreviewTime: 57087
Countdown: 0
SampleSet: Soft
StackLeniency: 0.3
Mode: 0
LetterboxInBreaks: 0
WidescreenStoryboard: 0

[Editor]
DistanceSpacing: 1.3
BeatDivisor: 4
GridSize: 16
TimelineZoom: 4.299998

[Metadata]
Title:Katayoku no Tori
TitleUnicode:片翼の鳥
Artist:Shikata Akiko
ArtistUnicode:志方あきこ
Creator:IceKalt
Version:Final Judgment
Source:うみねこのなく頃に
Tags:opening japanese blue 古戸 ヱリカ furudo erika umineko no naku koro ni sakurauchi_riko phyloukz imoutosan fushimi_rio loreley namki italian 波乃 渉 namino wataru
BeatmapID:1312305
BeatmapSetID:622500

[Difficulty]
HPDrainRate:5.8
CircleSize:4.5
OverallDifficulty:8.9
ApproachRate:9.3
SliderMultiplier:1.7
SliderTickRate:1

[Events]
//Background and Video events
0,0,"Umineko 1.jpg",0,0
//Break Periods
2,91242,103314
2,176332,178851
2,179605,191678
//Storyboard Layer 0 (Background)
//Storyboard Layer 1 (Fail)
//Storyboard Layer 2 (Pass)
//Storyboard Layer 3 (Foreground)
//Storyboard Sound Samples

[TimingPoints]
1042,272.727272727273,3,2,2,100,1,0
1451,-83.3333333333333,3,2,1,100,0,0
1860,-133.333333333333,3,2,1,100,0,0
2678,-83.3333333333333,3,2,1,80,0,0
3087,-100,3,2,1,100,0,0
3496,-133.333333333333,3,2,1,100,0,0
4042,-133.333333333333,3,2,1,80,0,0
4178,-133.333333333333,3,2,1,100,0,0
4314,-83.3333333333333,3,2,1,80,0,0
4723,-100,3,2,1,100,0,0
5132,-133.333333333333,3,2,1,100,0,0
5951,-83.3333333333333,3,2,1,80,0,0
6223,-83.3333333333333,3,2,1,100,0,0
7314,-83.3333333333333,3,2,1,80,0,0
7451,-83.3333333333333,3,2,1,100,0,0
7587,-83.3333333333333,3,2,2,100,0,0
7996,-100,3,2,1,100,0,0
8405,-133.333333333333,3,2,1,100,0,0
9223,-83.3333333333333,3,2,1,80,0,0
9632,-100,3,2,1,100,0,0
10587,-100,3,2,1,80,0,0
10723,-100,3,2,1,100,0,0
10860,-83.3333333333333,3,2,1,80,0,0
11269,-100,3,2,1,80,0,0
11678,-100,3,2,1,100,0,0
12496,-83.3333333333333,3,2,1,80,0,0
13314,-133.333333333333,3,2,1,80,0,0
13587,-133.333333333333,3,2,1,100,0,0
14132,-133.333333333333,3,2,2,60,0,0
20678,-133.333333333333,3,2,1,60,0,0
26405,-133.333333333333,3,2,2,50,0,0
26610,-133.333333333333,3,2,1,5,0,0
26678,-133.333333333333,3,2,1,50,0,0
26882,-133.333333333333,3,2,1,5,0,0
26951,-133.333333333333,3,2,1,50,0,0
27223,-133.333333333333,3,2,1,60,0,0
28246,-133.333333333333,3,2,1,5,0,0
28314,-133.333333333333,3,2,1,60,0,0
28519,-133.333333333333,3,2,1,5,0,0
28587,-133.333333333333,3,2,1,60,0,0
28792,-133.333333333333,3,2,1,5,0,0
28860,-133.333333333333,3,2,1,60,0,0
31519,-133.333333333333,3,2,1,5,0,0
31587,-133.333333333333,3,2,1,60,0,0
31792,-133.333333333333,3,2,1,5,0,0
31860,-133.333333333333,3,2,1,60,0,0
32064,-133.333333333333,3,2,1,5,0,0
32132,-166.666666666667,3,2,1,60,0,0
32678,-133.333333333333,3,2,1,60,0,0
32951,-117.647058823529,3,2,1,60,0,0
39496,-100,3,2,1,60,0,0
40314,-62.5,3,2,2,100,0,0
40723,-66.6666666666667,3,2,2,100,0,0
41132,-83.3333333333333,3,2,2,100,0,0
41678,-100,3,2,1,100,0,0
41951,-133.333333333333,3,2,1,70,0,0
43587,-71.4285714285714,3,2,2,80,0,0
43996,-66.6666666666667,3,2,2,80,0,0
44405,-83.3333333333333,3,2,2,80,0,0
44951,-100,3,2,1,60,0,0
45223,-133.333333333333,3,2,1,60,0,0
46860,-166.666666666667,3,2,2,50,0,0
53405,-166.666666666667,3,2,2,50,0,0
53951,-166.666666666667,3,2,1,60,0,0
54223,-166.666666666667,3,2,1,70,0,0
54496,-166.666666666667,3,2,1,75,0,0
54769,-166.666666666667,3,2,2,80,0,0
55042,-166.666666666667,3,2,2,50,0,0
57177,285.714285714286,3,2,1,40,1,0
58314,272.727272727273,3,2,2,100,1,1
58314,-71.4285714285715,3,2,2,100,0,1
58587,-71.4285714285715,3,2,1,100,0,1
59951,-71.4285714285715,3,2,1,80,0,1
60223,-71.4285714285715,3,2,1,100,0,1
61587,-71.4285714285715,3,2,1,80,0,1
61860,-71.4285714285715,3,2,1,100,0,1
63223,-71.4285714285715,3,2,1,80,0,1
63496,-71.4285714285715,3,2,1,100,0,1
64860,-71.4285714285715,3,2,1,80,0,1
65132,-71.4285714285715,3,2,1,100,0,1
66496,-71.4285714285715,3,2,1,80,0,1
66769,-71.4285714285715,3,2,1,100,0,1
68132,-71.4285714285715,3,2,1,80,0,1
68405,-71.4285714285715,3,2,1,100,0,1
68951,-71.4285714285715,3,2,1,80,0,1
69223,-71.4285714285715,3,2,1,100,0,1
69769,-71.4285714285715,3,2,1,80,0,1
70042,-71.4285714285715,3,2,1,100,0,1
70587,-71.4285714285715,3,2,1,80,0,1
70996,-71.4285714285715,3,2,1,100,0,1
71405,-71.4285714285715,3,2,2,80,0,1
71678,-71.4285714285715,3,2,1,100,0,1
73042,-71.4285714285715,3,2,1,80,0,1
73314,-71.4285714285715,3,2,1,100,0,1
74678,-71.4285714285715,3,2,1,80,0,1
74951,-71.4285714285715,3,2,1,100,0,1
76314,-71.4285714285715,3,2,1,80,0,1
76587,-71.4285714285715,3,2,1,100,0,1
77951,-71.4285714285715,3,2,1,80,0,1
78360,-71.4285714285715,3,2,1,100,0,1
78769,-71.4285714285715,3,2,1,80,0,1
78905,-71.4285714285715,3,2,1,100,0,1
79042,-71.4285714285715,3,2,1,80,0,1
79178,-71.4285714285715,3,2,1,100,0,1
79587,-71.4285714285715,3,2,1,80,0,1
79723,-71.4285714285715,3,2,1,100,0,1
79860,-71.4285714285715,3,2,1,80,0,1
79996,-71.4285714285715,3,2,1,100,0,1
80405,-71.4285714285715,3,2,1,80,0,1
80542,-71.4285714285715,3,2,1,100,0,1
81223,-71.4285714285715,3,2,1,80,0,1
81496,-71.4285714285715,3,2,1,100,0,1
82042,-71.4285714285715,3,2,1,80,0,1
82178,-71.4285714285715,3,2,1,100,0,1
82860,-71.4285714285715,3,2,1,80,0,1
83132,-71.4285714285715,3,2,1,100,0,1
83678,-71.4285714285715,3,2,1,80,0,1
83882,-71.4285714285715,3,2,1,5,0,1
83951,-71.4285714285715,3,2,1,80,0,1
84155,-71.4285714285715,3,2,1,5,0,1
84223,-71.4285714285715,3,2,1,100,0,1
84495,-71.4285714285715,3,2,1,100,0,0
84769,-83.3333333333333,3,2,1,75,0,0
89405,-71.4285714285715,3,2,1,80,0,0
89678,-71.4285714285715,3,2,1,50,0,0
90223,-133.333333333333,3,2,1,50,0,0
90428,-133.333333333333,3,2,1,5,0,0
90496,-133.333333333333,3,2,1,50,0,0
90701,-133.333333333333,3,2,1,5,0,0
90769,-133.333333333333,3,2,1,50,0,0
90973,-133.333333333333,3,2,1,5,0,0
91042,-133.333333333333,3,2,1,70,0,0
104132,-133.333333333333,3,2,1,50,0,0
109587,-133.333333333333,3,2,1,50,0,0
110678,-133.333333333333,3,2,1,45,0,0
123632,-83.3333333333333,3,2,2,75,0,0
123701,-83.3333333333333,3,2,2,5,0,0
123769,-66.6666666666667,3,2,2,75,0,0
124110,-83.3333333333333,3,2,2,5,0,0
124178,-83.3333333333333,3,2,2,75,0,0
124382,-83.3333333333333,3,2,2,5,0,0
124451,-83.3333333333333,3,2,2,75,0,0
124519,-83.3333333333333,3,2,2,5,0,0
124587,-66.6666666666667,3,2,2,75,0,0
125132,-100,3,2,1,50,0,0
125405,-133.333333333333,3,2,1,50,0,0
127042,-83.3333333333333,3,2,2,75,0,0
127451,-66.6666666666667,3,2,2,75,0,0
127792,-83.3333333333333,3,2,2,5,0,0
127860,-83.3333333333333,3,2,2,75,0,0
128405,-100,3,2,1,50,0,0
128678,-133.333333333333,3,2,1,50,0,0
130314,-166.666666666667,3,2,1,50,0,0
137405,-166.666666666667,3,2,1,60,0,0
137678,-166.666666666667,3,2,1,70,0,0
137951,-166.666666666667,3,2,1,75,0,0
138223,-166.666666666667,3,2,1,80,0,0
139073,272.727272727273,3,2,1,45,1,0
139618,-166.666666666667,3,2,1,60,0,0
139891,-166.666666666667,3,2,1,45,0,0
140132,272.727272727273,3,2,2,90,1,0
140132,-83.3333333333333,3,2,2,90,0,0
140678,-83.3333333333333,3,2,1,90,0,0
141769,-83.3333333333333,3,2,1,75,0,0
142042,-83.3333333333333,3,2,1,90,0,0
143405,-83.3333333333333,3,2,1,75,0,0
143678,-83.3333333333333,3,2,1,90,0,0
145042,-83.3333333333333,3,2,1,75,0,0
145314,-83.3333333333333,3,2,1,90,0,0
146678,-83.3333333333333,3,2,1,75,0,0
146814,-83.3333333333333,3,2,1,90,0,0
148314,-83.3333333333333,3,2,1,75,0,0
148451,-83.3333333333333,3,2,1,90,0,0
149951,-83.3333333333333,3,2,1,75,0,0
150360,-83.3333333333333,3,2,1,90,0,0
151587,-83.3333333333333,3,2,1,75,0,0
151860,-83.3333333333333,3,2,1,90,0,0
153223,-83.3333333333333,3,2,2,75,0,0
153496,-83.3333333333333,3,2,1,90,0,0
154860,-83.3333333333333,3,2,1,75,0,0
155132,-83.3333333333333,3,2,1,90,0,0
156496,-83.3333333333333,3,2,1,75,0,0
156769,-83.3333333333333,3,2,1,90,0,0
158132,-83.3333333333333,3,2,1,75,0,0
158678,-83.3333333333333,3,2,1,90,0,0
158951,-83.3333333333333,3,2,1,75,0,0
159360,-83.3333333333333,3,2,1,90,0,0
159769,-83.3333333333333,3,2,1,75,0,0
160178,-83.3333333333333,3,2,1,90,0,0
161405,-83.3333333333333,3,2,1,75,0,0
161542,-83.3333333333333,3,2,1,90,0,0
163042,-83.3333333333333,3,2,1,75,0,0
163314,-83.3333333333333,3,2,1,90,0,0
163860,-83.3333333333333,3,2,1,75,0,0
164132,-83.3333333333333,3,2,1,90,0,0
164678,-83.3333333333333,3,2,1,75,0,0
164951,-83.3333333333333,3,2,1,90,0,0
165496,-83.3333333333333,3,2,1,75,0,0
165701,-83.3333333333333,3,2,1,5,0,0
165769,-83.3333333333333,3,2,1,75,0,0
165973,-83.3333333333333,3,2,1,5,0,0
166042,-83.3333333333333,3,2,1,75,0,0
166314,-166.666666666667,3,2,1,50,0,0
166587,-166.666666666667,3,2,1,40,0,0
167813,-166.666666666667,3,2,1,5,0,0
167951,-166.666666666667,3,2,1,45,0,0
168223,-166.666666666667,3,2,1,40,0,0
169451,-166.666666666667,3,2,1,5,0,0
169587,-166.666666666667,3,2,1,50,0,0
169860,-166.666666666667,3,2,1,50,0,0
170132,-166.666666666667,3,2,1,40,0,0
171155,-166.666666666667,3,2,1,5,0,0
171223,-166.666666666667,3,2,1,40,0,0
172042,-166.666666666667,3,2,1,30,0,0
172314,-166.666666666667,3,2,1,20,0,0
172792,-166.666666666667,3,2,1,10,0,0
172860,-166.666666666667,3,2,1,60,0,0
173678,-166.666666666667,3,2,1,50,0,0
174496,-166.666666666667,3,2,1,40,0,0
175042,-166.666666666667,3,2,1,30,0,0
175587,-166.666666666667,3,2,1,20,0,0
175860,-166.666666666667,3,2,1,10,0,0
179405,-166.666666666667,3,2,1,70,0,0
192496,-166.666666666667,3,2,1,50,0,0
205587,-166.666666666667,3,2,1,70,0,0
206132,-166.666666666667,3,2,1,50,0,0
206337,-166.666666666667,3,2,1,5,0,0
206405,-166.666666666667,3,2,1,50,0,0
206610,-166.666666666667,3,2,1,5,0,0
206678,-166.666666666667,3,2,1,50,0,0
206882,-166.666666666667,3,2,1,5,0,0
206951,-166.666666666667,3,2,1,50,0,0
207155,-166.666666666667,3,2,1,5,0,0
207223,-166.666666666667,3,2,1,50,0,0
208042,-166.666666666667,3,2,1,65,0,0
211314,-125,3,2,1,65,0,0
211792,-125,3,2,1,5,0,0
211860,-125,3,2,1,65,0,0
212882,-125,3,2,1,5,0,0
212951,-125,3,2,1,50,0,0
213155,-125,3,2,1,5,0,0
213223,-125,3,2,1,50,0,0
213428,-125,3,2,1,5,0,0
213496,-125,3,2,1,50,0,0
213701,-125,3,2,1,5,0,0
213769,-125,3,2,1,50,0,0
214587,-125,3,2,1,65,0,0
217110,-125,3,2,1,10,0,0
217314,-125,3,2,1,20,0,0
217587,-125,3,2,1,30,0,0
217860,-125,3,2,1,40,0,0
218132,-125,3,2,1,50,0,0
218405,-125,3,2,1,60,0,0
218678,-125,3,2,1,70,0,0
218951,-125,3,2,1,60,0,0
219223,-125,3,2,1,50,0,0
219496,-125,3,2,1,40,0,0
219769,-125,3,2,1,30,0,0
220042,-125,3,2,1,20,0,0
220314,-125,3,2,1,10,0,0
220811,285.714285714286,3,2,1,40,1,0
221951,272.727272727273,3,2,2,100,1,1
221951,-71.4285714285714,3,2,2,100,0,1
222223,-71.4285714285714,3,2,1,100,0,1
223587,-71.4285714285714,3,2,1,80,0,1
223860,-71.4285714285714,3,2,1,100,0,1
225223,-71.4285714285714,3,2,1,80,0,1
225496,-71.4285714285714,3,2,1,100,0,1
226860,-71.4285714285714,3,2,1,80,0,1
227132,-71.4285714285714,3,2,1,100,0,1
228496,-71.4285714285714,3,2,1,80,0,1
228769,-71.4285714285714,3,2,1,100,0,1
230132,-71.4285714285714,3,2,1,80,0,1
230269,-71.4285714285714,3,2,1,100,0,1
231769,-71.4285714285714,3,2,1,80,0,1
232041,-71.4285714285714,3,2,1,100,0,1
232587,-71.4285714285714,3,2,1,80,0,1
232860,-71.4285714285714,3,2,1,100,0,1
233405,-71.4285714285714,3,2,1,80,0,1
233678,-71.4285714285714,3,2,1,100,0,1
235041,-71.4285714285714,3,2,2,80,0,1
235314,-71.4285714285714,3,2,1,100,0,1
236678,-71.4285714285714,3,2,1,80,0,1
236951,-71.4285714285714,3,2,1,100,0,1
238314,-71.4285714285714,3,2,1,80,0,1
238587,-71.4285714285714,3,2,1,100,0,1
239951,-71.4285714285714,3,2,1,80,0,1
240223,-71.4285714285714,3,2,1,100,0,1
241587,-71.4285714285714,3,2,1,80,0,1
241860,-71.4285714285714,3,2,1,100,0,1
242405,-71.4285714285714,3,2,1,80,0,1
242541,-71.4285714285714,3,2,1,100,0,1
243223,-71.4285714285714,3,2,1,80,0,1
243360,-71.4285714285714,3,2,1,100,0,1
244041,-71.4285714285714,3,2,1,80,0,1
244178,-71.4285714285714,3,2,1,100,0,1
244860,-71.4285714285714,3,2,1,80,0,1
245132,-71.4285714285714,3,2,1,100,0,1
245678,-71.4285714285714,3,2,1,80,0,1
245814,-71.4285714285714,3,2,1,100,0,1
246496,-71.4285714285714,3,2,1,80,0,1
246769,-71.4285714285714,3,2,1,100,0,1
247314,-71.4285714285714,3,2,1,80,0,1
247519,-71.4285714285714,3,2,1,5,0,1
247587,-71.4285714285714,3,2,1,80,0,1
247792,-71.4285714285714,3,2,1,5,0,1
247860,-71.4285714285714,3,2,1,80,0,1
248132,-100,3,2,1,80,0,0
248405,-100,3,2,1,60,0,0
252223,-153.846153846153,3,2,1,60,0,0
253042,-100,3,2,1,60,0,0
258769,-153.846153846153,3,2,1,60,0,0
259587,-100,3,2,1,60,0,0
261223,-166.666666666667,3,2,1,70,0,0
261769,-166.666666666667,3,2,1,50,0,0
262042,-166.666666666667,3,2,1,40,0,0
262314,-166.666666666667,3,2,1,20,0,0
262860,-166.666666666667,3,2,1,40,0,0
263132,-166.666666666667,3,2,1,20,0,0
264496,-166.666666666667,3,2,1,40,0,0
264769,-166.666666666667,3,2,1,20,0,0
266132,-166.666666666667,3,2,1,40,0,0
266405,-166.666666666667,3,2,1,20,0,0
267496,-166.666666666667,3,2,1,60,0,0
268042,-166.666666666667,3,2,1,50,0,0
268587,-166.666666666667,3,2,1,40,0,0
269405,-166.666666666667,3,2,1,30,0,0
270223,-166.666666666667,3,2,1,30,0,0
271042,-166.666666666667,3,2,1,20,0,0
271860,-166.666666666667,3,2,1,10,0,0
272678,-166.666666666667,3,2,0,5,0,0

[Colours]
Combo1 : 253,66,99
Combo2 : 174,187,191
Combo3 : 0,81,232
Combo4 : 255,159,253
Combo5 : 12,177,186

[HitObjects]
151,136,1042,22,0,L|48:304,1,170,14|0,0:0|0:0,0:0:0:0:
43,93,1451,2,0,P|115:27|218:39,1,203.999993774414,8|0,0:0|0:0,0:0:0:0:
161,256,1860,2,0,P|149:285|131:311,1,63.7500024318696,8|0,0:0|0:0,0:0:0:0:
272,264,2132,2,0,P|272:296|264:327,1,63.7500024318696,8|0,0:0|0:0,0:0:0:0:
385,239,2405,2,0,P|395:269|398:300,1,63.7500024318696,8|0,0:0|0:0,0:0:0:0:
253,131,2678,38,0,B|217:225|303:225|263:330,1,203.999993774414,4|0,0:0|0:0,0:0:0:0:
165,129,3087,2,0,P|202:61|299:57,1,170,8|0,0:0|0:0,0:0:0:0:
375,189,3496,2,0,L|313:173,1,63.7500024318696,8|0,0:0|0:0,0:0:0:0:
144,293,3769,2,0,L|205:277,1,63.7500024318696,8|0,0:0|0:0,0:0:0:0:
399,275,4042,1,12,0:0:0:0:
185,204,4178,1,8,0:0:0:0:
334,71,4314,22,0,P|430:97|495:209,1,203.999993774414,12|0,0:0|0:0,0:0:0:0:
313,173,4723,2,0,P|374:182|399:276,1,170,8|0,0:0|0:0,0:0:0:0:
121,237,5132,2,0,P|94:266|79:309,1,63.7500024318696,8|0,0:0|0:0,0:0:0:0:
174,153,5405,2,0,P|140:172|109:206,1,63.7500024318696,8|0,0:0|0:0,0:0:0:0:
244,88,5678,2,0,P|205:95|165:116,1,63.7500024318696,8|0,0:0|0:0,0:0:0:0:
258,341,5951,38,0,P|248:285|347:175,2,203.999993774414,12|8|0,0:0|0:0|0:0,0:0:0:0:
391,237,6632,1,8,0:0:0:0:
277,125,6769,2,0,P|229:157|195:209,1,101.999996887207,8|0,0:0|0:0,0:0:0:0:
380,80,7042,2,0,P|322:82|266:109,1,101.999996887207,8|0,0:0|0:0,0:0:0:0:
249,271,7314,1,12,0:0:0:0:
413,158,7451,1,8,0:0:0:0:
152,130,7587,22,0,P|206:187|326:172,1,203.999993774414,12|0,0:0|0:0,0:0:0:0:
175,30,7996,2,0,P|113:37|47:128,1,170,8|0,0:0|0:0,0:0:0:0:
258,173,8405,2,0,P|269:143|267:111,1,63.7500024318696,8|0,0:0|0:0,0:0:0:0:
301,267,8678,2,0,P|330:247|351:207,1,63.7500024318696,8|0,0:0|0:0,0:0:0:0:
275,369,8951,2,0,P|309:374|352:356,1,63.7500024318696,8|0,0:0|0:0,0:0:0:0:
351,116,9223,38,0,P|323:47|200:51,1,203.999993774414,12|0,0:0|0:0,0:0:0:0:
231,188,9632,2,0,P|316:185|352:114,1,170,8|0,0:0|0:0,0:0:0:0:
205,44,10042,2,0,P|181:77|176:119,1,85,8|0,0:0|0:0,0:0:0:0:
91,140,10314,2,0,P|108:179|144:200,1,85,8|0,0:0|0:0,0:0:0:0:
371,289,10587,1,12,0:0:0:0:
265,109,10723,1,8,0:0:0:0:
61,350,10860,22,0,P|128:376|207:261,1,203.999993774414,12|0,0:0|0:0,0:0:0:0:
20,229,11269,2,0,B|122:287|122:287|134:217,1,170,8|0,0:0|0:0,0:0:0:0:
4,93,11678,2,0,L|79:135,1,85,8|0,0:0|0:0,0:0:0:0:
270,181,11951,2,0,L|195:139,1,85,8|0,0:0|0:0,0:0:0:0:
65,43,12223,1,8,0:0:0:0:
130,235,12360,1,8,0:0:0:0:
232,60,12496,38,0,P|294:54|385:160,2,203.999993774414,12|8|8,0:0|0:0|0:0,0:0:0:0:
78,134,13178,1,0,0:0:0:0:
101,345,13314,2,0,L|151:267,1,63.7500024318696,8|0,0:0|0:0,0:0:0:0:
411,345,13587,2,0,L|361:267,1,63.7500024318696,8|0,0:0|0:0,0:0:0:0:
270,181,13860,1,12,0:0:0:0:
193,327,13996,1,8,0:0:0:0:
258,273,14132,6,0,P|171:246|112:314,1,191.250007295609,14|0,0:0|0:0,0:0:0:0:
165,384,14678,2,0,L|195:325,1,63.7500024318696,2|0,0:0|0:0,0:0:0:0:
91,253,14951,2,0,L|116:326,1,63.7500024318696,10|0,0:0|0:0,0:0:0:0:
135,183,15223,2,0,P|131:151|91:113,1,63.7500024318696,2|0,0:0|0:0,0:0:0:0:
54,184,15496,2,0,P|28:203|15:257,1,63.7500024318696,2|0,0:0|0:0,0:0:0:0:
198,243,15769,38,0,B|241:181|199:124,1,127.500004863739,14|0,0:0|0:0,0:0:0:0:
135,183,16178,1,2,0:0:0:0:
198,243,16314,1,2,0:0:0:0:
59,56,16587,53,10,0:0:0:0:
7,111,16723,1,2,0:0:0:0:
6,188,16860,2,0,P|29:214|77:227,1,63.7500024318696,2|0,0:0|0:0,0:0:0:0:
143,214,17132,1,0,0:0:0:0:
222,254,17269,1,0,0:0:0:0:
319,195,17405,6,0,P|336:155|314:69,1,127.500004863739,12|0,0:0|0:0,0:0:0:0:
177,90,17814,1,2,0:0:0:0:
254,135,17951,1,2,0:0:0:0:
384,312,18223,22,0,L|435:365,1,63.7500024318696,10|0,0:0|0:0,0:0:0:0:
293,324,18496,2,0,P|254:323|221:341,1,63.7500024318696,2|0,0:0|0:0,0:0:0:0:
332,240,18769,2,0,P|351:207|352:169,1,63.7500024318696,2|0,0:0|0:0,0:0:0:0:
384,312,19042,38,0,P|436:233|427:123,1,191.250007295609,10|0,0:0|0:0,0:0:0:0:
276,211,19587,2,0,P|305:232|361:238,1,63.7500024318696,2|0,0:0|0:0,0:0:0:0:
343,131,19860,53,10,0:0:0:0:
254,127,19996,1,2,0:0:0:0:
180,176,20132,2,0,P|152:180|107:162,1,63.7500024318696,2|0,0:0|0:0,0:0:0:0:
83,48,20405,1,2,0:0:0:0:
153,103,20542,1,2,0:0:0:0:
201,253,20678,38,0,P|147:281|113:357,1,127.500004863739,14|0,0:0|0:0,0:0:0:0:
203,341,21087,1,2,0:0:0:0:
135,199,21223,1,2,0:0:0:0:
376,285,21496,38,0,L|290:276,1,63.7500024318696,10|0,0:0|0:0,0:0:0:0:
408,145,21769,2,0,P|403:183|381:226,1,63.7500024318696,2|0,0:0|0:0,0:0:0:0:
336,23,22042,2,0,P|347:52|350:84,1,63.7500024318696,2|0,0:0|0:0,0:0:0:0:
152,127,22314,22,0,P|175:155|227:165,1,63.7500024318696,10|0,0:0|0:0,0:0:0:0:
276,71,22587,1,2,0:0:0:0:
334,181,22723,2,0,P|311:153|259:143,2,63.7500024318696,2|2|0,0:0|0:0|0:0,0:0:0:0:
296,309,23132,38,0,L|207:328,1,63.7500024318696,10|0,0:0|0:0,0:0:0:0:
389,284,23405,2,0,P|355:268|315:271,1,63.7500024318696,2|0,0:0|0:0,0:0:0:0:
469,350,23678,2,0,P|438:348|410:334,1,63.7500024318696,2|0,0:0|0:0,0:0:0:0:
420,154,23951,22,0,P|457:192|476:273,1,127.500004863739,10|0,0:0|0:0,0:0:0:0:
329,267,24360,1,2,0:0:0:0:
275,184,24496,2,0,P|273:140|295:100,1,63.7500024318696,2|0,0:0|0:0,0:0:0:0:
231,272,24769,2,0,L|179:327,1,63.7500024318696,10|0,0:0|0:0,0:0:0:0:
359,159,25042,2,0,L|397:223,1,63.7500024318696,2|0,0:0|0:0,0:0:0:0:
212,52,25314,2,0,L|195:124,1,63.7500024318696,2|0,0:0|0:0,0:0:0:0:
187,318,25587,38,0,B|203:354|203:354|234:262,1,127.500004863739,10|0,0:0|0:0,0:0:0:0:
197,114,25996,1,2,0:0:0:0:
85,181,26132,2,0,P|105:214|148:239,1,63.7500024318696,2|0,0:0|0:0,0:0:0:0:
359,159,26405,6,0,L|331:67,1,95.6250036478044,6|0,0:0|0:0,0:0:0:0:
293,272,26678,22,0,L|267:179,1,95.6250036478044,6|0,0:0|0:0,0:0:0:0:
234,380,26951,37,6,0:0:0:0:
168,158,27087,1,10,0:0:0:0:
60,359,27223,6,0,P|126:360|170:296,1,127.500004863739,14|0,0:0|0:0,0:0:0:0:
168,158,27632,1,2,0:0:0:0:
90,278,27769,2,0,P|93:231|78:194,1,63.7500024318696,2|0,0:0|0:0,0:0:0:0:
0,88,28042,22,0,L|83:137,1,95.6250036478044,10|0,0:0|0:0,0:0:0:0:
168,158,28314,2,0,L|85:109,1,95.6250036478044,2|0,0:0|0:0,0:0:0:0:
21,46,28587,2,0,L|103:94,1,95.6250036478044,2|0,0:0|0:0,0:0:0:0:
273,174,28860,6,0,P|229:175|164:255,1,127.500004863739,10|0,0:0|0:0,0:0:0:0:
280,289,29269,1,2,0:0:0:0:
168,158,29405,2,0,P|151:198|193:291,2,127.500004863739,2|8|0,0:0|0:0|0:0,0:0:0:0:
246,130,30087,1,2,0:0:0:0:
327,145,30223,1,2,0:0:0:0:
377,210,30360,1,2,0:0:0:0:
342,302,30496,22,0,L|270:287,1,63.7500024318696,10|0,0:0|0:0,0:0:0:0:
239,215,30769,1,2,0:0:0:0:
231,132,30905,1,2,0:0:0:0:
279,64,31042,2,0,P|309:96|315:120,1,63.7500024318696
42,127,31314,22,0,P|69:89|114:76,1,95.6250036478044,10|0,0:0|0:0,0:0:0:0:
184,41,31587,2,0,P|141:52|108:112,1,95.6250036478044,2|0,0:0|0:0,0:0:0:0:
56,143,31860,2,0,P|83:105|128:92,1,95.6250036478044,2|0,0:0|0:0,0:0:0:0:
207,117,32132,6,0,P|180:159|132:175,1,101.999996887207,10|0,0:0|0:0,0:0:0:0:
195,24,32542,1,2,0:0:0:0:
295,158,32678,2,0,P|279:186|247:204,1,63.7500024318696,2|0,0:0|0:0,0:0:0:0:
372,180,32951,2,0,P|347:231|253:283,1,144.500002756119,10|0,0:0|0:0,0:0:0:0:
181,223,33360,1,2,0:0:0:0:
108,303,33496,1,2,0:0:0:0:
437,355,33769,22,0,P|368:330|294:365,1,144.500002756119,14|0,0:0|0:0,0:0:0:0:
173,377,34178,1,2,0:0:0:0:
308,264,34314,2,0,P|340:234|351:201,1,72.2500013780594,2|0,0:0|0:0,0:0:0:0:
343,28,34587,2,0,P|311:58|300:91,1,72.2500013780594,10|0,0:0|0:0,0:0:0:0:
451,16,34860,2,0,P|407:14|376:30,1,72.2500013780594,2|0,0:0|0:0,0:0:0:0:
464,192,35132,1,2,0:0:0:0:
75,29,35405,38,0,P|144:54|218:19,1,144.500002756119,10|0,0:0|0:0,0:0:0:0:
312,69,35814,1,2,0:0:0:0:
149,144,35951,2,0,P|117:174|106:207,1,72.2500013780594,2|0,0:0|0:0,0:0:0:0:
267,173,36223,2,0,L|219:98,1,72.2500013780594,10|0,0:0|0:0,0:0:0:0:
384,79,36496,2,0,L|295:67,1,72.2500013780594,2|0,0:0|0:0,0:0:0:0:
474,123,36769,2,0,L|408:183,1,72.2500013780594,2|0,0:0|0:0,0:0:0:0:
323,300,37042,22,0,P|237:385|141:344,1,216.750004134178,10|0,0:0|0:0,0:0:0:0:
323,186,37587,2,0,L|387:247,1,72.2500013780594,2|0,0:0|0:0,0:0:0:0:
154,270,37860,38,0,P|131:170|209:102,1,216.750004134178,10|0,0:0|0:0,0:0:0:0:
323,300,38405,2,0,L|259:361,1,72.2500013780594,2|0,0:0|0:0,0:0:0:0:
85,326,38678,22,0,P|47:260|163:24,1,361.250006890297,10|0,0:0|0:0,0:0:0:0:
127,190,39496,2,0,B|128:239|144:261|169:288|169:288|220:268|238:202|238:202|315:234|315:234|276:294|291:348,1,425,10|0,0:0|0:0,0:0:0:0:
455,243,40314,6,0,B|365:263|365:329|365:329|403:383|488:343,1,272,4|0,0:0|0:0,0:0:0:0:
369,131,40723,38,0,B|430:136|458:166|458:166|363:178|317:234|317:234|316:200|299:168,1,318.750012159348,4|0,0:0|0:0,0:0:0:0:
89,8,41132,22,0,P|94:57|154:104,1,101.999996887207,4|0,0:0|0:0,0:0:0:0:
341,9,41405,2,0,P|336:58|276:105,1,101.999996887207,4|0,0:0|0:0,0:0:0:0:
477,158,41678,6,0,P|477:210|460:240,1,85,10|0,0:0|0:0,0:0:0:0:
413,105,41951,6,0,P|454:114|487:204,1,127.500004863739,10|2,0:0|0:0,0:0:0:0:
349,318,42496,1,2,0:0:0:0:
278,94,42769,1,10,0:0:0:0:
431,168,43042,2,0,P|476:186|512:178,2,63.7500024318696,2|0|2,0:0|0:0|0:0,0:0:0:0:
114,265,43587,6,0,B|265:290|265:290|160:333,1,237.999992736817,4|0,0:0|0:0,0:0:0:0:
157,189,43996,22,0,P|43:209|121:352,1,318.750012159348,4|0,0:0|0:0,0:0:0:0:
157,189,44405,38,0,B|126:179|126:179|99:114,1,101.999996887207,4|0,0:0|0:0,0:0:0:0:
334,272,44678,2,0,B|364:281|364:281|391:346,1,101.999996887207,4|0,0:0|0:0,0:0:0:0:
233,149,44951,38,0,P|267:132|292:93,1,85,10|0,0:0|0:0,0:0:0:0:
307,2,45223,38,0,P|288:50|313:129,1,127.500004863739,10|2,0:0|0:0,0:0:0:0:
509,156,45769,2,0,P|490:130|458:108,1,63.7500024318696,2|0,0:0|0:0,0:0:0:0:
375,62,46042,1,10,0:0:0:0:
346,219,46314,1,2,0:0:0:0:
193,71,46587,2,0,P|171:114|177:155,1,63.7500024318696,2|0,0:0|0:0,0:0:0:0:
215,218,46860,38,0,P|189:152|60:86,1,203.999993774414,14|0,0:0|0:0,0:0:0:0:
180,322,47678,1,10,0:0:0:0:
156,295,47951,1,2,0:0:0:0:
133,267,48223,1,2,0:0:0:0:
334,311,48496,22,0,P|268:285|202:156,1,203.999993774414,10|0,0:0|0:0,0:0:0:0:
339,56,49314,1,10,0:0:0:0:
316,75,49587,1,2,0:0:0:0:
303,87,49860,1,2,0:0:0:0:
104,211,50132,38,0,B|77:212|77:212|140:259,1,101.999996887207,10|0,0:0|0:0,0:0:0:0:
278,363,50542,1,2,0:0:0:0:
205,309,50678,1,2,0:0:0:0:
379,157,50951,22,0,B|406:158|406:158|343:205,1,101.999996887207,10|0,0:0|0:0,0:0:0:0:
205,309,51360,1,2,0:0:0:0:
278,255,51496,1,2,0:0:0:0:
67,160,51769,38,0,P|112:144|168:165,1,101.999996887207,10|0,0:0|0:0,0:0:0:0:
301,92,52178,2,0,P|256:76|200:97,1,101.999996887207,2|0,0:0|0:0,0:0:0:0:
53,35,52587,22,0,P|95:54|113:113,1,101.999996887207,10|0,0:0|0:0,0:0:0:0:
191,352,53132,1,2,0:0:0:0:
74,308,53269,1,2,0:0:0:0:
256,192,53405,53,14,0:0:0:0:
256,192,53439,12,4,55042,0:0:0:0:
228,177,57177,37,2,0:0:0:0:
247,182,57462,1,2,0:0:0:0:
266,187,57748,1,2,0:0:0:0:
285,192,58034,1,2,0:0:0:0:
432,202,58314,54,0,B|436:131|436:131|491:100|495:32|458:-2|393:-12,1,237.999992736817,14|0,0:0|0:0,0:0:0:0:
300,196,58723,1,8,0:0:0:0:
489,135,58860,2,0,P|433:113|362:147,1,118.999996368408,8|0,0:0|0:0,0:0:0:0:
400,308,59132,2,0,P|435:254|424:182,1,118.999996368408,10|0,0:0|0:0,0:0:0:0:
287,349,59405,2,0,P|351:352|408:306,1,118.999996368408,8|0,0:0|0:0,0:0:0:0:
191,271,59678,2,0,P|220:328|288:354,1,118.999996368408,8|0,0:0|0:0,0:0:0:0:
193,150,59951,38,0,P|132:155|105:342,1,237.999992736817,14|0,0:0|0:0,0:0:0:0:
265,225,60360,1,8,0:0:0:0:
247,54,60496,2,0,P|207:85|194:157,1,118.999996368408,8|0,0:0|0:0,0:0:0:0:
355,237,60769,2,0,P|344:179|300:141,1,118.999996368408,10|0,0:0|0:0,0:0:0:0:
170,342,61042,2,0,P|224:361|279:342,1,118.999996368408,8|0,0:0|0:0,0:0:0:0:
141,149,61314,2,0,P|96:186|85:243,1,118.999996368408,8|0,0:0|0:0,0:0:0:0:
361,300,61587,22,0,B|403:274|452:273|452:273|354:266|323:192,1,237.999992736817,14|0,0:0|0:0,0:0:0:0:
405,76,61996,1,8,0:0:0:0:
509,228,62132,2,0,P|523:292|485:338,1,118.999996368408,8|0,0:0|0:0,0:0:0:0:
272,254,62405,2,0,P|256:198|286:149,1,118.999996368408,10|0,0:0|0:0,0:0:0:0:
352,314,62678,2,0,P|304:353|244:348,1,118.999996368408,8|0,0:0|0:0,0:0:0:0:
300,48,62951,2,0,P|358:69|383:123,1,118.999996368408,8|0,0:0|0:0,0:0:0:0:
249,350,63223,38,0,B|252:254|252:254|295:222|295:222|296:133,1,237.999992736817,14|0,0:0|0:0,0:0:0:0:
139,199,63632,1,8,0:0:0:0:
327,290,63769,1,8,0:0:0:0:
139,322,63905,1,2,0:0:0:0:
401,243,64042,2,0,P|418:299|393:352,1,118.999996368408,10|0,0:0|0:0,0:0:0:0:
261,349,64314,2,0,P|236:296|253:241,1,118.999996368408,8|0,0:0|0:0,0:0:0:0:
344,93,64587,1,8,0:0:0:0:
327,290,64723,1,0,0:0:0:0:
219,125,64860,22,0,B|155:127|124:71|124:71|93:127|14:125,1,237.999992736817,14|0,0:0|0:0,0:0:0:0:
184,221,65269,1,8,0:0:0:0:
179,15,65405,2,0,P|132:-6|58:26,1,118.999996368408,8|0,0:0|0:0,0:0:0:0:
45,251,65678,2,0,P|66:294|122:336,1,118.999996368408,10|0,0:0|0:0,0:0:0:0:
277,343,65951,2,0,P|332:322|373:280,1,118.999996368408,8|0,0:0|0:0,0:0:0:0:
428,136,66223,2,0,P|417:77|384:28,1,118.999996368408,8|0,0:0|0:0,0:0:0:0:
167,121,66496,38,0,P|222:141|281:136,2,118.999996368408,14|0|0,0:0|0:0|0:0,0:0:0:0:
365,43,66905,1,8,0:0:0:0:
275,242,67042,2,0,P|247:158|279:89,1,118.999996368408,8|0,0:0|0:0,0:0:0:0:
456,9,67314,2,0,P|460:67|433:120,1,118.999996368408,10|0,0:0|0:0,0:0:0:0:
165,49,67587,2,0,P|213:16|272:12,1,118.999996368408,8|0,0:0|0:0,0:0:0:0:
371,174,67860,1,8,0:0:0:0:
141,164,67996,1,2,0:0:0:0:
323,315,68132,22,0,B|410:312|461:374|461:374|513:362|517:284,1,237.999992736817,14|0,0:0|0:0,0:0:0:0:
371,174,68542,1,8,0:0:0:0:
253,283,68678,2,0,P|254:345|327:394,1,118.999996368408,8|0,0:0|0:0,0:0:0:0:
401,106,68951,2,0,B|384:47|303:50|303:50|263:115|302:157,1,237.999992736817,14|0,0:0|0:0,0:0:0:0:
466,169,69360,1,8,0:0:0:0:
283,19,69496,1,8,0:0:0:0:
315,245,69632,1,2,0:0:0:0:
371,36,69769,38,0,B|273:14|197:68|197:68|226:88|258:78,1,237.999992736817,14|0,0:0|0:0,0:0:0:0:
405,110,70178,1,8,0:0:0:0:
210,17,70314,1,8,0:0:0:0:
172,190,70451,1,2,0:0:0:0:
345,277,70587,2,0,L|306:139,1,118.999996368408,14|0,0:0|0:0,0:0:0:0:
130,11,70860,2,0,L|97:125,1,118.999996368408,12|0,0:0|0:0,0:0:0:0:
193,314,71132,1,8,0:0:0:0:
228,99,71269,1,2,0:0:0:0:
339,353,71405,22,0,B|380:282|378:183|378:183|418:226|380:275,1,237.999992736817,14|0,0:0|0:0,0:0:0:0:
193,314,71814,1,8,0:0:0:0:
319,129,71951,2,0,P|375:105|443:137,1,118.999996368408,8|0,0:0|0:0,0:0:0:0:
179,196,72223,2,0,P|184:138|227:98,1,118.999996368408,10|0,0:0|0:0,0:0:0:0:
226,303,72496,2,0,P|178:268|165:212,1,118.999996368408,8|0,0:0|0:0,0:0:0:0:
342,317,72769,2,0,P|286:341|218:309,1,118.999996368408,8|0,0:0|0:0,0:0:0:0:
286,52,73042,38,0,P|395:23|506:84,1,237.999992736817,14|0,0:0|0:0,0:0:0:0:
413,253,73451,1,8,0:0:0:0:
248,174,73587,2,0,P|252:118|288:59,1,118.999996368408,8|0,0:0|0:0,0:0:0:0:
503,224,73860,2,0,P|506:275|464:330,1,118.999996368408,10|0,0:0|0:0,0:0:0:0:
323,280,74132,2,0,P|319:228|361:173,1,118.999996368408,8|0,0:0|0:0,0:0:0:0:
481,57,74405,1,8,0:0:0:0:
413,253,74542,1,2,0:0:0:0:
310,58,74678,22,0,B|229:49|189:118|189:118|198:67|157:34,1,237.999992736817,14|0,0:0|0:0,0:0:0:0:
19,214,75087,1,8,0:0:0:0:
182,254,75223,1,8,0:0:0:0:
112,95,75360,1,2,0:0:0:0:
31,296,75496,2,0,B|117:318|117:318|110:280,1,118.999996368408,10|0,0:0|0:0,0:0:0:0:
47,34,75769,2,0,P|25:89|51:162,1,118.999996368408,8|0,0:0|0:0,0:0:0:0:
268,227,76042,2,0,P|232:180|156:166,1,118.999996368408,8|0,0:0|0:0,0:0:0:0:
60,356,76314,38,0,B|105:382|155:364|155:364|151:390|151:390|196:344|268:350,1,237.999992736817,14|0,0:0|0:0,0:0:0:0:
482,342,76723,1,8,0:0:0:0:
295,154,76860,2,0,L|334:291,1,118.999996368408,8|0,0:0|0:0,0:0:0:0:
290,38,77132,2,0,P|233:51|191:103,1,118.999996368408,10|0,0:0|0:0,0:0:0:0:
328,269,77405,2,0,P|385:256|427:204,1,118.999996368408,8|0,0:0|0:0,0:0:0:0:
171,197,77678,1,8,0:0:0:0:
367,370,77814,1,2,0:0:0:0:
136,355,77951,22,0,B|309:294|309:429|493:337,1,356.999989105225,14|0,0:0|0:0,0:0:0:0:
328,113,78496,1,8,0:0:0:0:
171,197,78632,1,2,0:0:0:0:
375,273,78769,38,0,L|405:136,1,118.999996368408,14|0,0:0|0:0,0:0:0:0:
203,7,79042,2,0,L|230:132,1,118.999996368408,10|0,0:0|0:0,0:0:0:0:
284,300,79314,1,8,0:0:0:0:
405,72,79451,1,2,0:0:0:0:
385,282,79587,22,0,L|415:145,1,118.999996368408,14|0,0:0|0:0,0:0:0:0:
213,16,79860,2,0,L|240:141,1,118.999996368408,10|0,0:0|0:0,0:0:0:0:
294,309,80132,1,8,0:0:0:0:
415,81,80269,1,2,0:0:0:0:
473,265,80405,38,0,L|336:235,1,118.999996368408,14|0,0:0|0:0,0:0:0:0:
148,114,80678,2,0,L|285:84,1,118.999996368408,10|0,0:0|0:0,0:0:0:0:
307,319,80951,1,8,0:0:0:0:
427,92,81087,1,2,0:0:0:0:
167,184,81223,22,0,B|127:217|76:209|76:209|89:252|169:226|197:305,1,237.999992736817,14|0,0:0|0:0,0:0:0:0:
45,376,81632,1,8,0:0:0:0:
0,179,81769,2,0,P|37:137|95:128,1,118.999996368408,8|0,0:0|0:0,0:0:0:0:
288,235,82042,2,0,P|246:276|188:285,1,118.999996368408,10|0,0:0|0:0,0:0:0:0:
226,95,82314,1,8,0:0:0:0:
398,198,82451,1,2,0:0:0:0:
295,335,82587,1,8,0:0:0:0:
309,139,82723,1,2,0:0:0:0:
495,228,82860,38,0,P|440:287|296:207,1,237.999992736817,14|0,0:0|0:0,0:0:0:0:
324,48,83269,1,8,0:0:0:0:
496,119,83405,2,0,P|516:163|505:236,1,118.999996368408,8|0,0:0|0:0,0:0:0:0:
288,160,83678,22,0,L|426:272,1,178.499994552612,14|0,0:0|0:0,0:0:0:0:
280,272,83951,38,0,L|418:384,1,178.499994552612,14|0,0:0|0:0,0:0:0:0:
276,372,84223,21,8,0:0:0:0:
327,91,84360,1,4,0:0:0:0:
104,93,84495,6,0,B|66:181|138:181|97:267,1,178.499994552612,14|0,0:0|0:0,0:0:0:0:
94,282,84769,6,0,L|11:221,1,101.999996887207,10|0,0:0|0:0,0:0:0:0:
215,219,85042,2,0,L|298:158,1,101.999996887207,8|0,0:0|0:0,0:0:0:0:
60,163,85314,38,0,P|93:124|141:108,1,101.999996887207,12|0,0:0|0:0,0:0:0:0:
297,158,85587,2,0,P|314:206|304:255,1,101.999996887207,12|0,0:0|0:0,0:0:0:0:
182,364,85860,2,0,P|131:354|93:321,1,101.999996887207,12|0,0:0|0:0,0:0:0:0:
184,38,86132,38,0,P|211:81|217:132,1,101.999996887207,14|0,0:0|0:0,0:0:0:0:
19,222,86405,1,8,0:0:0:0:
197,137,86542,2,0,P|246:125|296:137,1,101.999996887207,8|0,0:0|0:0,0:0:0:0:
453,308,86814,1,8,0:0:0:0:
297,158,86951,38,0,P|304:107|331:65,1,101.999996887207,14|0,0:0|0:0,0:0:0:0:
278,277,87223,2,0,P|318:309|342:354,1,101.999996887207,8|0,0:0|0:0,0:0:0:0:
185,210,87496,2,0,P|137:227|87:225,1,101.999996887207,8|0,0:0|0:0,0:0:0:0:
408,166,87769,22,0,P|359:177|319:207,1,101.999996887207,14|0,0:0|0:0,0:0:0:0:
216,376,88042,2,0,P|231:328|226:277,1,101.999996887207,14|0,0:0|0:0,0:0:0:0:
138,110,88314,2,0,P|172:147|218:167,1,101.999996887207,8|0,0:0|0:0,0:0:0:0:
365,241,88587,38,0,P|415:247|457:274,1,101.999996887207,14|0,0:0|0:0,0:0:0:0:
174,301,88860,2,0,P|141:340|97:363,1,101.999996887207,14|0,0:0|0:0,0:0:0:0:
223,108,89132,5,14,0:0:0:0:
202,10,89269,1,8,0:0:0:0:
256,219,89405,21,14,0:0:0:0:
285,15,89678,53,2,0:0:0:0:
303,52,89814,1,2,0:0:0:0:
413,42,89951,53,2,0:0:0:0:
395,79,90087,1,2,0:0:0:0:
336,152,90223,54,0,P|318:192|263:216,1,95.6250036478044,10|0,0:0|0:0,0:0:0:0:
256,219,90496,2,0,P|300:214|348:250,1,95.6250036478044,10|0,0:0|0:0,0:0:0:0:
354,252,90769,2,0,P|329:216|336:156,1,95.6250036478044,10|0,0:0|0:0,0:0:0:0:
429,196,91042,37,14,0:0:0:0:
231,157,104132,53,6,0:0:0:0:
313,144,104269,1,0,0:0:0:0:
284,221,104405,1,2,0:0:0:0:
121,168,104678,1,2,0:0:0:0:
334,51,104951,5,6,0:0:0:0:
118,189,105223,1,2,0:0:0:0:
279,246,105496,1,2,0:0:0:0:
46,268,105769,5,6,0:0:0:0:
14,172,106042,1,2,0:0:0:0:
127,343,106314,1,2,0:0:0:0:
398,212,106587,5,6,0:0:0:0:
430,116,106860,1,2,0:0:0:0:
317,287,107132,1,2,0:0:0:0:
167,165,107405,5,6,0:0:0:0:
255,72,107678,1,2,0:0:0:0:
341,165,107951,1,2,0:0:0:0:
159,178,108223,5,6,0:0:0:0:
255,59,108496,1,2,0:0:0:0:
354,175,108769,1,2,0:0:0:0:
67,154,109042,6,0,P|43:121|69:22,1,127.500004863739,6|0,0:0|0:0,0:0:0:0:
216,142,109587,1,2,0:0:0:0:
215,67,109724,1,2,0:0:0:0:
160,203,109860,6,0,L|114:246,1,63.7500024318696,10|0,0:0|0:0,0:0:0:0:
272,202,110132,2,0,L|345:260,1,63.7500024318696,10|0,0:0|0:0,0:0:0:0:
217,335,110405,1,2,0:0:0:0:
216,260,110542,1,2,0:0:0:0:
123,48,110678,22,0,P|178:35|258:137,1,191.250007295609,14|0,0:0|0:0,0:0:0:0:
139,179,111223,2,0,P|149:148|169:124,1,63.7500024318696,2|0,0:0|0:0,0:0:0:0:
240,235,111496,2,0,L|234:299,1,63.7500024318696,10|0,0:0|0:0,0:0:0:0:
353,176,111769,2,0,L|316:228,1,63.7500024318696,2|0,0:0|0:0,0:0:0:0:
485,169,112042,2,0,L|427:196,1,63.7500024318696,2|0,0:0|0:0,0:0:0:0:
240,235,112314,22,0,P|205:183|216:114,1,127.500004863739,10|0,0:0|0:0,0:0:0:0:
322,89,112723,1,2,0:0:0:0:
126,144,112860,2,0,P|86:136|58:104,1,63.7500024318696,2|0,0:0|0:0,0:0:0:0:
130,0,113132,2,0,L|129:72,1,63.7500024318696,10|0,0:0|0:0,0:0:0:0:
125,241,113405,1,2,0:0:0:0:
358,253,113678,1,2,0:0:0:0:
283,160,113814,1,2,0:0:0:0:
315,355,113951,38,0,P|394:360|438:331,2,127.500004863739,14|0|0,0:0|0:0|0:0,0:0:0:0:
283,160,114769,2,0,P|336:194|358:253,2,127.500004863739,10|0|0,0:0|0:0|0:0,0:0:0:0:
198,141,115587,22,0,P|238:86|350:104,1,191.250007295609,14|0,0:0|0:0,0:0:0:0:
283,160,116132,2,0,P|279:191|287:222,1,63.7500024318696,2|0,0:0|0:0,0:0:0:0:
421,143,116405,2,0,P|400:166|371:181,1,63.7500024318696,10|0,0:0|0:0,0:0:0:0:
331,307,116678,1,2,0:0:0:0:
331,332,116951,1,2,0:0:0:0:
167,126,117223,38,0,B|186:185|132:188|150:253,1,127.500004863739,14|0,0:0|0:0,0:0:0:0:
80,140,117632,1,2,0:0:0:0:
246,112,117769,2,0,P|253:142|237:199,1,63.7500024318696,2|0,0:0|0:0,0:0:0:0:
326,96,118042,2,0,P|334:169|304:244,1,127.500004863739,10|0,0:0|0:0,0:0:0:0:
304,245,118587,1,2,0:0:0:0:
278,21,118860,22,0,P|326:8|402:48,1,127.500004863739,14|0,0:0|0:0,0:0:0:0:
318,219,119269,1,2,0:0:0:0:
326,96,119405,2,0,L|391:144,1,63.7500024318696,2|0,0:0|0:0,0:0:0:0:
327,337,119678,2,0,P|375:322|401:292,1,63.7500024318696,10|0,0:0|0:0,0:0:0:0:
251,352,119951,2,0,P|300:358|337:342,1,63.7500024318696,2|0,0:0|0:0,0:0:0:0:
177,331,120223,2,0,P|219:358|259:358,1,63.7500024318696,2|0,0:0|0:0,0:0:0:0:
198,196,120496,38,0,P|246:222|328:214,1,127.500004863739,10|0,0:0|0:0,0:0:0:0:
94,189,121042,2,0,P|93:220|106:250,1,63.7500024318696,2|0,0:0|0:0,0:0:0:0:
185,204,121314,2,0,P|233:230|315:222,1,127.500004863739,10|0,0:0|0:0,0:0:0:0:
79,181,121860,2,0,P|78:212|90:241,1,63.7500024318696,2|0,0:0|0:0,0:0:0:0:
256,151,122132,54,0,B|324:159|379:109|371:62|371:62|317:22|296:89|219:46,1,318.750012159348,14|0,0:0|0:0,0:0:0:0:
100,64,122951,2,0,P|133:18|142:122,1,255.000009727478,14|0,0:0|0:0,0:0:0:0:
73,315,123632,54,0,L|78:252,1,50.9999984436036,4|0,0:0|0:0,0:0:0:0:
52,168,123769,38,0,B|49:226|18:279|18:279|56:305|67:340|67:340|128:296|201:317,1,318.750012159348,12|0,0:0|0:0,0:0:0:0:
257,208,124178,22,0,P|308:272|295:358,1,152.999995330811,6|0,0:0|0:0,0:0:0:0:
163,358,124451,38,0,P|174:322|195:300,1,50.9999984436036,4|0,0:0|0:0,0:0:0:0:
429,316,124587,2,0,P|376:332|303:292,1,127.500004863739,12|0,0:0|0:0,0:0:0:0:
205,135,124860,2,0,P|258:119|331:159,1,127.500004863739,8|0,0:0|0:0,0:0:0:0:
427,223,125132,6,0,L|444:310,1,85,10|0,0:0|0:0,0:0:0:0:
423,145,125405,22,0,L|449:272,1,127.500004863739,10|0,0:0|0:0,0:0:0:0:
433,134,125951,1,2,0:0:0:0:
463,22,126223,2,0,P|409:18|341:62,2,127.500004863739,10|0|0,0:0|0:0|0:0,0:0:0:0:
370,182,127042,54,0,B|317:316|317:316|291:251,1,203.999993774414,4|0,0:0|0:0,0:0:0:0:
264,75,127451,38,0,B|277:136|340:145|340:145|280:292|280:292|301:346,1,318.750012159348,4|0,0:0|0:0,0:0:0:0:
111,133,127860,22,0,B|105:41|105:41|74:58,1,101.999996887207,4|0,0:0|0:0,0:0:0:0:
198,254,128132,2,0,B|204:346|204:346|235:329,1,101.999996887207,4|0,0:0|0:0,0:0:0:0:
106,224,128405,6,0,P|71:204|24:200,1,85,10|0,0:0|0:0,0:0:0:0:
0,227,128678,38,0,P|53:257|126:260,1,127.500004863739,10|0,0:0|0:0,0:0:0:0:
249,177,129223,2,0,L|185:182,1,63.7500024318696,2|0,0:0|0:0,0:0:0:0:
400,214,129496,2,0,L|342:241,1,63.7500024318696,10|0,0:0|0:0,0:0:0:0:
250,271,129769,2,0,L|255:335,1,63.7500024318696,2|0,0:0|0:0,0:0:0:0:
310,85,130042,2,0,L|337:143,1,63.7500024318696,2|0,0:0|0:0,0:0:0:0:
116,122,130314,38,0,P|70:182|128:299,1,203.999993774414,14|0,0:0|0:0,0:0:0:0:
147,35,131132,2,0,P|120:14|81:8,1,50.9999984436036,10|0,0:0|0:0,0:0:0:0:
196,86,131405,2,0,P|180:55|147:33,1,50.9999984436036,2|0,0:0|0:0,0:0:0:0:
220,155,131678,2,0,P|218:120|198:87,1,50.9999984436036,2|0,0:0|0:0,0:0:0:0:
201,254,131951,22,0,P|321:261|367:186,1,203.999993774414,14|0,0:0|0:0,0:0:0:0:
91,280,132769,2,0,P|79:312|85:351,1,50.9999984436036,10|0,0:0|0:0,0:0:0:0:
124,217,133042,2,0,P|99:241|88:279,1,50.9999984436036,2|0,0:0|0:0,0:0:0:0:
181,172,133314,2,0,P|148:184|123:213,1,50.9999984436036,2|0,0:0|0:0,0:0:0:0:
221,294,133587,38,0,B|210:319|210:319|279:280,1,101.999996887207,10|0,0:0|0:0,0:0:0:0:
430,195,133996,1,2,0:0:0:0:
351,240,134132,1,2,0:0:0:0:
142,141,134405,22,0,B|132:116|132:116|201:155,1,101.999996887207,10|0,0:0|0:0,0:0:0:0:
351,240,134814,1,2,0:0:0:0:
272,195,134951,1,2,0:0:0:0:
176,327,135223,38,0,P|163:278|183:226,1,101.999996887207,10|0,0:0|0:0,0:0:0:0:
275,384,135632,2,0,P|288:335|268:283,1,101.999996887207,2|0,0:0|0:0,0:0:0:0:
19,265,136042,22,0,P|64:283|124:272,1,101.999996887207,10|0,0:0|0:0,0:0:0:0:
169,49,136587,1,2,0:0:0:0:
37,142,136723,1,2,0:0:0:0:
256,91,136860,53,14,0:0:0:0:
256,192,136894,12,0,138496,0:0:0:0:
176,136,139073,37,2,0:0:0:0:
190,150,139345,1,2,0:0:0:0:
357,55,139618,1,0,0:0:0:0:
343,41,139891,1,10,0:0:0:0:
402,277,140132,6,0,B|271:196|266:343|119:265|119:265|144:204|225:211,1,407.999987548829,14|0,0:0|0:0,0:0:0:0:
329,369,140814,1,8,0:0:0:0:
375,246,140951,2,0,P|326:233|278:246,1,101.999996887207,10|0,0:0|0:0,0:0:0:0:
204,382,141223,2,0,P|164:337|158:275,1,101.999996887207,8|0,0:0|0:0,0:0:0:0:
250,210,141496,2,0,P|214:246|202:295,1,101.999996887207,8|0,0:0|0:0,0:0:0:0:
461,242,141769,6,0,B|483:264|515:278|515:278|466:347|381:329,1,203.999993774414,14|0,0:0|0:0,0:0:0:0:
243,299,142178,1,8,0:0:0:0:
364,205,142314,1,8,0:0:0:0:
322,355,142451,1,2,0:0:0:0:
170,159,142587,2,0,P|222:182|244:241,1,101.999996887207,10|0,0:0|0:0,0:0:0:0:
46,143,142860,2,0,P|70:189|126:205,1,101.999996887207,8|0,0:0|0:0,0:0:0:0:
5,27,143132,2,0,P|57:44|85:86,1,101.999996887207,8|0,0:0|0:0,0:0:0:0:
314,183,143405,54,0,P|391:158|427:39,1,203.999993774414,14|0,0:0|0:0,0:0:0:0:
235,40,143814,1,8,0:0:0:0:
314,183,143951,1,8,0:0:0:0:
355,46,144087,1,2,0:0:0:0:
225,142,144223,2,0,P|270:177|329:180,1,101.999996887207,10|0,0:0|0:0,0:0:0:0:
146,80,144496,2,0,P|191:45|250:42,1,101.999996887207,8|0,0:0|0:0,0:0:0:0:
184,214,144769,2,0,P|186:163|162:119,1,101.999996887207,8|0,0:0|0:0,0:0:0:0:
42,333,145042,6,0,B|143:284|144:379|255:327,1,203.999993774414,14|0,0:0|0:0,0:0:0:0:
114,180,145451,1,8,0:0:0:0:
47,254,145587,2,0,P|20:302|30:358,1,101.999996887207,8|0,0:0|0:0,0:0:0:0:
184,213,145860,2,0,P|187:162|161:119,1,101.999996887207,10|0,0:0|0:0,0:0:0:0:
20,54,146132,2,0,P|58:21|108:16,1,101.999996887207,8|0,0:0|0:0,0:0:0:0:
190,98,146405,2,0,P|153:63|104:55,1,101.999996887207,8|0,0:0|0:0,0:0:0:0:
454,146,146678,38,0,L|432:31,1,101.999996887207,14|0,0:0|0:0,0:0:0:0:
344,229,146951,2,0,L|366:114,1,101.999996887207,8|0,0:0|0:0,0:0:0:0:
257,302,147223,2,0,L|235:187,1,101.999996887207,8|0,0:0|0:0,0:0:0:0:
423,330,147496,6,0,P|457:293|466:244,1,101.999996887207,10|0,0:0|0:0,0:0:0:0:
321,381,147769,2,0,P|370:371|405:335,1,101.999996887207,8|0,0:0|0:0,0:0:0:0:
207,366,148042,2,0,P|252:386|302:377,1,101.999996887207,8|0,0:0|0:0,0:0:0:0:
152,157,148314,54,0,P|100:151|49:191,1,101.999996887207,14|0,0:0|0:0,0:0:0:0:
88,300,148587,2,0,P|140:306|191:266,1,101.999996887207,8|0,0:0|0:0,0:0:0:0:
47,197,148860,2,0,P|41:249|81:300,1,101.999996887207,8|0,0:0|0:0,0:0:0:0:
257,95,149132,6,4,L|216:212,1,101.999996887207,10|0,0:0|0:0,0:0:0:0:
121,0,149405,2,0,L|162:117,1,101.999996887207,8|0,0:0|0:0,0:0:0:0:
250,295,149678,1,8,0:0:0:0:
127,180,149814,1,2,0:0:0:0:
366,230,149951,54,0,P|417:199|354:2,1,305.999990661621,14|0,0:0|0:0,0:0:0:0:
358,215,150496,2,0,P|409:177|426:132,1,101.999996887207,8|0,0:0|0:0,0:0:0:0:
238,37,150769,2,0,L|251:142,1,101.999996887207,10|0,0:0|0:0,0:0:0:0:
95,278,151042,1,8,0:0:0:0:
154,116,151178,1,2,0:0:0:0:
200,240,151314,1,8,0:0:0:0:
28,205,151450,1,2,0:0:0:0:
244,336,151587,22,0,P|293:290|246:148,2,203.999993774414,14|8|0,0:0|0:0|0:0,0:0:0:0:
200,240,152269,1,8,0:0:0:0:
374,296,152405,2,0,P|415:268|426:192,1,101.999996887207,10|0,0:0|0:0,0:0:0:0:
200,240,152678,2,0,P|154:200|146:136,1,101.999996887207,8|0,0:0|0:0,0:0:0:0:
353,17,152951,1,8,0:0:0:0:
337,209,153087,1,2,0:0:0:0:
83,131,153223,54,0,P|125:80|251:110,1,203.999993774414,14|0,0:0|0:0,0:0:0:0:
110,200,153632,1,8,0:0:0:0:
157,50,153769,2,0,P|205:52|252:81,1,101.999996887207,8|0,0:0|0:0,0:0:0:0:
242,293,154042,2,0,P|221:336|162:365,1,101.999996887207,10|0,0:0|0:0,0:0:0:0:
304,241,154314,2,0,P|330:280|326:346,1,101.999996887207,8|0,0:0|0:0,0:0:0:0:
301,161,154587,2,0,P|348:157|403:194,1,101.999996887207,8|0,0:0|0:0,0:0:0:0:
159,68,154860,6,0,P|258:29|343:90,1,203.999993774414,14|0,0:0|0:0,0:0:0:0:
237,226,155269,1,8,0:0:0:0:
143,147,155405,1,8,0:0:0:0:
301,161,155542,1,2,0:0:0:0:
223,299,155678,2,0,P|174:315|116:302,1,101.999996887207,10|0,0:0|0:0,0:0:0:0:
309,298,155951,2,0,P|297:347|258:379,1,101.999996887207,8|0,0:0|0:0,0:0:0:0:
38,308,156223,2,0,P|51:260|89:227,1,101.999996887207,8|0,0:0|0:0,0:0:0:0:
237,22,156496,54,0,P|180:97|234:217,1,203.999993774414,14|0,0:0|0:0,0:0:0:0:
370,66,156905,1,8,0:0:0:0:
202,120,157042,2,0,P|212:169|247:205,1,101.999996887207,8|0,0:0|0:0,0:0:0:0:
462,31,157314,2,0,P|413:38|361:75,1,101.999996887207,10|0,0:0|0:0,0:0:0:0:
331,208,157587,2,0,P|374:182|438:178,1,101.999996887207,8|0,0:0|0:0,0:0:0:0:
468,353,157860,1,8,0:0:0:0:
288,282,157996,1,2,0:0:0:0:
370,66,158132,6,0,B|315:-31|217:16|217:16|240:37|240:37|166:56|135:131|171:200,1,407.999987548829,14|0,0:0|0:0,0:0:0:0:
331,198,158814,1,8,0:0:0:0:
206,14,158951,2,0,P|125:92|196:260,1,305.999990661621,14|0,0:0|0:0,0:0:0:0:
271,112,159496,1,8,0:0:0:0:
67,82,159632,1,2,0:0:0:0:
105,304,159769,54,0,P|179:349|253:193,1,305.999990661621,14|0,0:0|0:0,0:0:0:0:
154,163,160314,2,0,P|161:226|217:270,1,101.999996887207,8|0,0:0|0:0,0:0:0:0:
352,109,160587,54,0,L|396:7,1,101.999996887207,10|0,0:0|0:0,0:0:0:0:
382,217,160860,2,0,L|338:115,1,101.999996887207,8|0,0:0|0:0,0:0:0:0:
353,324,161132,2,0,L|397:222,1,101.999996887207,8|0,0:0|0:0,0:0:0:0:
160,109,161405,6,0,L|116:7,1,101.999996887207,14|0,0:0|0:0,0:0:0:0:
130,217,161678,2,0,L|174:115,1,101.999996887207,8|0,0:0|0:0,0:0:0:0:
159,324,161950,2,0,L|115:222,1,101.999996887207,8|0,0:0|0:0,0:0:0:0:
256,77,162223,54,0,L|130:118,1,101.999996887207,10|0,0:0|0:0,0:0:0:0:
259,251,162496,2,0,L|355:282,1,101.999996887207,8|0,0:0|0:0,0:0:0:0:
256,77,162769,1,8,0:0:0:0:
105,246,162905,1,2,0:0:0:0:
328,371,163042,22,0,P|384:370|437:238,1,203.999993774414,14|0,0:0|0:0,0:0:0:0:
236,171,163451,1,8,0:0:0:0:
355,282,163587,1,8,0:0:0:0:
405,83,163723,1,2,0:0:0:0:
151,104,163860,2,0,P|128:169|212:277,1,203.999993774414,14|0,0:0|0:0,0:0:0:0:
345,24,164269,1,8,0:0:0:0:
236,171,164405,1,8,0:0:0:0:
416,195,164542,1,2,0:0:0:0:
229,56,164678,22,0,P|164:81|131:216,1,203.999993774414,14|0,0:0|0:0,0:0:0:0:
283,360,165087,1,8,0:0:0:0:
236,171,165223,1,8,0:0:0:0:
135,287,165360,1,2,0:0:0:0:
287,279,165496,38,0,L|391:159,1,152.999995330811,14|0,0:0|0:0,0:0:0:0:
395,304,165769,22,0,L|499:184,1,152.999995330811,14|0,0:0|0:0,0:0:0:0:
502,324,166042,53,8,0:0:0:0:
342,95,166178,1,10,0:0:0:0:
215,264,166314,38,0,B|255:324|156:388|107:280|175:251|175:251|130:258|87:240|-21:221|38:115|122:76|195:215|49:273,1,560.999982879639,14|0,0:0|0:0,0:0:0:0:
47,77,167951,22,0,B|129:58|184:121|184:121|228:94|228:94|310:148|353:142|404:71|377:20|275:4|257:70|291:174,1,560.999982879639,14|0,0:0|0:0,0:0:0:0:
504,173,169587,38,0,B|515:239|471:292|471:292|413:275|360:312|360:312|328:267|264:235|196:269|147:323|197:404|280:403|289:331,1,560.999982879639,14|0,0:0|0:0,0:0:0:0:
181,215,171223,22,0,B|118:257|118:341|118:341|118:235|31:246|-28:124|60:56|151:82|183:216|13:221,1,586.499982101441,14|0,0:0|0:0,0:0:0:0:
0,216,172860,5,14,0:0:0:0:
256,192,172928,12,0,176132,0:0:0:0:
256,192,179405,21,14,0:0:0:0:
228,154,192496,5,6,0:0:0:0:
276,280,192769,1,2,0:0:0:0:
343,226,193042,1,2,0:0:0:0:
150,83,193314,5,6,0:0:0:0:
69,273,193587,1,2,0:0:0:0:
197,246,193860,1,2,0:0:0:0:
376,109,194132,5,6,0:0:0:0:
343,226,194405,1,2,0:0:0:0:
254,140,194678,1,2,0:0:0:0:
286,332,194951,5,6,0:0:0:0:
197,246,195222,1,2,0:0:0:0:
164,363,195495,1,2,0:0:0:0:
321,41,195769,5,6,0:0:0:0:
115,109,196042,1,2,0:0:0:0:
227,131,196314,1,2,0:0:0:0:
386,130,196587,5,6,0:0:0:0:
180,62,196860,1,2,0:0:0:0:
292,40,197132,1,2,0:0:0:0:
472,147,197405,38,0,P|412:136|337:198,1,152.999995330811,6|0,0:0|0:0,0:0:0:0:
454,58,197951,2,0,P|423:55|391:61,1,50.9999984436036,2|0,0:0|0:0,0:0:0:0:
266,74,198223,6,0,P|282:44|345:3,2,101.999996887207,6|0|0,0:0|0:0|0:0,0:0:0:0:
110,191,199042,37,6,0:0:0:0:
245,264,199314,1,2,0:0:0:0:
268,172,199587,1,2,0:0:0:0:
298,384,199860,5,6,0:0:0:0:
190,203,200132,1,2,0:0:0:0:
133,316,200405,1,2,0:0:0:0:
469,222,200678,21,6,0:0:0:0:
282,302,200951,1,2,0:0:0:0:
376,261,201223,1,2,0:0:0:0:
193,88,201496,5,6,0:0:0:0:
380,168,201769,1,2,0:0:0:0:
287,129,202042,1,2,0:0:0:0:
57,197,202314,5,6,0:0:0:0:
210,282,202587,1,2,0:0:0:0:
211,179,202860,1,2,0:0:0:0:
351,87,203132,22,0,P|302:37|212:35,1,152.999995330811,6|0,0:0|0:0,0:0:0:0:
329,164,203678,2,0,P|362:167|394:155,1,50.9999984436036,2|0,0:0|0:0,0:0:0:0:
266,109,203951,2,0,P|249:143|266:218,2,101.999996887207,6|0|0,0:0|0:0|0:0,0:0:0:0:
440,109,204769,2,0,P|459:155|449:205,2,101.999996887207,6|0|0,0:0|0:0|0:0,0:0:0:0:
320,214,205587,22,0,P|284:277|198:288,1,152.999995330811,14|0,0:0|0:0,0:0:0:0:
233,207,206132,22,0,L|184:284,1,76.4999976654053,2|0,0:0|0:0,0:0:0:0:
118,249,206405,2,0,L|159:184,1,76.4999976654053,10|0,0:0|0:0,0:0:0:0:
313,76,206678,2,0,L|264:153,1,76.4999976654053,2|0,0:0|0:0,0:0:0:0:
198,118,206951,2,0,L|239:53,1,76.4999976654053,10|0,0:0|0:0,0:0:0:0:
158,184,207223,38,0,P|164:266|227:213,1,203.999993774414,14|0,0:0|0:0,0:0:0:0:
170,347,208042,2,0,P|107:324|60:245,1,152.999995330811,10|0,0:0|0:0,0:0:0:0:
120,115,208587,1,2,0:0:0:0:
32,39,208723,1,2,0:0:0:0:
208,86,208860,38,0,B|212:120|202:154|202:154|285:131|340:168,1,203.999993774414,14|0,0:0|0:0,0:0:0:0:
203,319,209678,2,0,B|306:293|306:293|271:262,1,152.999995330811,10|0,0:0|0:0,0:0:0:0:
181,208,210223,1,10,0:0:0:0:
333,163,210360,1,10,0:0:0:0:
255,306,210496,22,0,L|305:294,1,50.9999984436036,10|0,0:0|0:0,0:0:0:0:
346,321,210769,2,0,B|193:363,1,152.999995330811,2|0,0:0|0:0,0:0:0:0:
93,342,211314,2,0,P|119:373|155:257,1,238,10|0,0:0|0:0,0:0:0:0:
117,228,211860,2,0,P|148:261|184:265,1,68,10|0,0:0|0:0,0:0:0:0:
210,340,212132,38,0,P|137:342|42:256,1,204,14|0,0:0|0:0,0:0:0:0:
149,198,212678,54,0,L|67:274,1,102,2|0,0:0|0:0,0:0:0:0:
60,162,212951,2,0,L|150:114,1,102,10|0,0:0|0:0,0:0:0:0:
315,137,213223,2,0,L|205:161,1,102,2|0,0:0|0:0,0:0:0:0:
259,65,213496,2,0,L|360:69,1,102,10|0,0:0|0:0,0:0:0:0:
401,143,213769,38,0,B|390:201|347:223|308:221|308:221|286:254|286:254|221:241|172:278,1,272,14|0,0:0|0:0,0:0:0:0:
329,320,214587,2,0,B|392:313|420:275|420:275|446:311|508:322,1,204,10|0,0:0|0:0,0:0:0:0:
340,215,215132,1,2,0:0:0:0:
501,216,215269,1,2,0:0:0:0:
353,105,215405,38,0,P|397:139|358:22,1,374,14|0,0:0|0:0,0:0:0:0:
334,59,216223,22,0,B|231:19|232:103|130:49,1,204,6|0,0:0|0:0,0:0:0:0:
281,145,216769,1,2,0:0:0:0:
184,214,216905,1,2,0:0:0:0:
56,33,217042,53,14,0:0:0:0:
256,192,217076,12,0,220314,0:0:0:0:
220,187,220811,37,2,0:0:0:0:
240,185,221096,1,2,0:0:0:0:
260,182,221382,1,2,0:0:0:0:
280,179,221668,1,2,0:0:0:0:
72,192,221951,54,0,B|140:201|158:270|158:270|210:307|279:277,1,237.999992736817,14|0,0:0|0:0,0:0:0:0:
331,86,222360,1,8,0:0:0:0:
165,37,222496,2,0,P|152:94|178:155,1,118.999996368408,8|0,0:0|0:0,0:0:0:0:
340,252,222769,2,0,P|373:211|365:135,1,118.999996368408,10|0,0:0|0:0,0:0:0:0:
266,321,223041,2,0,P|318:319|371:264,1,118.999996368408,8|0,0:0|0:0,0:0:0:0:
174,311,223314,2,0,P|208:350|284:355,1,118.999996368408,8|0,0:0|0:0,0:0:0:0:
472,142,223587,38,0,B|488:95|468:52|468:52|401:83|383:28|317:63,1,237.999992736817,14|0,0:0|0:0,0:0:0:0:
272,229,223996,1,8,0:0:0:0:
433,275,224132,2,0,P|418:206|380:169,1,118.999996368408,8|0,0:0|0:0,0:0:0:0:
107,267,224405,2,0,P|162:291|221:275,1,118.999996368408,10|0,0:0|0:0,0:0:0:0:
133,153,224678,2,0,P|73:149|23:184,1,118.999996368408,8|0,0:0|0:0,0:0:0:0:
245,363,224951,2,0,P|293:327|308:268,1,118.999996368408,8|0,0:0|0:0,0:0:0:0:
55,348,225223,22,0,B|25:350|-1:373|-1:373|-15:318|31:290|15:198,1,237.999992736817,14|0,0:0|0:0,0:0:0:0:
185,69,225632,1,8,0:0:0:0:
217,277,225769,2,0,P|150:269|105:224,1,118.999996368408,8|0,0:0|0:0,0:0:0:0:
313,69,226041,2,0,P|335:118|306:199,1,118.999996368408,10|0,0:0|0:0,0:0:0:0:
206,361,226314,2,0,P|237:317|322:302,1,118.999996368408,8|0,0:0|0:0,0:0:0:0:
512,307,226587,2,0,P|453:299|411:259,1,118.999996368408,8|0,0:0|0:0,0:0:0:0:
437,85,226860,38,0,B|472:63|475:12|475:12|476:96|536:83|508:171,1,237.999992736817,14|0,0:0|0:0,0:0:0:0:
344,244,227269,1,8,0:0:0:0:
284,31,227405,2,0,P|336:65|357:128,1,118.999996368408,8|0,0:0|0:0,0:0:0:0:
170,252,227678,2,0,P|185:188|243:146,1,118.999996368408,10|0,0:0|0:0,0:0:0:0:
344,244,227951,2,0,P|329:308|271:350,1,118.999996368408,8|0,0:0|0:0,0:0:0:0:
101,359,228223,1,8,0:0:0:0:
284,198,228360,1,0,0:0:0:0:
63,269,228496,22,0,B|58:211|97:186|97:186|97:163|97:163|167:126|142:43,1,237.999992736817,14|0,0:0|0:0,0:0:0:0:
0,6,228905,1,8,0:0:0:0:
97,185,229041,2,0,P|148:207|223:187,1,118.999996368408,8|0,0:0|0:0,0:0:0:0:
486,26,229314,2,0,P|429:10|376:47,1,118.999996368408,10|0,0:0|0:0,0:0:0:0:
315,182,229587,2,0,P|264:211|209:196,1,118.999996368408,8|0,0:0|0:0,0:0:0:0:
136,59,229860,2,0,P|79:43|26:80,1,118.999996368408,8|0,0:0|0:0,0:0:0:0:
56,266,230132,38,0,P|112:281|165:244,2,118.999996368408,14|0|0,0:0|0:0|0:0,0:0:0:0:
88,115,230542,1,8,0:0:0:0:
233,266,230678,2,0,P|218:297|135:347,1,118.999996368408,8|0,0:0|0:0,0:0:0:0:
203,101,230951,2,0,P|250:67|334:89,1,118.999996368408,10|0,0:0|0:0,0:0:0:0:
450,208,231223,2,0,P|403:242|319:220,1,118.999996368408,8|0,0:0|0:0,0:0:0:0:
215,5,231496,1,8,0:0:0:0:
371,162,231632,1,2,0:0:0:0:
138,229,231769,22,0,B|95:209|74:213|74:213|56:245|81:331|175:310|196:274,1,237.999992736817,14|0,0:0|0:0,0:0:0:0:
203,101,232178,1,8,0:0:0:0:
0,228,232314,2,0,P|8:291|57:346,1,118.999996368408,8|0,0:0|0:0,0:0:0:0:
353,259,232587,2,0,B|367:233|394:222|394:222|307:259|298:198|213:226,1,237.999992736817,14|0,0:0|0:0,0:0:0:0:
248,384,232996,1,8,0:0:0:0:
425,293,233132,1,8,0:0:0:0:
340,125,233269,1,2,0:0:0:0:
328,369,233405,38,0,B|396:330|391:394|470:382|509:339|502:297|493:263,1,237.999992736817,14|0,0:0|0:0,0:0:0:0:
340,125,233814,1,8,0:0:0:0:
425,293,233951,1,8,0:0:0:0:
497,105,234087,1,2,0:0:0:0:
268,241,234223,2,0,L|383:209,1,118.999996368408,10|0,0:0|0:0,0:0:0:0:
178,356,234496,2,0,L|61:329,1,118.999996368408,8|0,0:0|0:0,0:0:0:0:
103,87,234769,1,8,0:0:0:0:
188,261,234905,1,2,0:0:0:0:
315,78,235042,22,0,B|311:47|341:19|341:19|379:104|311:181,1,237.999992736817,14|0,0:0|0:0,0:0:0:0:
131,206,235451,1,8,0:0:0:0:
47,37,235587,2,0,P|100:14|156:33,1,118.999996368408,8|0,0:0|0:0,0:0:0:0:
188,261,235860,2,0,P|134:283|78:264,1,118.999996368408,10|0,0:0|0:0,0:0:0:0:
260,169,236133,2,0,P|251:227|208:265,1,118.999996368408,8|0,0:0|0:0,0:0:0:0:
218,61,236406,2,0,P|265:99|269:174,1,118.999996368408,8|0,0:0|0:0,0:0:0:0:
32,171,236678,38,0,B|-7:124|46:63|46:63|119:83|116:150,1,237.999992736817,14|0,0:0|0:0,0:0:0:0:
0,288,237087,1,8,0:0:0:0:
46,63,237223,2,0,P|107:43|164:66,1,118.999996368408,8|0,0:0|0:0,0:0:0:0:
300,291,237496,2,0,P|235:291|188:251,1,118.999996368408,10|0,0:0|0:0,0:0:0:0:
278,123,237769,2,0,P|342:122|389:162,1,118.999996368408,8|0,0:0|0:0,0:0:0:0:
390,384,238042,1,8,0:0:0:0:
313,202,238178,1,2,0:0:0:0:
119,376,238314,22,0,P|211:377|240:251,1,237.999992736817,14|0,0:0|0:0,0:0:0:0:
177,88,238723,1,8,0:0:0:0:
89,223,238860,2,0,P|113:276|166:301,1,118.999996368408,8|0,0:0|0:0,0:0:0:0:
338,147,239132,2,0,P|357:84|324:17,1,118.999996368408,10|0,0:0|0:0,0:0:0:0:
274,224,239405,2,0,P|319:271|393:276,1,118.999996368408,8|0,0:0|0:0,0:0:0:0:
504,134,239678,2,0,P|439:149|398:211,1,118.999996368408,8|0,0:0|0:0,0:0:0:0:
338,381,239951,38,0,B|419:405|432:332|518:378|518:378|515:349|472:325,1,237.999992736817,14|0,0:0|0:0,0:0:0:0:
338,147,240360,1,8,0:0:0:0:
177,270,240496,2,0,P|210:312|287:332,1,118.999996368408,8|2,0:0|0:0,0:0:0:0:
270,51,240769,2,0,P|214:68|177:114,1,118.999996368408,10|0,0:0|0:0,0:0:0:0:
416,66,241041,2,0,P|471:48|509:3,1,118.999996368408,8|0,0:0|0:0,0:0:0:0:
158,13,241314,1,8,0:0:0:0:
338,147,241451,1,2,0:0:0:0:
39,170,241587,22,0,B|71:160|98:169|98:169|190:197|198:80|90:83|98:169|98:169|82:226|125:262,1,356.999989105225,14|8,0:0|0:0,0:0:0:0:
345,375,242132,1,8,0:0:0:0:
303,123,242269,1,2,0:0:0:0:
163,340,242405,38,0,L|257:247,1,118.999996368408,14|0,0:0|0:0,0:0:0:0:
474,117,242678,2,0,L|380:210,1,118.999996368408,2|0,0:0|0:0,0:0:0:0:
330,377,242951,1,8,0:0:0:0:
289,122,243087,1,2,0:0:0:0:
149,340,243223,22,0,L|243:247,1,118.999996368408,14|0,0:0|0:0,0:0:0:0:
460,117,243496,2,0,L|366:210,1,118.999996368408,10|0,0:0|0:0,0:0:0:0:
316,377,243769,1,8,0:0:0:0:
275,122,243905,1,2,0:0:0:0:
222,376,244041,38,0,L|212:258,1,118.999996368408,14|0,0:0|0:0,0:0:0:0:
387,77,244314,2,0,L|396:195,1,118.999996368408,8|0,0:0|0:0,0:0:0:0:
299,379,244587,1,8,0:0:0:0:
255,125,244723,1,2,0:0:0:0:
91,241,244860,22,0,P|21:150|63:44,1,237.999992736817,14|0,0:0|0:0,0:0:0:0:
255,125,245269,1,8,0:0:0:0:
148,306,245405,2,0,P|98:327|34:306,1,118.999996368408,8|0,0:0|0:0,0:0:0:0:
19,136,245678,2,0,P|69:115|133:136,1,118.999996368408,14|0,0:0|0:0,0:0:0:0:
261,292,245951,1,8,0:0:0:0:
105,223,246087,1,2,0:0:0:0:
255,125,246223,1,8,0:0:0:0:
199,351,246360,1,2,0:0:0:0:
189,56,246496,38,0,B|258:57|293:11|293:11|365:16|378:82,1,237.999992736817,14|0,0:0|0:0,0:0:0:0:
435,275,246905,1,8,0:0:0:0:
306,368,247041,2,0,P|244:379|195:346,1,118.999996368408,8|0,0:0|0:0,0:0:0:0:
151,149,247314,22,0,L|320:209,1,178.499994552612,14|0,0:0|0:0,0:0:0:0:
223,86,247587,38,0,L|392:146,1,178.499994552612,14|0,0:0|0:0,0:0:0:0:
473,89,247860,21,12,0:0:0:0:
305,25,247996,1,10,0:0:0:0:
280,289,248132,54,0,P|346:297|411:211,1,170,14|0,0:0|0:0,0:0:0:0:
301,127,248542,2,0,L|320:211,2,85,2|0|0,0:0|0:0|0:0,0:0:0:0:
174,273,248951,1,14,0:0:0:0:
371,359,249223,1,2,0:0:0:0:
410,129,249496,1,8,0:0:0:0:
130,200,249769,38,0,P|95:236|130:346,1,170,14|0,0:0|0:0,0:0:0:0:
220,245,250178,1,2,0:0:0:0:
76,120,250314,2,0,P|38:158|37:204,1,85,2|0,0:0|0:0,0:0:0:0:
123,343,250587,1,10,0:0:0:0:
305,196,250860,1,2,0:0:0:0:
76,120,251132,1,8,0:0:0:0:
293,85,251405,54,0,P|267:51|228:36,1,85,14|0,0:0|0:0,0:0:0:0:
314,183,251678,2,0,P|312:141|288:105,1,85,2|0,0:0|0:0,0:0:0:0:
281,278,251951,2,0,P|303:242|304:200,1,85,2|0,0:0|0:0,0:0:0:0:
192,219,252223,6,0,P|199:189|218:161,1,55.2499974708558,10|0,0:0|0:0,0:0:0:0:
192,286,252496,2,0,P|183:256|185:222,1,55.2499974708558,2|0,0:0|0:0,0:0:0:0:
227,348,252769,2,0,P|204:326|189:296,1,55.2499974708558,2|0,0:0|0:0,0:0:0:0:
390,201,253042,54,0,P|401:261|377:315,1,85,14|0,0:0|0:0,0:0:0:0:
332,122,253314,2,0,P|378:160|395:217,1,85,2|0,0:0|0:0,0:0:0:0:
238,96,253587,2,0,P|298:95|348:128,1,85,2|0,0:0|0:0,0:0:0:0:
113,30,253860,6,0,L|160:105,1,85,10|0,0:0|0:0,0:0:0:0:
191,309,254132,2,0,L|233:230,1,85,2|0,0:0|0:0,0:0:0:0:
405,101,254405,1,0,0:0:0:0:
320,103,254541,1,0,0:0:0:0:
151,209,254678,22,0,P|150:261|277:300,1,170,14|0,0:0|0:0,0:0:0:0:
216,155,255087,1,2,0:0:0:0:
87,312,255223,2,0,P|124:360|174:376,1,85,2|0,0:0|0:0,0:0:0:0:
315,352,255496,1,10,0:0:0:0:
131,160,255769,1,2,0:0:0:0:
30,379,256042,1,8,0:0:0:0:
260,239,256314,38,0,P|304:190|277:83,1,170,14|0,0:0|0:0,0:0:0:0:
139,31,256723,1,2,0:0:0:0:
156,200,256860,2,0,P|212:177|237:135,1,85,2|0,0:0|0:0,0:0:0:0:
98,108,257132,1,10,0:0:0:0:
236,329,257405,1,2,0:0:0:0:
390,165,257678,1,8,0:0:0:0:
147,205,257951,54,0,P|141:267|157:297,1,85,14|0,0:0|0:0,0:0:0:0:
178,128,258223,2,0,P|137:175|133:209,1,85,2|0,0:0|0:0,0:0:0:0:
256,79,258496,2,0,P|195:94|172:119,1,85,2|0,0:0|0:0,0:0:0:0:
341,113,258769,6,0,P|348:82|339:40,1,55.2499974708558,10|0,0:0|0:0,0:0:0:0:
319,170,259042,2,0,P|340:146|353:105,1,55.2499974708558,2|0,0:0|0:0,0:0:0:0:
267,212,259314,2,0,P|297:202|329:173,1,55.2499974708558,2|0,0:0|0:0,0:0:0:0:
471,226,259587,54,0,P|466:184|442:151,1,85,14|0,0:0|0:0,0:0:0:0:
450,318,259860,2,0,P|474:283|477:242,1,85,2|0,0:0|0:0,0:0:0:0:
383,376,260132,2,0,P|423:365|453:335,1,85,2|0,0:0|0:0,0:0:0:0:
442,151,260405,6,0,L|352:187,1,85,10|0,0:0|0:0,0:0:0:0:
70,160,260678,2,0,L|160:196,1,85,2|0,0:0|0:0,0:0:0:0:
442,187,260951,1,0,0:0:0:0:
363,218,261087,1,0,0:0:0:0:
255,163,261223,38,0,B|209:269|291:267|250:376,1,203.999993774414,14|0,0:0|0:0,0:0:0:0:
100,247,262042,5,14,0:0:0:0:
120,147,262314,1,2,0:0:0:0:
187,70,262587,1,2,0:0:0:0:
18,160,262860,5,10,0:0:0:0:
120,147,263132,1,2,0:0:0:0:
211,191,263405,1,2,0:0:0:0:
307,157,263678,1,10,0:0:0:0:
337,59,263951,1,2,0:0:0:0:
253,1,264223,1,2,0:0:0:0:
65,29,264496,5,14,0:0:0:0:
128,108,264769,1,2,0:0:0:0:
229,93,265042,1,2,0:0:0:0:
307,157,265314,1,10,0:0:0:0:
408,142,265587,1,2,0:0:0:0:
471,221,265860,1,2,0:0:0:0:
308,75,266132,5,14,0:0:0:0:
230,141,266405,1,2,0:0:0:0:
216,242,266678,1,2,0:0:0:0:
267,330,266951,1,2,0:0:0:0:
364,359,267223,1,2,0:0:0:0:
411,142,267496,53,14,0:0:0:0:
256,192,267530,12,0,272678,0:0:0:0:
