osu file format v14

[General]
AudioFilename: audio.mp3
AudioLeadIn: 0
PreviewTime: 56884
Countdown: 0
SampleSet: Normal
StackLeniency: 0.7
Mode: 0
LetterboxInBreaks: 0
WidescreenStoryboard: 0

[Editor]
Bookmarks: 14112,40294,46840,58294,84476,91021,104112,110658,123749,130294,140112,166294,172839,179385,205567,221929,248111,261202,267474
DistanceSpacing: 0.7
BeatDivisor: 4
GridSize: 4
TimelineZoom: 1

[Metadata]
Title:Katayoku no Tori
TitleUnicode:片翼の鳥
Artist:Shikata Akiko
ArtistUnicode:志方あきこ
Creator:Beafowl
Version:Nakanaide
Source:うみねこのなく頃に
Tags:japanese one-winged bird wataru namino ikuko ebata umineko no naku koro ni
BeatmapID:1450282
BeatmapSetID:618091

[Difficulty]
HPDrainRate:5
CircleSize:4
OverallDifficulty:8.5
ApproachRate:9.5
SliderMultiplier:2
SliderTickRate:1

[Events]
//Background and Video events
0,0,"BG.jpg",0,0
//Break Periods
2,91221,103587
2,176112,178859
//Storyboard Layer 0 (Background)
//Storyboard Layer 1 (Fail)
//Storyboard Layer 2 (Pass)
//Storyboard Layer 3 (Foreground)
//Storyboard Sound Samples

[TimingPoints]
1021.85303388495,272.727272727273,6,1,1,100,1,0
10840,-90.9090909090909,4,1,1,100,0,1
11658,-83.3333333333333,4,1,1,100,0,1
12476,-90.9090909090909,4,1,1,100,0,1
14112,-125,4,2,1,60,0,0
26385,-100,4,2,1,60,0,0
27203,-142.857142857143,4,2,1,50,0,0
38658,-125,4,2,1,50,0,0
39476,-111.111111111111,4,2,1,50,0,0
40021,-83.3333333333333,4,2,1,100,0,0
40294,-83.3333333333333,4,2,1,100,0,1
41930,-166.666666666667,4,2,1,40,0,0
43294,-83.3333333333333,4,2,1,100,0,0
43567,-83.3333333333333,4,2,1,100,0,1
45203,-166.666666666667,4,2,1,50,0,0
46840,-125,4,2,1,40,0,0
53385,-166.666666666667,4,2,1,40,0,0
55840,-500,4,2,1,30,0,0
56658,-500,4,3,1,30,0,0
56884,-166.666666666667,4,2,1,40,0,0
57169,285.714285714286,6,2,1,60,1,0
58294,272.727272727273,6,1,10,90,1,0
58294,-76.9230769230769,4,1,1,100,0,1
71112,-76.9230769230769,4,1,1,100,0,0
71384,-76.9230769230769,4,1,1,100,0,1
84203,-76.9230769230769,4,1,1,100,0,0
84475,-76.9230769230769,4,1,1,100,0,1
89385,-100,4,2,1,80,0,1
91021,-76.9230769230769,4,1,1,100,0,0
104112,-125,4,2,1,80,0,0
110658,-125,4,2,1,60,0,0
122930,-111.111111111111,4,2,1,60,0,0
123612,-83.3333333333333,4,1,1,100,0,0
123748,-83.3333333333333,4,1,1,100,0,1
125384,-166.666666666667,4,2,1,60,0,0
127021,-83.3333333333333,4,1,1,100,0,1
128657,-166.666666666667,4,1,1,60,0,0
130294,-125,4,2,1,50,0,0
136839,-166.666666666667,4,2,1,50,0,0
139021,-100,4,2,1,70,0,0
140112,-76.9230769230769,4,1,1,100,0,1
152930,-76.9230769230769,4,1,1,100,0,0
153203,-76.9230769230769,4,1,1,100,0,1
166294,-76.9230769230769,4,1,1,100,0,0
167862,-76.9230769230769,4,1,1,30,0,0
167930,-76.9230769230769,4,1,1,100,0,0
169498,-76.9230769230769,4,1,1,30,0,0
169566,-76.9230769230769,4,1,1,100,0,0
171134,-76.9230769230769,4,1,1,30,0,0
171203,-200,4,1,1,100,0,0
179384,-142.857142857143,4,1,1,80,0,0
180203,-142.857142857143,4,1,1,50,0,0
205566,-142.857142857143,4,2,1,70,0,0
220294,-166.666666666667,4,2,1,30,0,0
220804,285.714285714286,6,1,1,60,1,0
221929,272.727272727273,6,1,1,100,1,1
221929,-76.9230769230769,4,1,1,100,0,1
234747,-76.9230769230769,4,1,1,100,0,0
235019,-76.9230769230769,4,1,1,100,0,1
247838,-76.9230769230769,4,1,1,100,0,0
248110,-76.9230769230769,4,1,1,100,0,1
260929,-76.9230769230769,4,1,1,100,0,0
261201,-333.333333333333,4,1,1,100,0,1
267201,-76.9230769230769,4,1,1,100,0,0
267474,-50,4,1,1,100,0,1
267610,-50,4,1,1,100,0,0

[HitObjects]
240,256,1021,6,0,P|340:256|380:165,1,200,12|0,0:0|0:0,0:0:0:0:
137,73,1430,2,0,P|232:71|276:155,1,200,8|0,0:0|0:0,0:0:0:0:
170,335,1840,2,0,P|133:298|122:251,1,100,8|0,0:0|0:0,0:0:0:0:
276,155,2112,2,0,P|262:206|227:239,1,100,8|0,0:0|0:0,0:0:0:0:
67,154,2385,2,0,P|118:139|164:153,1,100,8|0,0:0|0:0,0:0:0:0:
268,354,2658,6,0,L|276:155,1,200,8|0,0:0|0:0,0:0:0:0:
436,66,3067,2,0,L|443:265,1,200,8|0,0:0|0:0,0:0:0:0:
276,155,3476,2,0,P|225:168|166:149,1,100,8|0,0:0|0:0,0:0:0:0:
346,268,3749,2,0,P|397:255|456:274,1,100,8|0,0:0|0:0,0:0:0:0:
213,272,4021,1,8,0:0:0:0:
409,151,4158,1,8,0:0:0:0:
206,282,4294,6,0,B|61:288|61:288|102:335,1,200,12|0,0:0|0:0,0:0:0:0:
291,353,4703,2,0,P|304:231|249:179,1,200,8|0,0:0|0:0,0:0:0:0:
206,282,5112,2,0,L|94:287,1,100,8|0,0:0|0:0,0:0:0:0:
255,182,5385,2,0,L|354:177,1,100,8|0,0:0|0:0,0:0:0:0:
204,86,5658,2,0,L|92:91,1,100,8|0,0:0|0:0,0:0:0:0:
206,282,5930,6,0,P|259:294|322:272,1,100,8|0,0:0|0:0,0:0:0:0:
451,175,6203,2,0,P|398:187|335:165,1,100,0|8,0:0|0:0,0:0:0:0:
205,67,6476,2,0,P|253:79|302:69,1,100
451,175,6749,5,8,0:0:0:0:
255,182,6885,1,0,0:0:0:0:
360,349,7021,5,8,0:0:0:0:
354,176,7158,1,0,0:0:0:0:
206,282,7294,5,8,0:0:0:0:
200,109,7431,1,8,0:0:0:0:
360,349,7567,2,0,P|400:257|352:175,1,200,12|0,0:0|0:0,0:0:0:0:
200,109,7976,2,0,P|160:201|208:283,1,200,8|0,0:0|0:0,0:0:0:0:
354,176,8385,2,0,P|360:125|349:58,1,100,8|0,0:0|0:0,0:0:0:0:
291,232,8658,2,0,P|243:252|191:295,1,100,8|0,0:0|0:0,0:0:0:0:
371,259,8930,2,0,P|412:289|475:313,1,100,8|0,0:0|0:0,0:0:0:0:
354,176,9203,6,0,P|261:153|207:229,1,200,8|0,0:0|0:0,0:0:0:0:
60,280,9612,2,0,P|153:303|207:227,1,200,8|0,0:0|0:0,0:0:0:0:
90,107,10021,2,0,L|116:204,1,100,8|0,0:0|0:0,0:0:0:0:
232,324,10294,2,0,L|206:227,1,100,8|0,0:0|0:0,0:0:0:0:
60,280,10567,1,8,0:0:0:0:
180,130,10703,1,8,0:0:0:0:
46,293,10840,6,0,B|131:364|131:364|238:322,1,220.000006713867,12|0,0:0|0:0,0:0:0:0:
393,258,11249,2,0,B|308:187|308:187|201:229,1,220.000006713867,8|0,0:0|0:0,0:0:0:0:
382,116,11658,2,0,P|325:87|268:93,1,119.999996337891,8|0,0:0|0:0,0:0:0:0:
232,272,11930,2,0,P|285:237|308:185,1,119.999996337891,8|0,0:0|0:0,0:0:0:0:
171,64,12203,2,0,P|173:127|207:173,1,119.999996337891,8|0,0:0|0:0,0:0:0:0:
393,259,12476,6,0,L|513:251,1,110.000003356934,8|0,0:0|0:0,0:0:0:0:
307,186,12749,2,0,P|284:236|286:291,1,110.000003356934,0|8,0:0|0:0,0:0:0:0:
414,149,13021,2,0,P|382:104|334:78,1,110.000003356934
393,259,13294,1,8,0:0:0:0:
207,220,13430,1,0,0:0:0:0:
334,78,13567,1,8,0:0:0:0:
285,291,13703,1,0,0:0:0:0:
414,149,13840,1,8,0:0:0:0:
227,109,13976,1,8,0:0:0:0:
357,285,14112,6,0,P|328:375|286:291,1,240,2|0,0:0|0:0,0:0:0:0:
307,186,14658,2,0,P|347:174|390:178,1,80
285,291,14930,2,0,P|245:303|202:299,1,80,2|0,0:0|0:0,0:0:0:0:
66,174,15203,2,0,P|87:207|96:246,1,80
228,106,15476,2,0,P|206:140|198:179,1,80,2|0,0:0|0:0,0:0:0:0:
285,291,15749,6,0,P|329:374|357:285,1,240,2|0,0:0|0:0,0:0:0:0:
257,182,16294,2,0,P|296:180|335:192,1,80
452,276,16567,1,2,0:0:0:0:
452,276,16703,1,0,0:0:0:0:
452,276,16840,2,0,L|456:196,1,80
257,182,17112,1,2,0:0:0:0:
458,116,17249,1,0,0:0:0:0:
254,262,17385,6,0,P|178:190|256:102,1,240,2|0,0:0|0:0,0:0:0:0:
385,143,17930,2,0,P|427:137|460:113,1,80
249,102,18203,2,0,P|222:68|185:52,1,80,2|0,0:0|0:0,0:0:0:0:
282,241,18476,2,0,P|266:280|270:320,1,80
385,143,18749,2,0,P|427:137|460:113,1,80,2|0,0:0|0:0,0:0:0:0:
249,102,19021,6,0,B|201:157|130:121|118:78|118:78|92:127|34:117,1,240,2|0,0:0|0:0,0:0:0:0:
123,194,19567,2,0,P|162:209|214:207,1,80
385,143,19840,1,2,0:0:0:0:
381,63,19976,1,0,0:0:0:0:
385,143,20112,2,0,L|389:238,1,80
203,289,20385,2,0,L|199:209,1,80,2|0,0:0|0:0,0:0:0:0:
56,118,20658,6,0,P|165:186|261:124,1,240,2|0,0:0|0:0,0:0:0:0:
154,14,21203,2,0,L|158:94,1,80
63,194,21476,2,0,P|49:142|66:99,1,80,2|0,0:0|0:0,0:0:0:0:
199,209,21749,2,0,P|213:261|196:304,1,80
335,224,22021,2,0,P|321:172|338:129,1,80,2|0,0:0|0:0,0:0:0:0:
445,244,22294,6,0,P|394:339|276:318,1,240,2|0,0:0|0:0,0:0:0:0:
327,147,22840,2,0,P|341:199|324:242,1,80
184,344,23112,2,0,P|184:296|206:254,1,80,2|0,0:0|0:0,0:0:0:0:
233,123,23385,2,0,P|233:171|255:213,1,80
106,281,23658,1,2,0:0:0:0:
283,337,23794,1,0,0:0:0:0:
101,264,23930,6,0,P|29:247|117:187,1,240,2|0,0:0|0:0,0:0:0:0:
236,300,24476,2,0,L|316:316,1,80
488,300,24749,2,0,L|408:316,1,80,2|0,0:0|0:0,0:0:0:0:
255,207,25021,2,0,L|335:223,1,80
507,207,25294,2,0,L|427:223,1,80,2|0,0:0|0:0,0:0:0:0:
208,120,25567,6,0,B|152:180|152:180|170:259,1,160,2|0,0:0|0:0,0:0:0:0:
96,120,25976,1,0,0:0:0:0:
113,316,26112,2,0,P|156:338|210:327,1,80
404,312,26385,6,0,B|396:276|396:276|432:216,1,100,8|0,1:0|1:0,1:0:0:0:
232,210,26658,2,0,B|240:174|240:174|204:114,1,100,8|0,1:0|1:0,1:0:0:0:
340,129,26930,1,8,1:0:0:0:
136,196,27067,1,8,1:0:0:0:
296,339,27203,6,0,B|296:307|273:284|273:284|328:283|355:233|358:203|331:161|267:159|255:211,1,279.999991455078,2|0,0:0|0:0,0:0:0:0:
403,293,28021,2,0,P|422:218|400:148,1,139.999995727539,2|0,0:0|0:0,0:0:0:0:
294,51,28567,1,0,0:0:0:0:
258,201,28840,2,0,B|194:202|128:159|128:159|114:199|66:213,1,209.999993591309,2|0,0:0|0:0,0:0:0:0:
11,282,29385,2,0,P|29:312|61:330,1,69.9999978637696
167,294,29658,2,0,L|124:142,1,139.999995727539,2|0,0:0|0:0,0:0:0:0:
180,76,30067,1,0,0:0:0:0:
268,191,30203,2,0,L|335:172,1,69.9999978637696,2|0,0:0|0:0,0:0:0:0:
405,68,30476,6,0,P|460:172|426:259,1,209.999993591309,2|0,0:0|0:0,0:0:0:0:
431,253,31021,1,0,0:0:0:0:
198,143,31294,2,0,L|179:75,1,69.9999978637696,2|0,0:0|0:0,0:0:0:0:
174,229,31567,2,0,L|113:194,1,69.9999978637696
217,306,31840,2,0,L|149:324,1,69.9999978637696,2|0,0:0|0:0,0:0:0:0:
263,231,32112,6,0,L|489:169,1,209.999993591309,2|0,0:0|0:0,0:0:0:0:
375,112,32658,2,0,L|307:130,1,69.9999978637696
263,231,32930,2,0,P|307:240|355:230,1,69.9999978637696,2|0,0:0|0:0,0:0:0:0:
307,129,33203,2,0,P|292:86|260:49,1,69.9999978637696
197,142,33476,2,0,P|167:175|151:222,1,69.9999978637696,2|0,0:0|0:0,0:0:0:0:
47,312,33749,6,0,P|131:272|192:359,1,209.999993591309,2|0,0:0|0:0,0:0:0:0:
157,198,34294,2,0,P|200:213|231:244,1,69.9999978637696
381,158,34567,2,0,P|338:173|307:204,1,69.9999978637696,2|0,0:0|0:0,0:0:0:0:
182,73,34840,2,0,P|225:88|256:119,1,69.9999978637696
406,33,35112,2,0,P|363:48|332:79,1,69.9999978637696,2|0,0:0|0:0,0:0:0:0:
218,228,35385,6,0,P|274:306|363:268,1,209.999993591309,2|0,0:0|0:0,0:0:0:0:
271,151,35930,2,0,P|235:136|193:137,1,69.9999978637696
357,174,36203,2,0,P|392:178|423:195,1,69.9999978637696,2|0,0:0|0:0,0:0:0:0:
218,228,36476,2,0,P|203:264|204:306,1,69.9999978637696
363,266,36749,2,0,P|359:301|342:332,1,69.9999978637696,2|0,0:0|0:0,0:0:0:0:
271,151,37021,6,0,B|199:127|199:127|141:172,1,139.999995727539,2|0,0:0|0:0,0:0:0:0:
148,166,37430,1,0,0:0:0:0:
337,172,37567,2,0,L|264:148,1,69.9999978637696
429,166,37840,2,0,L|407:232,1,69.9999978637696,2|0,0:0|0:0,0:0:0:0:
274,251,38112,2,0,L|201:227,1,69.9999978637696
211,87,38385,2,0,P|191:116|184:150,1,69.9999978637696,2|0,0:0|0:0,0:0:0:0:
274,251,38658,6,0,L|358:279,1,80,2|0,0:0|0:0,0:0:0:0:
429,166,38930,2,0,L|345:194,1,80
195,311,39203,2,0,L|279:339,1,80
353,191,39476,6,0,L|264:161,1,89.9999972534181,2|0,0:0|0:0,0:0:0:0:
109,339,39749,2,0,L|197:309,1,89.9999972534181
181,133,40021,1,8,1:0:0:0:
270,336,40158,1,8,1:0:0:0:
250,74,40294,6,0,B|307:32|307:32|468:86,1,239.999992675781,12|0,1:0|1:0,1:0:0:0:
412,323,40703,2,0,B|354:364|354:364|193:310,1,239.999992675781,8|0,1:0|1:0,1:0:0:0:
181,133,41112,2,0,P|240:165|311:141,1,119.999996337891,8|0,1:0|1:0,1:0:0:0:
481,264,41385,2,0,P|422:232|351:256,1,119.999996337891,8|0,1:0|1:0,1:0:0:0:
193,310,41658,5,0,1:0:0:0:
193,310,41930,2,0,L|69:294,2,119.999996337891,2|0|0,0:0|0:0|0:0,0:0:0:0:
170,171,42749,2,0,L|294:155,1,119.999996337891,2|0,0:0|0:0,0:0:0:0:
289,155,43294,1,8,1:0:0:0:
50,186,43430,1,8,1:0:0:0:
345,233,43567,6,0,P|357:88|283:59,1,239.999992675781,12|0,1:0|1:0,1:0:0:0:
249,242,43976,2,0,P|368:324|430:275,1,239.999992675781,8|0,1:0|1:0,1:0:0:0:
289,155,44385,2,0,L|165:139,1,119.999996337891,8|0,1:0|1:0,1:0:0:0:
68,326,44658,2,0,L|187:310,1,119.999996337891,8|0,1:0|1:0,1:0:0:0:
428,280,44930,5,0,0:0:0:0:
428,280,45203,2,0,L|368:288,1,59.9999981689454
246,301,45476,2,0,L|186:309,1,59.9999981689454
236,197,45749,2,0,L|295:188,1,59.9999981689454
418,176,46022,2,0,L|477:167,1,59.9999981689454
344,75,46294,2,0,L|352:134,1,59.9999981689454
304,247,46567,2,0,L|295:187,1,59.9999981689454
205,82,46840,6,0,P|118:47|123:211,1,320,2|0,0:0|0:0,0:0:0:0:
242,156,47658,2,0,P|282:54|248:11,2,160,2|0|0,0:0|0:0|0:0,0:0:0:0:
222,294,48476,2,0,B|265:283|299:313|299:313|301:222|396:205|406:226|439:285|379:310,1,320,2|0,0:0|0:0,0:0:0:0:
222,294,49294,2,0,P|116:268|91:212,2,160,2|0|0,0:0|0:0|0:0,0:0:0:0:
226,97,50112,6,0,B|289:155|289:155|212:313,1,240,2|0,0:0|0:0,0:0:0:0:
318,294,50658,2,0,L|362:202,1,80
421,77,50930,2,0,P|317:28|226:97,1,240,2|0,0:0|0:0,0:0:0:0:
198,185,51476,2,0,P|248:187|287:167,1,80
421,77,51749,6,0,B|410:153|410:153|358:206|358:206|345:296,1,240,2|0,0:0|0:0,0:0:0:0:
345,294,52294,1,0,0:0:0:0:
198,185,52567,1,2,0:0:0:0:
431,211,52840,1,0,0:0:0:0:
112,268,53112,1,0,0:0:0:0:
284,102,53385,6,0,P|346:87|407:109,2,119.999996337891,2|0|0,0:0|0:0|0:0,0:0:0:0:
166,164,54203,2,0,P|151:102|173:41,2,119.999996337891,2|0|0,0:0|0:0|0:0,0:0:0:0:
228,282,55021,2,0,P|166:297|105:275,2,119.999996337891,2|0|0,0:0|0:0|0:0,0:0:0:0:
344,334,55840,6,0,P|361:277|346:220,1,119.999996337891
284,102,57169,6,0,L|172:98,1,100
256,280,57454,2,0,L|355:283,1,100
157,237,57740,2,0,P|150:299|179:357,1,100
383,145,58026,2,0,P|390:83|361:25,1,100
256,280,58294,6,0,P|388:316|440:224,1,259.999988098145,12|0,0:0|0:0,0:0:0:0:
247,179,58703,2,0,P|149:275|203:366,1,259.999988098145,8|0,0:0|0:0,0:0:0:0:
339,220,59112,2,0,P|346:142|317:98,1,129.999994049073,8|0,0:0|0:0,0:0:0:0:
155,137,59385,2,0,P|148:215|177:260,1,129.999994049073,8|0,0:0|0:0,0:0:0:0:
319,100,59658,1,8,0:0:0:0:
111,52,59794,1,0,0:0:0:0:
173,256,59930,6,0,B|285:325|285:325|392:237,1,259.999988098145,12|0,0:0|0:0,0:0:0:0:
273,146,60340,2,0,B|161:77|161:77|54:165,1,259.999988098145,8|0,0:0|0:0,0:0:0:0:
237,246,60748,2,0,P|302:248|366:194,1,129.999994049073,8|0,0:0|0:0,0:0:0:0:
250,351,61021,2,0,P|188:339|143:293,1,129.999994049073,8|0,0:0|0:0,0:0:0:0:
273,146,61294,1,8,0:0:0:0:
84,229,61430,1,8,0:0:0:0:
251,351,61567,6,0,P|368:359|383:242,1,259.999988098145,12|0,0:0|0:0,0:0:0:0:
167,149,61976,2,0,B|159:245|159:245|315:294,1,259.999988098145,8|0,0:0|0:0,0:0:0:0:
259,165,62385,2,0,P|245:94|190:58,1,129.999994049073,8|0,0:0|0:0,0:0:0:0:
190,255,62658,2,0,L|315:294,1,129.999994049073,8|0,0:0|0:0,0:0:0:0:
383,126,62930,2,0,L|258:164,1,129.999994049073,8|0,0:0|0:0,0:0:0:0:
66,294,63203,6,0,L|190:255,1,129.999994049073,12|0,0:0|0:0,0:0:0:0:
438,332,63476,1,0,0:0:0:0:
229,379,63612,1,8,0:0:0:0:
286,166,63749,2,0,P|351:136|424:141,1,129.999994049073
229,379,64021,6,0,L|190:255,1,129.999994049073,12|0,0:0|0:0,0:0:0:0:
259,38,64294,1,0,0:0:0:0:
313,294,64430,1,8,0:0:0:0:
64,212,64567,2,0,P|34:146|39:73,1,129.999994049073,8|8,0:0|0:0,0:0:0:0:
286,166,64840,6,0,P|350:171|406:203,1,129.999994049073,12|0,0:0|0:0,0:0:0:0:
189,254,65112,2,0,P|161:195|161:130,1,129.999994049073,0|8,0:0|0:0,0:0:0:0:
313,294,65385,2,0,P|275:346|220:379,1,129.999994049073
161,130,65658,6,0,L|299:170,1,129.999994049073,8|0,0:0|0:0,0:0:0:0:
64,290,65930,2,0,L|188:253,1,129.999994049073,8|0,0:0|0:0,0:0:0:0:
257,42,66203,2,0,L|395:82,1,129.999994049073,8|0,0:0|0:0,0:0:0:0:
313,294,66476,6,0,L|281:146,1,129.999994049073,12|0,0:0|0:0,0:0:0:0:
381,78,66749,1,0,0:0:0:0:
161,130,66885,1,8,0:0:0:0:
408,205,67021,2,0,L|376:57,1,129.999994049073
188,252,67294,2,0,L|215:379,1,129.999994049073,8|0,0:0|0:0,0:0:0:0:
380,77,67567,2,0,L|232:109,1,129.999994049073,8|0,0:0|0:0,0:0:0:0:
215,379,67840,2,0,L|342:351,1,129.999994049073,8|0,0:0|0:0,0:0:0:0:
124,131,68112,6,0,B|192:228|192:228|351:194,1,259.999988098145,12|0,0:0|0:0,0:0:0:0:
252,104,68521,1,8,0:0:0:0:
410,292,68658,1,0,0:0:0:0:
380,77,68794,1,0,0:0:0:0:
282,319,68930,6,0,B|143:348|143:348|75:251,1,259.999988098145,12|0,0:0|0:0,0:0:0:0:
124,131,69340,1,8,0:0:0:0:
410,292,69476,1,0,0:0:0:0:
252,104,69612,1,0,0:0:0:0:
144,348,69749,6,0,B|282:318|282:318|305:202,1,259.999988098145,12|0,0:0|0:0,0:0:0:0:
252,104,70157,1,8,0:0:0:0:
282,317,70294,1,0,0:0:0:0:
160,124,70430,1,0,0:0:0:0:
374,297,70566,5,8,0:0:0:0:
252,104,70703,1,0,0:0:0:0:
190,337,70839,1,8,0:0:0:0:
344,84,70975,1,0,0:0:0:0:
374,297,71112,1,8,0:0:0:0:
160,124,71248,1,8,0:0:0:0:
455,210,71385,6,0,B|425:79|425:79|303:123,1,259.999988098145,12|0,0:0|0:0,0:0:0:0:
131,218,71794,2,0,B|161:349|161:349|283:305,1,259.999988098145,8|0,0:0|0:0,0:0:0:0:
210,168,72203,2,0,P|149:126|90:134,1,129.999994049073,8|0,0:0|0:0,0:0:0:0:
306,121,72476,2,0,P|372:89|395:34,1,129.999994049073,8|0,0:0|0:0,0:0:0:0:
298,227,72749,2,0,P|292:300|328:347,1,129.999994049073,8|0,0:0|0:0,0:0:0:0:
306,121,73021,6,0,B|252:54|252:54|77:141,1,259.999988098145,12|0,0:0|0:0,0:0:0:0:
298,227,73430,2,0,P|407:151|373:39,1,259.999988098145,8|0,0:0|0:0,0:0:0:0:
210,168,73840,2,0,P|192:232|214:292,1,129.999994049073,8|0,0:0|0:0,0:0:0:0:
386,286,74112,2,0,P|404:222|382:162,1,129.999994049073,8|0,0:0|0:0,0:0:0:0:
210,168,74385,1,8,0:0:0:0:
378,43,74521,1,8,0:0:0:0:
195,178,74658,6,0,P|248:311|346:285,1,259.999988098145,12|0,0:0|0:0,0:0:0:0:
224,158,75067,1,8,0:0:0:0:
338,292,75203,2,0,P|398:312|457:289,1,129.999994049073
378,43,75476,6,0,B|465:70|465:70|381:261,1,259.999988098145,12|8,0:0|0:0,0:0:0:0:
244,262,75885,1,0,0:0:0:0:
390,321,76021,1,8,0:0:0:0:
307,187,76158,1,0,0:0:0:0:
295,345,76294,6,0,P|176:332|159:213,1,259.999988098145,12|0,0:0|0:0,0:0:0:0:
307,187,76703,1,8,0:0:0:0:
157,116,76840,2,0,P|91:145|64:202,1,129.999994049073
307,187,77112,2,0,L|448:162,1,129.999994049073,8|0,0:0|0:0,0:0:0:0:
166,322,77385,2,0,L|294:344,1,129.999994049073,8|0,0:0|0:0,0:0:0:0:
230,117,77657,1,8,0:0:0:0:
65,286,77794,1,8,0:0:0:0:
294,344,77930,6,0,B|423:367|423:367|455:241,1,259.999988098145,12|0,0:0|0:0,0:0:0:0:
356,91,78340,2,0,L|293:343,1,259.999988098145,8|0,0:0|0:0,0:0:0:0:
124,241,78749,2,0,L|159:105,1,129.999994049073,8|0,0:0|0:0,0:0:0:0:
293,343,79021,2,0,L|258:207,1,129.999994049073,8|0,0:0|0:0,0:0:0:0:
396,193,79294,2,0,L|431:57,1,129.999994049073,8|0,0:0|0:0,0:0:0:0:
156,115,79567,6,0,P|224:115|288:75,1,129.999994049073,12|0,0:0|0:0,0:0:0:0:
396,193,79840,2,0,P|362:251|364:327,1,129.999994049073,8|0,0:0|0:0,0:0:0:0:
208,361,80112,2,0,P|174:302|107:266,1,129.999994049073,8|0,0:0|0:0,0:0:0:0:
277,85,80385,6,0,B|289:153|289:153|245:213,1,129.999994049073,8|0,0:0|0:0,0:0:0:0:
36,314,80658,2,0,B|24:246|24:246|68:186,1,129.999994049073,8|0,0:0|0:0,0:0:0:0:
314,276,80930,1,8,0:0:0:0:
122,270,81067,1,8,0:0:0:0:
314,276,81203,6,0,B|381:173|381:173|355:27,1,259.999988098145,12|0,0:0|0:0,0:0:0:0:
198,133,81612,1,8,0:0:0:0:
302,369,81749,2,0,P|373:348|403:304,1,129.999994049073
277,85,82021,6,0,P|370:130|445:13,1,259.999988098145,12|8,0:0|0:0,0:0:0:0:
196,41,82430,1,0,0:0:0:0:
358,214,82567,2,0,P|430:198|485:158,1,129.999994049073,8|0,0:0|0:0,0:0:0:0:
198,133,82840,6,0,B|126:181|126:181|225:348,1,259.999988098145,12|0,0:0|0:0,0:0:0:0:
331,377,83249,1,8,0:0:0:0:
358,214,83385,2,0,L|283:87,1,129.999994049073
424,325,83658,5,8,0:0:0:0:
214,330,83794,1,0,0:0:0:0:
358,214,83930,1,8,0:0:0:0:
197,301,84067,1,0,0:0:0:0:
291,102,84203,1,8,0:0:0:0:
180,272,84340,1,8,0:0:0:0:
484,207,84476,6,0,P|421:224|343:207,1,129.999994049073,12|0,0:0|0:0,0:0:0:0:
165,108,84749,2,0,P|228:91|306:108,1,129.999994049073,0|8,0:0|0:0,0:0:0:0:
313,319,85021,2,0,P|266:272|242:196,1,129.999994049073
427,108,85294,2,0,P|403:168|358:213,1,129.999994049073,8|0,0:0|0:0,0:0:0:0:
165,108,85567,5,8,0:0:0:0:
170,326,85703,1,0,0:0:0:0:
357,213,85840,1,8,0:0:0:0:
121,214,85976,1,0,0:0:0:0:
313,319,86112,6,0,P|384:326|456:270,1,129.999994049073,12|0,0:0|0:0,0:0:0:0:
470,191,86385,1,0,0:0:0:0:
285,88,86521,2,0,P|214:81|142:137,1,129.999994049073,8|0,0:0|0:0,0:0:0:0:
121,214,86794,1,0,0:0:0:0:
313,319,86930,2,0,L|304:177,1,129.999994049073,8|0,0:0|0:0,0:0:0:0:
121,214,87203,2,0,L|129:343,1,129.999994049073,8|0,0:0|0:0,0:0:0:0:
314,179,87476,1,8,0:0:0:0:
120,354,87612,1,0,0:0:0:0:
324,169,87749,6,0,P|386:153|457:179,1,129.999994049073,12|0,0:0|0:0,0:0:0:0:
265,273,88021,2,0,P|219:226|207:152,1,129.999994049073,0|8,0:0|0:0,0:0:0:0:
385,273,88294,1,0,0:0:0:0:
147,269,88430,1,0,0:0:0:0:
269,64,88567,2,0,P|331:48|402:74,1,129.999994049073,12|0,0:0|0:0,0:0:0:0:
205,164,88840,2,0,P|159:117|147:43,1,129.999994049073,8|0,0:0|0:0,0:0:0:0:
230,279,89112,2,0,P|165:278|103:234,1,129.999994049073,8|0,0:0|0:0,0:0:0:0:
318,200,89385,5,2,0:0:0:0:
318,200,89658,1,0,0:0:0:0:
471,197,89794,1,0,0:0:0:0:
392,66,89930,2,0,L|290:57,1,100,2|0,0:0|0:0,0:0:0:0:
188,37,90203,2,0,P|190:88|216:132,1,100,2|0,0:0|0:0,0:0:0:0:
285,207,90476,2,0,P|242:231|193:233,1,100
113,164,90749,1,2,0:0:0:0:
399,220,91021,5,4,0:0:0:0:
173,78,104112,5,2,0:0:0:0:
107,170,104248,1,0,0:0:0:0:
220,182,104384,2,0,P|257:156|281:111,1,80
324,24,104657,2,0,P|357:46|379:80,1,80
368,192,104930,2,0,P|372:237|398:280,1,80,2|0,0:0|0:0,0:0:0:0:
285,315,105203,2,0,P|243:295|193:297,1,80
73,258,105475,2,0,P|112:254|148:237,1,80
285,179,105748,6,0,L|199:164,1,80,2|0,0:0|0:0,0:0:0:0:
93,155,106021,2,0,L|148:88,1,80
210,0,106294,2,0,L|238:76,1,80
285,179,106566,2,0,L|312:103,1,80,2|0,0:0|0:0,0:0:0:0:
360,0,106839,2,0,L|387:75,1,80
434,178,107112,2,0,L|461:102,1,80
352,221,107384,6,0,P|377:252|431:272,1,80,2|0,0:0|0:0,0:0:0:0:
434,178,107657,2,0,P|448:140|438:84,1,80
356,129,107930,2,0,P|316:135|272:171,1,80
141,192,108203,2,0,P|180:198|224:234,1,80,2|0,0:0|0:0,0:0:0:0:
145,284,108475,2,0,P|120:315|66:335,1,80
63,241,108748,2,0,P|48:203|58:147,1,80
173,108,109021,6,0,P|255:124|319:55,1,160,2|0,0:0|0:0,0:0:0:0:
229,34,109430,1,0,0:0:0:0:
391,122,109566,2,0,L|387:210,1,80
282,284,109839,2,0,L|361:287,1,80,2|0,0:0|0:0,0:0:0:0:
468,245,110112,2,0,L|471:165,1,80
313,158,110384,2,0,L|309:78,1,80
128,196,110658,6,0,P|112:288|284:280,1,320,2|0,0:0|0:0,0:0:0:0:
204,120,111475,2,0,P|126:88|48:124,2,160,2|0|0,0:0|0:0|0:0,0:0:0:0:
282,284,112294,2,0,L|320:44,1,240,2|0,0:0|0:0,0:0:0:0:
389,131,112839,2,0,L|376:225,1,80
212,199,113112,2,0,L|54:173,1,160,2|0,0:0|0:0,0:0:0:0:
319,46,113657,5,0,0:0:0:0:
389,131,113794,1,0,0:0:0:0:
280,149,113930,2,0,B|224:122|212:84|210:42|210:42|161:92|109:107,1,240,2|0,0:0|0:0,0:0:0:0:
125,101,114475,1,0,0:0:0:0:
350,234,114748,2,0,P|312:255|258:258,1,80,2|0,0:0|0:0,0:0:0:0:
280,149,115021,2,0,P|280:105|305:57,1,80
388,130,115294,2,0,P|425:152|454:197,1,80
363,328,115566,6,0,P|230:361|168:284,1,240,2|0,0:0|0:0,0:0:0:0:
350,234,116112,2,0,P|397:240|436:268,1,80
275,211,116384,2,0,P|310:230|350:234,1,80,2|0,0:0|0:0,0:0:0:0:
410,117,116657,2,0,P|363:123|324:151,1,80
484,95,116929,2,0,P|449:113|409:117,1,80
243,124,117203,6,0,P|159:196|228:288,1,240,2|0,0:0|0:0,0:0:0:0:
349,234,117748,2,0,L|370:322,1,80
238,208,118021,2,0,L|219:285,1,80,2|0,0:0|0:0,0:0:0:0:
367,156,118294,2,0,L|348:233,1,80
219,130,118566,2,0,L|237:207,1,80
367,311,118839,6,0,L|430:70,1,240,2|0,0:0|0:0,0:0:0:0:
256,40,119384,2,0,L|275:117,1,80
237,207,119657,2,0,P|197:175|180:136,1,80,2|0,0:0|0:0,0:0:0:0:
370,102,119930,2,0,P|367:142|350:178,1,80
274,298,120203,2,0,P|223:303|183:288,1,80
100,93,120475,6,0,P|91:191|136:240,1,160,2|0,0:0|0:0,0:0:0:0:
127,234,120884,1,0,0:0:0:0:
184,135,121021,2,0,P|193:96|186:57,1,80
268,177,121294,2,0,P|258:215|265:254,1,80,2|0,0:0|0:0,0:0:0:0:
352,135,121566,2,0,P|361:96|354:57,1,80
436,177,121839,2,0,P|426:215|433:254,1,80
262,331,122112,6,0,L|173:316,1,80,2|0,0:0|0:0,0:0:0:0:
189,190,122384,2,0,L|278:175,1,80
432,253,122657,2,0,L|354:267,1,80
348,112,122930,6,0,L|441:128,1,89.9999972534181,2|0,0:0|0:0,0:0:0:0:
354,267,123203,2,0,L|261:283,1,89.9999972534181
442,251,123475,1,0,1:0:0:0:
176,297,123612,5,8,1:0:0:0:
176,297,123680,1,0,0:0:0:0:
176,297,123748,2,0,B|189:197|189:197|339:172,1,239.999992675781,12|0,0:0|0:0,0:0:0:0:
118,74,124157,2,0,L|87:312,1,239.999992675781,8|0,0:0|0:0,0:0:0:0:
298,81,124566,2,0,L|416:60,1,119.999996337891,8|0,0:0|0:0,0:0:0:0:
354,267,124839,2,0,L|235:287,1,119.999996337891,8|0,0:0|0:0,0:0:0:0:
118,74,125112,5,0,0:0:0:0:
118,74,125384,2,0,P|152:128|216:144,2,119.999996337891,2|0|0,0:0|0:0|0:0,0:0:0:0:
373,143,126203,2,0,P|339:197|275:213,2,119.999996337891,2|0|0,0:0|0:0|0:0,0:0:0:0:
202,284,127021,6,0,P|199:144|281:101,1,239.999992675781,12|0,0:0|0:0,0:0:0:0:
481,185,127430,2,0,P|361:257|283:208,1,239.999992675781,8|0,0:0|0:0,0:0:0:0:
383,23,127839,2,0,L|372:149,1,119.999996337891,8|0,0:0|0:0,0:0:0:0:
297,333,128112,2,0,L|286:213,1,119.999996337891,8|0,0:0|0:0,0:0:0:0:
190,23,128384,5,0,0:0:0:0:
190,23,128657,2,0,P|201:66|222:88,1,59.9999981689454
135,130,128930,2,0,P|124:173|103:195,1,59.9999981689454
190,237,129203,2,0,P|201:280|222:302,1,59.9999981689454
308,360,129475,6,0,P|323:334|328:305,1,59.9999981689454
447,285,129748,2,0,P|440:255|422:232,1,59.9999981689454
491,134,130021,2,0,P|465:118|436:113,1,59.9999981689454
256,192,130294,6,0,P|144:188|208:40,1,320,2|0,0:0|0:0,0:0:0:0:
408,131,131112,1,2,0:0:0:0:
469,283,131384,1,0,0:0:0:0:
317,344,131657,1,0,0:0:0:0:
256,192,131930,6,0,P|368:188|304:40,1,320,2|0,0:0|0:0,0:0:0:0:
104,131,132748,1,2,0:0:0:0:
43,283,133020,1,0,0:0:0:0:
195,344,133293,1,0,0:0:0:0:
256,192,133566,6,0,B|304:187|353:122|353:122|411:230,1,240,2|0,0:0|0:0,0:0:0:0:
251,286,134112,2,0,P|213:272|181:248,1,80
201,89,134384,2,0,B|249:84|298:19|298:19|356:127,1,240,2|0,0:0|0:0,0:0:0:0:
196,183,134930,2,0,P|158:169|126:145,1,80
191,277,135203,6,0,B|239:282|288:347|288:347|346:239,1,240,2|0,0:0|0:0,0:0:0:0:
343,243,135748,1,0,0:0:0:0:
218,18,136021,1,2,0:0:0:0:
191,277,136294,1,0,0:0:0:0:
363,83,136566,1,0,0:0:0:0:
110,137,136839,6,0,P|167:150|245:127,1,119.999996337891,2|0,0:0|0:0,0:0:0:0:
246,82,137248,2,0,P|304:69|362:82,1,119.999996337891,2|0,0:0|0:0,0:0:0:0:
382,137,137657,2,0,B|407:192|389:241|382:253|382:253|346:237|301:234|266:253,1,239.999992675781,2|0,0:0|0:0,0:0:0:0:
110,137,138475,1,2,0:0:0:0:
110,137,139021,6,0,L|223:133,1,100
364,249,139294,2,0,L|265:253,1,100
308,129,139566,1,8,1:0:0:0:
165,256,139703,1,0,1:0:0:0:
256,46,139839,1,8,1:0:0:0:
364,249,139975,1,0,0:0:0:0:
209,133,140112,6,0,P|73:164|36:266,1,259.999988098145,12|0,0:0|0:0,0:0:0:0:
364,249,140521,2,0,B|232:334|232:334|147:236,1,259.999988098145,8|0,0:0|0:0,0:0:0:0:
395,120,140930,2,0,L|283:192,1,129.999994049073,8|0,0:0|0:0,0:0:0:0:
55,185,141203,2,0,L|167:257,1,129.999994049073,8|0,0:0|0:0,0:0:0:0:
389,256,141475,2,0,L|277:328,1,129.999994049073,8|0,0:0|0:0,0:0:0:0:
117,134,141748,6,0,P|190:264|299:209,1,259.999988098145,12|0,0:0|0:0,0:0:0:0:
292,75,142157,2,0,B|381:97|381:97|462:245,1,259.999988098145,8|0,0:0|0:0,0:0:0:0:
291,351,142566,2,0,P|310:288|266:237,1,129.999994049073,8|0,0:0|0:0,0:0:0:0:
117,134,142839,2,0,P|162:181|228:169,1,129.999994049073,8|0,0:0|0:0,0:0:0:0:
392,92,143112,1,8,0:0:0:0:
461,244,143248,1,8,0:0:0:0:
292,75,143384,6,0,P|174:34|119:144,1,259.999988098145,12|0,0:0|0:0,0:0:0:0:
185,354,143794,2,0,P|279:272|211:169,1,259.999988098145,8|0,0:0|0:0,0:0:0:0:
12,274,144203,2,0,P|77:270|146:236,1,129.999994049073,8|0,0:0|0:0,0:0:0:0:
345,203,144475,2,0,P|280:199|211:165,1,129.999994049073,8|0,0:0|0:0,0:0:0:0:
147,9,144748,2,0,P|143:74|109:143,1,129.999994049073,8|0,0:0|0:0,0:0:0:0:
240,283,145021,6,0,L|373:297,1,129.999994049073,12|0,0:0|0:0,0:0:0:0:
208,280,145294,1,0,0:0:0:0:
401,299,145430,1,8,0:0:0:0:
321,123,145566,2,0,L|188:137,1,129.999994049073
46,296,145839,6,0,L|176:283,1,129.999994049073,12|0,0:0|0:0,0:0:0:0:
208,280,146112,1,0,0:0:0:0:
15,299,146248,1,8,0:0:0:0:
191,136,146384,1,8,0:0:0:0:
244,369,146521,1,8,0:0:0:0:
90,200,146657,6,0,P|73:126|92:70,1,129.999994049073,12|0,0:0|0:0,0:0:0:0:
292,72,146930,2,0,P|309:146|290:202,1,129.999994049073,0|8,0:0|0:0,0:0:0:0:
154,301,147203,2,0,P|80:318|24:299,1,129.999994049073
293,196,147475,6,0,P|367:179|423:198,1,129.999994049073,8|0,0:0|0:0,0:0:0:0:
292,72,147748,2,0,P|230:89|185:135,1,129.999994049073,8|0,0:0|0:0,0:0:0:0:
61,136,148021,2,0,P|77:73|122:28,1,129.999994049073,8|0,0:0|0:0,0:0:0:0:
186,259,148294,6,0,L|40:254,1,129.999994049073,12|0,0:0|0:0,0:0:0:0:
185,135,148566,1,0,0:0:0:0:
315,263,148703,1,8,0:0:0:0:
301,107,148839,2,0,P|245:32|201:16,1,129.999994049073
65,166,149112,2,0,P|157:155|193:124,1,129.999994049073,8|0,0:0|0:0,0:0:0:0:
384,252,149384,2,0,P|291:241|255:210,1,129.999994049073,8|0,0:0|0:0,0:0:0:0:
101,52,149657,1,8,0:0:0:0:
29,280,149794,1,8,0:0:0:0:
264,220,149930,6,0,B|320:128|320:128|208:13,1,259.999988098145,12|0,0:0|0:0,0:0:0:0:
152,254,150339,1,8,0:0:0:0:
101,52,150475,1,0,0:0:0:0:
29,280,150612,1,0,0:0:0:0:
320,128,150748,6,0,B|264:220|264:220|376:335,1,259.999988098145,12|0,0:0|0:0,0:0:0:0:
152,254,151157,1,8,0:0:0:0:
370,329,151294,1,0,0:0:0:0:
116,340,151430,1,0,0:0:0:0:
406,243,151566,6,0,B|462:151|462:151|350:36,1,259.999988098145,12|0,0:0|0:0,0:0:0:0:
314,255,151975,1,8,0:0:0:0:
263,53,152112,1,0,0:0:0:0:
114,199,152248,1,0,0:0:0:0:
406,243,152384,1,8,0:0:0:0:
263,53,152521,1,0,0:0:0:0:
185,314,152657,5,8,0:0:0:0:
322,127,152794,1,0,0:0:0:0:
322,359,152930,1,8,0:0:0:0:
185,171,153066,1,8,0:0:0:0:
406,243,153203,6,0,B|462:151|462:151|350:36,1,259.999988098145,12|0,0:0|0:0,0:0:0:0:
113,92,153612,2,0,P|261:96|288:195,1,259.999988098145,8|0,0:0|0:0,0:0:0:0:
64,187,154021,2,0,P|127:198|185:171,1,129.999994049073,8|0,0:0|0:0,0:0:0:0:
338,280,154294,2,0,P|274:291|217:263,1,129.999994049073,8|0,0:0|0:0,0:0:0:0:
135,75,154566,2,0,P|198:63|255:91,1,129.999994049073,8|0,0:0|0:0,0:0:0:0:
445,294,154839,6,0,P|388:185|267:201,1,259.999988098145,12|0,0:0|0:0,0:0:0:0:
40,171,155248,2,0,P|96:279|217:263,1,259.999988098145,8|0,0:0|0:0,0:0:0:0:
135,75,155657,2,0,B|175:129|175:129|138:202,1,129.999994049073,8|0,0:0|0:0,0:0:0:0:
318,308,155930,2,0,B|251:315|251:315|206:247,1,129.999994049073,8|0,0:0|0:0,0:0:0:0:
284,181,156203,1,8,0:0:0:0:
78,267,156339,1,8,0:0:0:0:
302,173,156475,6,0,B|406:179|406:179|312:317,1,259.999988098145,12|0,0:0|0:0,0:0:0:0:
172,165,156884,1,8,0:0:0:0:
378,86,157021,2,0,L|528:95,1,129.999994049073
216,262,157294,6,0,P|78:215|79:114,1,259.999988098145,12|8,0:0|0:0,0:0:0:0:
279,176,157703,1,0,0:0:0:0:
164,59,157839,1,8,0:0:0:0:
216,262,157975,1,0,0:0:0:0:
268,59,158112,6,0,P|383:123|376:240,1,259.999988098145,12|0,0:0|0:0,0:0:0:0:
283,360,158521,1,8,0:0:0:0:
149,164,158657,2,0,L|317:179,1,129.999994049073
164,59,158930,2,0,P|104:68|46:147,1,129.999994049073,8|0,0:0|0:0,0:0:0:0:
134,269,159203,2,0,P|194:260|252:181,1,129.999994049073,8|0,0:0|0:0,0:0:0:0:
56,115,159475,1,8,0:0:0:0:
134,269,159612,1,8,0:0:0:0:
229,125,159748,6,0,P|313:262|223:298,1,259.999988098145,12|0,0:0|0:0,0:0:0:0:
73,161,160157,2,0,P|134:263|241:212,1,259.999988098145,8|0,0:0|0:0,0:0:0:0:
287,58,160566,2,0,P|215:36|162:66,1,129.999994049073,8|0,0:0|0:0,0:0:0:0:
241,211,160839,2,0,P|313:233|366:203,1,129.999994049073,8|0,0:0|0:0,0:0:0:0:
174,153,161112,2,0,P|152:225|182:278,1,129.999994049073,8|0,0:0|0:0,0:0:0:0:
417,143,161384,6,0,P|345:121|292:151,1,129.999994049073,12|0,0:0|0:0,0:0:0:0:
182,313,161657,2,0,P|237:261|237:200,1,129.999994049073,8|0,0:0|0:0,0:0:0:0:
152,24,161930,2,0,P|169:97|222:128,1,129.999994049073,8|0,0:0|0:0,0:0:0:0:
417,143,162203,5,8,0:0:0:0:
271,227,162339,1,0,0:0:0:0:
439,246,162475,1,8,0:0:0:0:
312,134,162612,1,0,0:0:0:0:
350,300,162748,1,8,0:0:0:0:
417,143,162884,1,8,0:0:0:0:
247,331,163021,6,0,P|175:182|225:131,1,259.999988098145,12|0,0:0|0:0,0:0:0:0:
271,227,163430,1,8,0:0:0:0:
175,35,163566,2,0,P|255:29|305:64,1,129.999994049073
439,246,163839,6,0,B|377:357|377:357|231:328,1,259.999988098145,12|8,0:0|0:0,0:0:0:0:
223,131,164248,1,0,0:0:0:0:
228,336,164384,1,8,0:0:0:0:
241,126,164521,1,0,0:0:0:0:
210,341,164657,6,0,B|79:366|79:366|17:255,1,259.999988098145,12|0,0:0|0:0,0:0:0:0:
106,150,165066,1,8,0:0:0:0:
299,236,165203,2,0,P|340:298|344:364,1,129.999994049073
106,150,165475,5,8,0:0:0:0:
406,234,165612,1,0,0:0:0:0:
120,268,165748,1,8,0:0:0:0:
391,115,165885,1,0,0:0:0:0:
214,342,166021,5,8,0:0:0:0:
298,41,166158,1,8,0:0:0:0:
332,327,166294,1,12,0:0:0:0:
256,192,166362,12,0,167862,3:0:0:0:
256,192,167930,12,0,169498,3:0:0:0:
256,192,169566,12,0,171134,3:0:0:0:
256,192,171203,12,4,172839,0:0:0:0:
218,257,179384,5,4,0:0:0:0:
218,127,179521,1,0,0:0:0:0:
331,192,179657,1,0,0:0:0:0:
135,299,180203,6,0,P|125:251|134:217,1,69.9999978637696,2|0,0:0|0:0,0:0:0:0:
301,215,180475,2,0,P|311:263|302:297,1,69.9999978637696
218,257,180748,1,0,0:0:0:0:
322,125,181021,6,0,P|353:139|377:164,1,69.9999978637696,2|0,0:0|0:0,0:0:0:0:
301,215,181294,2,0,B|233:173|233:257|141:215,1,139.999995727539
116,64,181839,2,0,P|112:108|92:136,1,69.9999978637696,2|0,0:0|0:0,0:0:0:0:
168,224,182111,2,0,P|172:268|192:296,1,69.9999978637696
301,215,182384,2,0,P|297:171|277:143,1,69.9999978637696
116,64,182657,6,0,L|136:216,1,139.999995727539,2|0,0:0|0:0,0:0:0:0:
185,289,183066,1,0,0:0:0:0:
84,289,183203,1,0,0:0:0:0:
286,289,183475,2,0,L|355:279,1,69.9999978637696,2|0,0:0|0:0,0:0:0:0:
475,206,183748,2,0,L|405:196,1,69.9999978637696
286,123,184021,2,0,L|355:113,1,69.9999978637696
227,195,184294,6,0,P|193:122|212:67,1,139.999995727539,2|0,0:0|0:0,0:0:0:0:
210,69,184703,1,0,0:0:0:0:
355,112,184839,2,0,L|365:181,1,69.9999978637696
480,252,185112,2,0,L|411:262,1,69.9999978637696,2|0,0:0|0:0,0:0:0:0:
340,377,185384,2,0,L|330:308,1,69.9999978637696
215,237,185657,2,0,L|284:227,1,69.9999978637696
102,172,185930,5,2,0:0:0:0:
102,302,186066,1,0,0:0:0:0:
215,237,186203,1,0,0:0:0:0:
454,162,186748,6,0,P|439:193|410:212,1,69.9999978637696,2|0,0:0|0:0,0:0:0:0:
340,320,187021,2,0,P|321:290|319:256,1,69.9999978637696
260,141,187294,2,0,P|294:139|325:155,1,69.9999978637696
192,288,187566,6,0,L|180:212,1,69.9999978637696,2|0,0:0|0:0,0:0:0:0:
28,240,187839,2,0,L|40:164,1,69.9999978637696
181,218,188112,2,0,L|169:142,1,69.9999978637696
38,170,188384,2,0,L|50:94,1,69.9999978637696,2|0,0:0|0:0,0:0:0:0:
170,148,188657,2,0,L|232:102,1,69.9999978637696
278,225,188930,2,0,L|354:237,1,69.9999978637696
256,340,189203,6,0,L|117:317,1,139.999995727539,2|0,0:0|0:0,0:0:0:0:
132,220,189612,1,0,0:0:0:0:
149,123,189748,1,0,0:0:0:0:
271,260,190021,2,0,P|315:285|335:324,1,69.9999978637696,2|0,0:0|0:0,0:0:0:0:
461,199,190294,2,0,P|417:224|397:263,1,69.9999978637696
271,138,190566,2,0,P|315:163|335:202,1,69.9999978637696
461,77,190839,6,0,B|439:83|421:93|406:116|406:116|380:78|329:72,1,139.999995727539,2|0,0:0|0:0,0:0:0:0:
349,75,191248,1,0,0:0:0:0:
185,103,191384,2,0,P|178:137|186:177,1,69.9999978637696
327,281,191657,2,0,P|334:247|326:207,1,69.9999978637696,2|0,0:0|0:0,0:0:0:0:
167,263,191930,2,0,P|201:270|241:262,1,69.9999978637696,2|0,0:0|0:0,0:0:0:0:
345,121,192203,2,0,P|311:114|271:122,1,69.9999978637696,2|0,0:0|0:0,0:0:0:0:
167,263,192475,5,4,0:0:0:0:
167,263,192748,2,0,L|173:343,1,69.9999978637696
161,193,193021,2,0,L|167:273,1,69.9999978637696
101,120,193294,2,0,P|132:103|167:99,1,69.9999978637696,2|0,0:0|0:0,0:0:0:0:
125,280,193566,2,0,P|95:261|75:234,1,69.9999978637696
253,178,193839,2,0,P|252:213|239:245,1,69.9999978637696
345,121,194112,5,2,0:0:0:0:
345,121,194385,2,0,L|339:41,1,69.9999978637696
351,191,194658,2,0,L|345:111,1,69.9999978637696
410,263,194931,2,0,P|379:280|344:284,1,69.9999978637696,2|0,0:0|0:0,0:0:0:0:
386,103,195203,2,0,P|416:122|437:150,1,69.9999978637696
258,205,195476,2,0,P|259:170|272:138,1,69.9999978637696
344,284,195748,6,0,P|287:319|205:310,1,139.999995727539,2|0,0:0|0:0,0:0:0:0:
216,314,196157,1,0,0:0:0:0:
96,187,196294,2,0,P|97:221|110:254,1,69.9999978637696
214,196,196566,2,0,P|227:160|226:115,1,69.9999978637696,2|0,0:0|0:0,0:0:0:0:
332,70,196839,2,0,P|345:106|344:151,1,69.9999978637696
450,194,197112,2,0,P|463:158|462:113,1,69.9999978637696
332,70,197384,6,0,L|325:215,1,139.999995727539,2|0,0:0|0:0,0:0:0:0:
325,209,197794,1,0,0:0:0:0:
189,133,197930,2,0,L|192:64,1,69.9999978637696
74,174,198203,2,0,L|77:243,1,69.9999978637696,2|0,0:0|0:0,0:0:0:0:
187,355,198475,2,0,L|256:358,1,69.9999978637696
146,240,198748,2,0,L|77:243,1,69.9999978637696
250,233,199021,5,2,0:0:0:0:
250,233,199294,2,0,P|252:180|234:147,1,69.9999978637696
361,116,199566,2,0,P|359:63|377:30,1,69.9999978637696
476,184,199839,2,0,L|407:187,1,69.9999978637696,2|0,0:0|0:0,0:0:0:0:
304,300,200112,2,0,L|335:238,1,69.9999978637696
289,93,200384,2,0,L|326:151,1,69.9999978637696
373,296,200657,6,0,L|335:237,1,69.9999978637696,2|0,0:0|0:0,0:0:0:0:
204,264,200930,2,0,L|218:196,1,69.9999978637696
107,121,201203,2,0,L|165:83,1,69.9999978637696
373,95,201475,2,0,L|335:153,1,69.9999978637696,2|0,0:0|0:0,0:0:0:0:
204,127,201748,2,0,L|218:194,1,69.9999978637696
107,270,202021,2,0,L|165:307,1,69.9999978637696
280,324,202294,6,0,P|336:284|404:296,1,139.999995727539,2|0,0:0|0:0,0:0:0:0:
402,295,202703,1,0,0:0:0:0:
472,208,202839,2,0,L|460:132,1,69.9999978637696
324,64,203112,2,0,B|256:92|256:36|172:76,1,139.999995727539,2|0,0:0|0:0,0:0:0:0:
187,69,203521,1,0,0:0:0:0:
84,128,203657,2,0,P|112:162|148:182,1,69.9999978637696
256,256,203930,2,0,B|324:228|324:284|408:244,1,139.999995727539,2|0,0:0|0:0,0:0:0:0:
392,250,204339,1,0,0:0:0:0:
496,192,204475,2,0,P|468:158|432:138,1,69.9999978637696
211,95,204748,6,0,P|182:115|161:142,1,69.9999978637696,2|0,0:0|0:0,0:0:0:0:
194,279,205021,2,0,P|226:294|260:298,1,69.9999978637696,2|0,0:0|0:0,0:0:0:0:
362,201,205294,2,0,P|359:166|345:134,1,69.9999978637696,2|0,0:0|0:0,0:0:0:0:
256,192,205566,5,4,0:0:0:0:
48,159,206112,6,0,P|42:203|50:236,1,69.9999978637696
149,195,206384,2,0,P|193:201|226:193,1,69.9999978637696,2|0,0:0|0:0,0:0:0:0:
185,94,206657,2,0,P|219:88|253:95,1,69.9999978637696
354,59,206930,2,0,P|360:103|352:136,1,69.9999978637696
345,280,207203,6,0,P|226:315|234:183,1,279.999991455078,2|0,0:0|0:0,0:0:0:0:
482,212,208021,2,0,P|471:90|354:127,1,279.999991455078,2|0,0:0|0:0,0:0:0:0:
354,127,208703,1,0,0:0:0:0:
217,196,208839,6,0,B|193:110|221:60|221:60|154:103|70:83,1,279.999991455078,2|0,0:0|0:0,0:0:0:0:
146,243,209657,2,0,B|176:286|228:292|267:266|267:266|301:317|301:317|386:306,1,279.999991455078,2|0,0:0|0:0,0:0:0:0:
381,306,210339,1,0,0:0:0:0:
458,215,210475,6,0,L|444:123,1,69.9999978637696,2|0,0:0|0:0,0:0:0:0:
346,152,210748,2,0,L|360:60,1,69.9999978637696
244,19,211021,2,0,L|258:111,1,69.9999978637696
188,177,211294,2,0,P|157:139|144:99,1,69.9999978637696,2|0,0:0|0:0,0:0:0:0:
83,30,211566,2,0,P|52:68|39:108,1,69.9999978637696
68,193,211839,2,0,P|72:241|92:279,1,69.9999978637696
179,315,212112,5,6,0:0:0:0:
333,69,212657,2,0,P|344:110|369:146,1,69.9999978637696
263,177,212930,2,0,P|252:218|227:254,1,69.9999978637696,2|0,0:0|0:0,0:0:0:0:
333,285,213203,2,0,P|344:326|369:362,1,69.9999978637696
440,279,213475,2,0,P|429:238|404:202,1,69.9999978637696
263,177,213748,6,0,B|206:214|162:216|104:162|104:162|111:220|88:270,1,279.999991455078,2|0,0:0|0:0,0:0:0:0:
293,271,214566,2,0,P|350:133|255:78,1,279.999991455078,2|0,0:0|0:0,0:0:0:0:
260,77,215248,1,0,0:0:0:0:
222,191,215384,2,0,B|191:217|171:273|202:327|202:327|138:300|57:318,1,279.999991455078,2|0,0:0|0:0,0:0:0:0:
293,271,216203,5,2,0:0:0:0:
454,226,216475,1,2,0:0:0:0:
408,63,216748,1,2,0:0:0:0:
247,112,217021,1,6,0:0:0:0:
256,192,217089,12,0,220293,3:0:0:0:
259,131,220804,6,0,L|161:147,1,100
252,252,221089,2,0,L|351:237,1,100
346,63,221375,2,0,L|247:47,1,100
166,321,221661,2,0,L|264:336,1,100
248,48,221929,6,0,P|103:48|111:180,1,259.999988098145,12|0,0:0|0:0,0:0:0:0:
351,237,222338,2,0,P|231:253|191:139,1,259.999988098145,8|0,0:0|0:0,0:0:0:0:
432,140,222747,2,0,P|466:186|474:259,1,129.999994049073,8|0,0:0|0:0,0:0:0:0:
308,119,223019,2,0,P|330:66|390:23,1,129.999994049073,8|0,0:0|0:0,0:0:0:0:
351,237,223292,2,0,P|294:243|226:213,1,129.999994049073,8|0,0:0|0:0,0:0:0:0:
81,63,223565,6,0,B|19:140|19:140|60:308,1,259.999988098145,12|0,0:0|0:0,0:0:0:0:
190,140,223974,2,0,B|252:63|252:63|425:68,1,259.999988098145,8|0,0:0|0:0,0:0:0:0:
228,215,224383,2,0,P|157:217|113:173,1,129.999994049073,8|0,0:0|0:0,0:0:0:0:
319,143,224656,2,0,L|449:147,1,129.999994049073,8|0,0:0|0:0,0:0:0:0:
296,266,224929,1,8,0:0:0:0:
448,146,225065,1,8,0:0:0:0:
263,68,225201,6,0,P|124:82|136:206,1,259.999988098145,12|0,0:0|0:0,0:0:0:0:
319,143,225610,2,0,B|368:102|360:47|342:19|342:19|410:38|434:96,1,259.999988098145,8|0,0:0|0:0,0:0:0:0:
296,266,226019,2,0,P|293:198|320:142,1,129.999994049073,8|0,0:0|0:0,0:0:0:0:
417,343,226292,2,0,P|420:275|393:219,1,129.999994049073,8|0,0:0|0:0,0:0:0:0:
217,106,226565,2,0,P|262:55|321:35,1,129.999994049073,8|0,0:0|0:0,0:0:0:0:
296,266,226838,6,0,L|152:260,1,129.999994049073,12|0,0:0|0:0,0:0:0:0:
333,295,227110,1,0,0:0:0:0:
129,231,227247,1,8,0:0:0:0:
286,86,227383,2,0,L|415:91,1,129.999994049073
119,109,227656,6,0,L|263:115,1,129.999994049073,12|0,0:0|0:0,0:0:0:0:
82,80,227929,1,0,0:0:0:0:
286,144,228065,1,8,0:0:0:0:
129,289,228201,1,8,0:0:0:0:
76,73,228338,1,8,0:0:0:0:
272,243,228474,6,0,P|344:225|380:175,1,129.999994049073,12|0,0:0|0:0,0:0:0:0:
300,45,228747,2,0,P|228:63|192:113,1,129.999994049073,0|8,0:0|0:0,0:0:0:0:
192,303,229019,2,0,P|255:341|316:331,1,129.999994049073
376,183,229292,6,0,L|390:48,1,129.999994049073,8|0,0:0|0:0,0:0:0:0:
272,243,229565,2,0,L|381:322,1,129.999994049073,8|0,0:0|0:0,0:0:0:0:
272,122,229838,2,0,L|148:177,1,129.999994049073,8|0,0:0|0:0,0:0:0:0:
377,319,230110,6,0,P|371:243|410:193,1,129.999994049073,12|0,0:0|0:0,0:0:0:0:
272,243,230383,1,0,0:0:0:0:
460,274,230519,1,8,0:0:0:0:
411,70,230656,2,0,P|361:110|297:110,1,129.999994049073
180,164,230929,2,0,P|240:187|272:243,1,129.999994049073,8|0,0:0|0:0,0:0:0:0:
63,297,231201,2,0,P|126:297|176:257,1,129.999994049073,8|0,0:0|0:0,0:0:0:0:
100,115,231474,1,8,0:0:0:0:
236,330,231610,1,8,0:0:0:0:
183,71,231747,6,0,B|281:50|281:50|405:174,1,259.999988098145,12|0,0:0|0:0,0:0:0:0:
180,164,232156,1,8,0:0:0:0:
289,348,232292,1,0,0:0:0:0:
393,162,232429,1,0,0:0:0:0:
289,348,232565,6,0,B|191:369|191:369|67:245,1,259.999988098145,12|0,0:0|0:0,0:0:0:0:
292,255,232974,1,8,0:0:0:0:
183,71,233110,1,0,0:0:0:0:
79,257,233247,1,0,0:0:0:0:
183,71,233383,6,0,B|281:50|281:50|405:174,1,259.999988098145,12|0,0:0|0:0,0:0:0:0:
208,285,233792,1,8,0:0:0:0:
183,71,233929,1,0,0:0:0:0:
78,256,234065,1,0,0:0:0:0:
272,169,234201,1,8,0:0:0:0:
64,125,234338,1,0,0:0:0:0:
208,285,234474,5,8,0:0:0:0:
183,71,234610,1,0,0:0:0:0:
338,314,234747,1,8,0:0:0:0:
391,115,234883,1,8,0:0:0:0:
208,285,235019,6,0,B|78:256|78:256|150:129,1,259.999988098145,12|0,0:0|0:0,0:0:0:0:
333,57,235429,2,0,L|197:303,1,259.999988098145,8|0,0:0|0:0,0:0:0:0:
140,145,235838,2,0,L|202:31,1,129.999994049073,8|0,0:0|0:0,0:0:0:0:
234,198,236110,2,0,P|176:247|120:252,1,129.999994049073,8|0,0:0|0:0,0:0:0:0:
37,77,236383,2,0,P|108:102|140:148,1,129.999994049073,8|0,0:0|0:0,0:0:0:0:
339,171,236656,6,0,P|248:89|139:144,1,259.999988098145,12|0,0:0|0:0,0:0:0:0:
309,275,237065,2,0,P|425:237|432:115,1,259.999988098145,8|0,0:0|0:0,0:0:0:0:
230,190,237474,2,0,P|196:248|201:315,1,129.999994049073,8|0,0:0|0:0,0:0:0:0:
139,143,237747,2,0,P|186:99|249:88,1,129.999994049073,8|0,0:0|0:0,0:0:0:0:
309,275,238019,1,8,0:0:0:0:
48,190,238156,1,8,0:0:0:0:
339,171,238292,6,0,B|400:190|421:246|415:290|415:290|435:234|470:188,1,259.999988098145,12|0,0:0|0:0,0:0:0:0:
309,275,238701,1,8,0:0:0:0:
248,87,238838,2,0,P|321:48|392:59,1,129.999994049073
309,275,239110,6,0,P|206:169|261:79,1,259.999988098145,12|8,0:0|0:0,0:0:0:0:
463,196,239519,1,0,0:0:0:0:
309,275,239656,1,8,0:0:0:0:
327,122,239792,1,0,0:0:0:0:
410,282,239929,6,0,B|463:196|463:196|406:42,1,259.999988098145,12|0,0:0|0:0,0:0:0:0:
248,86,240338,1,8,0:0:0:0:
309,275,240474,2,0,L|172:296,1,129.999994049073
11,145,240747,2,0,L|140:165,1,129.999994049073,8|0,0:0|0:0,0:0:0:0:
381,176,241019,2,0,L|244:197,1,129.999994049073,8|0,0:0|0:0,0:0:0:0:
68,264,241292,1,8,0:0:0:0:
212,66,241429,1,8,0:0:0:0:
309,275,241565,6,0,B|438:293|438:293|377:168,1,259.999988098145,12|0,0:0|0:0,0:0:0:0:
211,284,241974,2,0,P|165:152|251:97,1,259.999988098145,8|0,0:0|0:0,0:0:0:0:
309,275,242383,2,0,P|288:346|217:383,1,129.999994049073,8|0,0:0|0:0,0:0:0:0:
113,293,242656,2,0,P|134:222|205:185,1,129.999994049073,8|0,0:0|0:0,0:0:0:0:
371,199,242929,2,0,P|406:264|382:340,1,129.999994049073,8|0,0:0|0:0,0:0:0:0:
248,97,243201,6,0,L|392:79,1,129.999994049073,12|0,0:0|0:0,0:0:0:0:
177,190,243474,2,0,L|33:172,1,129.999994049073,8|0,0:0|0:0,0:0:0:0:
248,283,243747,2,0,L|392:265,1,129.999994049073,8|0,0:0|0:0,0:0:0:0:
177,190,244019,5,8,0:0:0:0:
305,173,244156,1,0,0:0:0:0:
160,62,244292,1,8,0:0:0:0:
288,45,244429,1,0,0:0:0:0:
177,190,244565,1,8,0:0:0:0:
433,156,244701,1,8,0:0:0:0:
323,304,244838,6,0,B|190:321|190:321|118:194,1,259.999988098145,12|0,0:0|0:0,0:0:0:0:
233,169,245247,1,8,0:0:0:0:
21,253,245383,2,0,L|87:369,1,129.999994049073
233,169,245656,6,0,P|360:222|313:309,1,259.999988098145,12|8,0:0|0:0,0:0:0:0:
127,211,246065,1,0,0:0:0:0:
322,303,246201,1,8,0:0:0:0:
233,169,246338,1,0,0:0:0:0:
216,345,246474,6,0,B|321:303|321:303|472:333,1,259.999988098145,12|0,0:0|0:0,0:0:0:0:
432,198,246883,1,8,0:0:0:0:
233,169,247019,2,0,L|112:217,1,129.999994049073
323,302,247292,5,8,0:0:0:0:
372,61,247429,1,0,0:0:0:0:
192,223,247565,1,8,0:0:0:0:
432,198,247701,1,0,0:0:0:0:
221,77,247838,1,8,0:0:0:0:
323,302,247974,1,8,0:0:0:0:
372,61,248110,6,0,B|432:198|432:198|410:321,1,259.999988098145,12|0,0:0|0:0,0:0:0:0:
189,375,248519,1,8,0:0:0:0:
412,306,248656,1,0,0:0:0:0:
192,223,248792,1,0,0:0:0:0:
415,154,248929,5,8,0:0:0:0:
302,265,249065,1,0,0:0:0:0:
195,72,249201,1,8,0:0:0:0:
412,306,249338,1,0,0:0:0:0:
305,113,249474,1,8,0:0:0:0:
192,303,249610,1,0,0:0:0:0:
85,31,249747,6,0,P|139:176|240:182,1,259.999988098145,12|0,0:0|0:0,0:0:0:0:
415,154,250156,1,8,0:0:0:0:
195,72,250292,1,0,0:0:0:0:
327,267,250429,1,0,0:0:0:0:
334,32,250565,5,8,0:0:0:0:
227,186,250701,1,0,0:0:0:0:
356,33,250838,1,8,0:0:0:0:
327,267,250974,1,0,0:0:0:0:
378,34,251110,1,8,0:0:0:0:
127,105,251247,1,8,0:0:0:0:
327,267,251383,6,0,L|356:136,1,129.999994049073,12|0,0:0|0:0,0:0:0:0:
220,40,251656,1,0,0:0:0:0:
472,112,251792,2,0,L|443:238,1,129.999994049073,8|0,0:0|0:0,0:0:0:0:
307,364,252065,1,0,0:0:0:0:
228,181,252201,5,8,0:0:0:0:
113,339,252338,1,0,0:0:0:0:
81,121,252474,5,8,0:0:0:0:
224,318,252611,1,0,0:0:0:0:
178,77,252747,5,8,0:0:0:0:
32,276,252884,1,0,0:0:0:0:
257,168,253019,6,0,P|320:148|390:175,1,129.999994049073,12|0,0:0|0:0,0:0:0:0:
467,283,253292,1,0,0:0:0:0:
224,318,253429,6,0,P|161:338|91:311,1,129.999994049073,8|0,0:0|0:0,0:0:0:0:
14,203,253702,1,0,0:0:0:0:
320,255,253838,5,8,0:0:0:0:
126,135,253974,1,0,0:0:0:0:
326,26,254110,1,8,0:0:0:0:
207,221,254247,1,0,0:0:0:0:
407,112,254383,1,8,0:0:0:0:
126,135,254519,1,8,0:0:0:0:
465,204,254656,6,0,B|453:83|453:83|316:22,1,259.999988098145,12|0,0:0|0:0,0:0:0:0:
207,100,255065,1,8,0:0:0:0:
380,167,255201,1,0,0:0:0:0:
261,241,255338,1,0,0:0:0:0:
326,26,255474,6,0,L|452:83,1,129.999994049073,8|0,0:0|0:0,0:0:0:0:
180,218,255747,2,0,L|168:89,1,129.999994049073,8|0,0:0|0:0,0:0:0:0:
421,248,256019,2,0,L|308:328,1,129.999994049073,8|0,0:0|0:0,0:0:0:0:
7,159,256292,6,0,P|99:203|163:77,1,259.999988098145,12|0,0:0|0:0,0:0:0:0:
13,174,256701,1,8,0:0:0:0:
227,223,256838,1,0,0:0:0:0:
65,62,256974,1,0,0:0:0:0:
155,288,257110,6,0,P|223:321|288:299,1,129.999994049073,8|0,0:0|0:0,0:0:0:0:
470,141,257383,2,0,P|402:108|337:130,1,129.999994049073,8|0,0:0|0:0,0:0:0:0:
117,268,257656,1,8,0:0:0:0:
378,327,257792,1,8,0:0:0:0:
299,71,257929,5,12,0:0:0:0:
349,233,258065,1,0,0:0:0:0:
465,107,258201,1,0,0:0:0:0:
285,166,258338,5,8,0:0:0:0:
235,4,258474,1,0,0:0:0:0:
119,130,258610,1,0,0:0:0:0:
299,71,258747,5,8,0:0:0:0:
272,260,258883,1,0,0:0:0:0:
119,130,259019,1,8,0:0:0:0:
91,320,259155,1,0,0:0:0:0:
285,166,259292,1,8,0:0:0:0:
105,225,259429,1,0,0:0:0:0:
257,356,259565,5,12,0:0:0:0:
230,85,259701,1,0,0:0:0:0:
91,320,259838,1,0,0:0:0:0:
340,212,259974,1,8,0:0:0:0:
78,151,260110,1,0,0:0:0:0:
257,356,260247,1,0,0:0:0:0:
230,85,260383,5,12,0:0:0:0:
91,320,260519,1,0,0:0:0:0:
147,67,260656,1,8,0:0:0:0:
257,356,260792,1,8,0:0:0:0:
313,103,260929,1,8,0:0:0:0:
174,338,261065,1,8,0:0:0:0:
396,121,261201,6,0,B|381:176|335:203|291:193|252:182|233:130|233:130|214:192|193:239|146:256|76:244|33:181|-8:108|-34:61|13:5|80:10|116:17|164:32|193:39|193:100|145:144|133:181|102:205|63:223|20:234|20:234|69:293|134:313|201:303|245:266|245:266|238:314|233:339|257:356|257:356|305:316|379:320,1,1379.99995788574,12|4,0:0|0:0,0:0:0:0:
