osu file format v14

[General]
AudioFilename: audio.mp3
AudioLeadIn: 0
PreviewTime: 83626
Countdown: 0
SampleSet: Soft
StackLeniency: 0.4
Mode: 0
LetterboxInBreaks: 0
WidescreenStoryboard: 1

[Editor]
Bookmarks: 13191,38235,82061,108669,125365,153548
DistanceSpacing: 1.8
BeatDivisor: 4
GridSize: 32
TimelineZoom: 2.599999

[Metadata]
Title:Hibiki
TitleUnicode:響
Artist:Shikata Akiko
ArtistUnicode:志方あきこ
Creator:imaginative
Version:Vararaup's Extra
Source:CHUNITHM AIR PLUS
Tags:mynt mildly accurate mildly_accurate vararaup japanese jp folk sound noise チュウニズム Genesis Of Destiny Rebellion sega original ost soundtrack videogame video game
BeatmapID:3629018
BeatmapSetID:1714963

[Difficulty]
HPDrainRate:5.5
CircleSize:4
OverallDifficulty:8.5
ApproachRate:9.3
SliderMultiplier:1.8
SliderTickRate:1

[Events]
//Background and Video events
0,0,"bg.jpeg",0,0
//Break Periods
//Storyboard Layer 0 (Background)
//Storyboard Layer 1 (Fail)
//Storyboard Layer 2 (Pass)
//Storyboard Layer 3 (Foreground)
//Storyboard Layer 4 (Overlay)
//Storyboard Sound Samples

[TimingPoints]
670,260.869565217391,6,2,1,30,1,0
670,-333.333333333333,6,2,1,30,0,0
5365,-333.333333333333,6,2,2,30,0,0
5496,-333.333333333333,6,2,1,30,0,0
6930,-333.333333333333,6,2,1,40,0,0
8496,-333.333333333333,6,2,3,40,0,0
9278,-333.333333333333,6,2,1,40,0,0
10061,-333.333333333333,6,2,1,55,0,0
12148,-333.333333333333,6,2,1,57,0,0
13191,-100,6,2,1,65,0,0
25713,-100,6,2,1,70,0,0
38235,261.267145656434,6,2,1,50,1,0
38235,-142.857142857143,6,2,1,50,0,0
39017,-200,6,2,1,50,0,0
39802,261.802949646566,6,2,1,30,1,0
39802,-200,6,2,1,30,0,0
40587,261.5518744551,6,2,1,30,1,0
40587,-250,6,2,1,30,0,0
41365,260.869565217391,6,2,1,30,1,0
41365,-142.857142857143,6,2,1,30,0,0
44496,-500,6,2,1,40,0,0
47104,-66.6666666666667,6,2,1,60,0,0
47626,-500,6,2,1,60,0,0
47887,-500,6,2,1,35,0,0
49974,-66.6666666666667,6,2,1,35,0,0
50235,-66.6666666666667,6,2,1,60,0,0
50756,-250,6,2,1,60,0,0
51017,-250,6,2,1,35,0,0
57017,-125,6,2,1,60,0,0
69539,-333.333333333333,6,2,1,45,0,0
71104,-166.666666666667,6,2,1,45,0,0
75539,-166.666666666667,6,2,1,55,0,0
80756,-200,6,2,1,55,0,0
82061,-200,6,2,1,65,0,0
82583,-200,6,2,1,75,0,0
83104,-200,6,2,1,80,0,0
83625,-90.9090909090909,6,2,1,90,0,1
83691,-90.9090909090909,6,2,1,80,0,1
108669,260.869565217391,5,2,1,70,1,0
108669,-111.111111111111,5,2,1,70,0,0
113886,-111.111111111111,5,2,1,60,0,0
119103,260.869565217391,6,2,1,45,1,0
119103,-250,6,2,1,45,0,0
124320,-250,6,2,1,70,0,0
124842,-250,6,2,1,85,0,0
125363,-90.9090909090909,6,2,1,85,0,1
125429,-90.9090909090909,6,2,1,77,0,1
131624,-90.9090909090909,6,2,1,70,0,0
137102,-90.9090909090909,6,2,1,75,0,0
137363,-90.9090909090909,6,2,1,85,0,0
137885,-90.9090909090909,6,2,1,85,0,1
137950,-90.9090909090909,6,2,1,77,0,1
144146,-400,6,2,1,80,0,0
144211,-400,6,2,1,55,0,0
145711,-400,6,2,2,55,0,0
145842,-400,6,2,1,55,0,0
147276,-333.333333333333,6,2,1,55,0,0
148842,-333.333333333333,6,2,3,55,0,0
148972,-333.333333333333,6,2,1,55,0,0
150407,-333.333333333333,6,2,1,70,0,0
153537,-333.333333333333,6,2,2,65,0,0

[Colours]
Combo1 : 255,64,64
Combo2 : 254,126,168
Combo3 : 254,148,129

[HitObjects]
139,190,670,6,0,B|212:214|255:153|255:153|293:173|338:165|338:165|292:211|305:261,1,323.999990112305,4|2,0:1|0:3,0:0:0:0:
305,260,3800,5,2,0:2:0:0:
174,293,4061,1,2,0:2:0:0:
84,191,4322,1,2,0:2:0:0:
123,61,4583,1,2,0:2:0:0:
255,36,4843,2,0,P|271:80|313:110,1,94.4999971160889,2|0,0:2|0:0,0:0:0:0:
340,116,5365,6,0,B|385:117|419:76|419:76|403:179|467:129|492:240|419:263,1,296.99999093628,4|0,0:1|0:0,0:0:0:0:
356,277,6930,1,2,0:2:0:0:
190,342,7191,1,2,0:2:0:0:
84,198,7452,1,2,0:2:0:0:
190,54,7713,1,2,0:2:0:0:
348,135,7974,2,0,P|328:181|289:201,1,94.4999971160889,2|0,0:2|0:0,0:0:0:0:
259,197,8496,6,0,B|117:222|264:289|5:336|59:198|167:228,1,296.99999093628,4|0,0:1|0:0,0:0:0:0:
260,287,10061,5,2,0:2:0:0:
270,303,10322,1,2,0:2:0:0:
257,300,10583,1,2,0:2:0:0:
273,290,10843,1,2,0:2:0:0:
510,166,11104,6,0,B|486:217|463:192|439:245,1,107.999996704102,2|4,0:2|0:2,0:0:0:0:
256,192,11691,12,0,12930,3:2:0:0:
90,39,13191,5,6,3:2:0:0:
145,16,13278,1,2,0:2:0:0:
201,35,13365,1,2,0:2:0:0:
241,100,13452,5,2,0:2:0:0:
284,119,13539,1,2,0:2:0:0:
331,115,13626,1,2,0:2:0:0:
385,55,13713,6,0,L|457:67,2,60,2|2|2,0:2|0:2|0:2,0:0:0:0:
294,25,13974,2,0,P|296:92|294:211,2,180,10|2|2,0:2|3:2|3:2,0:0:0:0:
35,275,14756,6,0,B|132:263|84:207|187:190,1,180,2|2,3:2|0:2,0:0:0:0:
297,331,15148,2,0,P|219:355|189:278,1,180,0|2,3:2|3:2,0:0:0:0:
294,204,15539,5,10,0:2:0:0:
398,257,15669,1,2,3:2:0:0:
479,199,15800,5,2,3:2:0:0:
395,241,15930,1,2,0:2:0:0:
324,196,16061,5,2,3:2:0:0:
392,229,16191,1,2,0:2:0:0:
412,20,16322,5,6,3:2:0:0:
368,61,16409,1,2,0:2:0:0:
308,69,16496,1,2,0:2:0:0:
230,64,16583,5,2,0:2:0:0:
187,86,16669,1,2,0:2:0:0:
165,128,16756,1,2,0:2:0:0:
185,203,16843,6,0,L|177:279,2,60,2|2|2,0:2|0:2|0:2,0:0:0:0:
256,146,17104,2,0,B|300:122|347:151|347:151|357:198|390:220,2,180,10|2|2,0:2|3:2|3:2,0:0:0:0:
0,347,17887,5,2,3:2:0:0:
123,293,18017,1,2,0:2:0:0:
82,190,18148,2,0,P|83:257|82:324,1,135,2|0,0:2|0:0,0:0:0:0:
84,361,18409,2,0,P|122:383|167:382,1,90,2|0,0:2|3:2,0:0:0:0:
248,264,18669,5,10,0:2:0:0:
348,320,18800,1,2,3:2:0:0:
331,199,18930,5,2,3:2:0:0:
245,253,19061,1,2,0:2:0:0:
258,145,19191,5,2,3:2:0:0:
325,184,19322,1,2,0:2:0:0:
339,4,19452,6,0,P|340:48|338:93,1,90,6|0,3:2|0:0,0:0:0:0:
465,155,19713,2,0,B|444:168|434:184|434:184|448:118|436:47,1,180,2|2,0:2|0:2,0:0:0:0:
436,47,20104,1,2,3:2:0:0:
325,184,20235,6,0,P|283:167|256:131,1,90,10|0,0:2|0:0,0:0:0:0:
376,253,20496,2,0,P|335:270|291:264,1,90,2|0,3:2|0:0,0:0:0:0:
466,269,20756,2,0,P|449:310|413:337,1,90,2|0,3:2|0:0,0:0:0:0:
255,351,21017,5,2,3:2:0:0:
147,335,21148,1,2,0:2:0:0:
40,317,21278,1,2,0:2:0:0:
57,311,21409,1,2,3:2:0:0:
52,322,21539,1,2,0:2:0:0:
46,305,21670,1,2,3:2:0:0:
118,224,21800,6,0,P|134:160|94:108,1,135,10|0,0:2|0:0,0:0:0:0:
61,95,22061,2,0,P|105:92|150:89,1,90,2|0,3:2|0:0,0:0:0:0:
356,31,22322,2,0,P|288:26|221:17,1,135,2|0,3:2|0:0,0:0:0:0:
185,13,22583,5,2,3:2:0:0:
245,101,22713,1,2,0:2:0:0:
209,202,22843,1,2,0:2:0:0:
271,290,22974,2,0,B|388:317|388:317|390:348|404:374,1,180,2|0,3:2|3:2,0:0:0:0:
482,315,23365,6,0,P|480:271|482:226,1,90,10|0,0:2|0:0,0:0:0:0:
380,121,23626,2,0,P|381:165|381:210,1,90,2|0,3:2|0:0,0:0:0:0:
370,336,23887,1,2,3:2:0:0:
370,336,24017,1,0,0:0:0:0:
200,213,24148,5,2,3:2:0:0:
93,227,24278,1,2,3:2:0:0:
105,334,24409,1,2,3:2:0:0:
211,321,24539,1,2,3:2:0:0:
209,202,24669,6,0,P|207:157|217:113,1,90,2|0,3:2|3:2,0:0:0:0:
267,37,24930,2,0,B|210:8|156:43|156:43|101:12,2,180,10|4|8,0:2|3:2|0:2,0:0:0:0:
267,37,25583,1,8,0:2:0:0:
462,133,25713,5,6,3:2:0:0:
426,123,25843,1,2,0:2:0:0:
433,87,25974,1,2,3:2:0:0:
468,95,26104,1,2,0:2:0:0:
426,325,26235,5,10,0:2:0:0:
426,325,26496,2,0,P|424:280|425:235,1,90,2|0,3:2|0:0,0:0:0:0:
335,119,26756,2,0,P|336:163|334:208,1,90,2|0,3:2|0:0,0:0:0:0:
171,289,27017,2,0,B|265:265|265:265|279:280|294:289,1,135,10|0,0:2|0:0,0:0:0:0:
328,300,27278,1,6,3:2:0:0:
263,4,27539,5,2,3:2:0:0:
157,25,27669,1,2,0:2:0:0:
50,47,27800,1,10,0:2:0:0:
50,47,28061,6,0,P|39:114|32:181,1,135,2|0,3:2|0:0,0:0:0:0:
24,178,28322,2,0,P|31:110|42:44,1,135,2|0,3:2|0:0,0:0:0:0:
35,43,28583,2,0,P|26:88|20:132,1,90,10|0,0:2|3:2,0:0:0:0:
77,325,28843,5,6,3:2:0:0:
65,359,28973,1,2,0:2:0:0:
30,348,29104,1,2,3:2:0:0:
40,313,29234,1,2,0:2:0:0:
193,165,29365,5,10,0:2:0:0:
193,165,29626,2,0,P|150:178|118:209,1,90,2|0,3:2|0:0,0:0:0:0:
196,343,29887,2,0,P|197:298|195:249,1,90,2|0,3:2|0:0,0:0:0:0:
283,122,30148,2,0,P|279:166|281:211,1,90,10|0,0:2|3:2,0:0:0:0:
438,330,30409,6,0,P|468:254|428:253,1,135,2|0,3:2|0:0,0:0:0:0:
359,287,30669,6,0,P|409:350|430:316,1,135,2|0,3:2|0:0,0:0:0:0:
433,241,30930,6,0,P|378:215|358:272,1,135,10|0,0:2|0:0,0:0:0:0:
441,351,31191,5,2,3:2:0:0:
445,358,31452,1,2,3:2:0:0:
450,365,31713,1,0,3:2:0:0:
512,242,31843,1,8,0:2:0:0:
346,122,31974,5,6,3:2:0:0:
360,154,32104,1,2,0:2:0:0:
393,140,32235,1,2,3:2:0:0:
379,106,32365,1,2,0:2:0:0:
225,0,32496,5,10,0:2:0:0:
225,0,32756,2,0,P|223:44|225:89,1,90,2|0,3:2|0:0,0:0:0:0:
136,183,33017,2,0,P|137:227|136:272,1,90,2|0,3:2|0:0,0:0:0:0:
22,156,33278,2,0,P|41:93|101:67,1,135,10|0,0:2|0:0,0:0:0:0:
136,72,33539,1,6,3:2:0:0:
407,361,33800,5,2,3:2:0:0:
433,256,33930,1,2,0:2:0:0:
459,150,34061,1,10,0:2:0:0:
459,150,34322,6,0,P|392:139|325:132,1,135,2|0,3:2|0:0,0:0:0:0:
328,124,34583,2,0,P|396:131|462:142,1,135,2|0,3:2|0:0,0:0:0:0:
467,132,34843,1,6,3:2:0:0:
387,232,34974,1,8,0:2:0:0:
298,23,35104,6,0,B|240:45|240:45|216:97|216:97|158:116,2,180,6|0|8,3:2|3:2|0:2,0:0:0:0:
467,217,35887,2,0,B|409:198|409:198|385:146|385:146|327:123,1,180,0|0,3:2|3:2,0:0:0:0:
15,132,36409,5,10,0:2:0:0:
61,10,36539,1,2,3:2:0:0:
11,146,36669,2,0,B|82:151|66:198|135:204,1,135,2|0,3:2|0:0,0:0:0:0:
165,198,36930,2,0,P|176:151|170:112,1,90,0|0,3:2|0:0,0:0:0:0:
309,200,37191,2,0,P|298:243|300:288,1,90,8|0,0:2|0:0,0:0:0:0:
468,83,37452,5,0,3:2:0:0:
289,121,37583,1,8,0:2:0:0:
359,9,37713,2,0,P|370:75|381:142,1,135,0|0,3:2|0:0,0:0:0:0:
410,163,37974,2,0,P|398:229|387:296,1,135,8|0,0:2|0:0,0:0:0:0:
365,372,38235,6,0,L|356:309,1,62.9999980773926,6|2,3:2|0:2,0:0:0:0:
284,361,38496,2,0,L|275:298,1,62.9999980773926,2|2,0:2|0:2,0:0:0:0:
202,347,38756,2,0,L|193:284,1,62.9999980773926,2|2,0:2|0:2,0:0:0:0:
369,376,39017,6,0,L|361:317,1,45,2|2,0:2|0:2,0:0:0:0:
288,365,39280,2,0,L|280:307,1,45,2|2,0:2|0:2,0:0:0:0:
206,351,39541,2,0,L|199:306,1,45,2|2,0:2|0:2,0:0:0:0:
234,166,39802,5,2,0:2:0:0:
183,108,39932,1,2,0:2:0:0:
109,131,40063,1,2,0:2:0:0:
91,205,40194,2,0,L|47:215,2,45,2|2|2,0:2|0:2|0:2,0:0:0:0:
189,99,40587,5,2,0:2:0:0:
230,143,40717,1,2,0:2:0:0:
290,132,40848,1,2,0:2:0:0:
318,77,40979,2,0,L|358:69,2,36,0|0|2,0:0|0:0|0:2,0:0:0:0:
102,44,41365,6,0,P|39:75|23:128,2,125.999996154785,2|2|2,0:2|0:2|0:2,0:0:0:0:
215,191,42148,2,0,B|146:180|168:144|107:130,1,125.999996154785,2|0,0:2|0:0,0:0:0:0:
92,221,42539,1,2,0:2:0:0:
92,221,42669,2,0,P|94:283|93:346,1,125.999996154785,2|2,0:2|0:2,0:0:0:0:
93,346,43191,5,2,0:2:0:0:
266,313,43452,1,2,0:2:0:0:
438,276,43713,2,0,P|436:213|437:150,1,125.999996154785,2|2,0:2|0:2,0:0:0:0:
436,150,44235,1,2,0:2:0:0:
197,0,44496,6,0,P|143:135|34:37,1,342,4|0,0:1|0:0,0:0:0:0:
122,48,47104,6,0,B|147:182|147:182|124:209|109:236,1,202.500007724762,14|0,3:2|0:0,0:0:0:0:
35,260,47365,2,0,B|151:259|101:330|217:328,1,202.500007724762,14|0,3:2|0:0,0:0:0:0:
269,264,47626,6,0,B|302:235|305:195|305:195|329:312|419:243|391:390|295:384,1,342,14|0,3:2|0:0,0:0:0:0:
217,327,50235,6,0,B|202:302|183:282|183:282|213:139,1,202.500007724762,14|0,3:2|0:0,0:0:0:0:
213,60,50496,2,0,P|140:100|213:139,1,202.500007724762,14|0,3:2|0:0,0:0:0:0:
282,101,50756,1,14,3:2:0:0:
474,87,51017,6,0,P|476:52|485:17,2,72,2|2|2,0:2|0:2|0:2,0:0:0:0:
509,227,51800,1,2,0:2:0:0:
390,308,52061,1,2,0:2:0:0:
265,234,52322,6,0,B|183:231|153:272|153:272|151:342|88:370,1,234,2|0,0:2|0:0,0:0:0:0:
65,367,53235,2,0,P|131:319|107:212,1,198,2|0,0:2|0:0,0:0:0:0:
81,201,54017,1,2,0:2:0:0:
256,192,54083,12,0,56756,0:0:0:0:
433,94,57017,5,4,3:2:0:0:
433,94,57278,2,0,P|434:58|432:22,1,72,2|0,0:2|0:0,0:0:0:0:
512,130,57539,2,0,P|508:165|511:201,1,72,2|0,0:2|0:0,0:0:0:0:
358,277,57800,2,0,P|366:207|426:172,2,144,10|2|2,0:2|0:2|0:2,0:0:0:0:
505,377,58583,6,0,B|492:311|449:332|437:254,1,144,2|0,3:2|0:0,0:0:0:0:
437,254,58974,1,2,0:2:0:0:
298,359,59104,1,2,0:2:0:0:
298,359,59365,2,0,P|271:337|237:326,1,72,10|2,0:2|0:2,0:0:0:0:
121,364,59626,1,2,0:2:0:0:
151,334,59756,1,0,0:0:0:0:
132,294,59887,1,2,3:2:0:0:
165,263,60017,1,2,0:2:0:0:
197,184,60148,6,0,B|148:168|106:194|106:194|67:163,1,144,2|2,3:2|0:2,0:0:0:0:
23,77,60539,1,0,0:0:0:0:
110,27,60669,2,0,P|123:60|123:96,1,72,2|0,0:2|0:0,0:0:0:0:
11,229,60930,2,0,P|13:300|12:372,2,144,10|2|2,0:2|0:2|3:2,0:0:0:0:
110,27,61713,6,0,B|182:20|182:20|231:72,1,144,2|0,3:2|0:0,0:0:0:0:
231,72,62104,1,2,0:2:0:0:
388,143,62235,1,2,0:2:0:0:
388,143,62496,2,0,P|386:178|388:214,1,72,10|2,0:2|0:2,0:0:0:0:
352,334,62756,1,2,0:2:0:0:
310,293,62887,1,2,0:2:0:0:
253,305,63017,1,10,0:2:0:0:
212,263,63148,1,2,0:2:0:0:
125,278,63278,6,0,P|142:210|221:176,1,144,6|2,3:2|0:2,0:0:0:0:
307,210,63669,1,0,0:0:0:0:
388,143,63800,2,0,P|390:106|389:68,1,72,2|0,0:2|0:0,0:0:0:0:
485,0,64061,2,0,P|482:53|484:148,1,144,10|2,0:2|0:2,0:0:0:0:
483,143,64583,1,2,3:2:0:0:
267,38,64843,6,0,B|206:17|162:59|162:59|152:115|99:134,1,216,2|0,3:2|0:0,0:0:0:0:
18,98,65365,2,0,P|36:69|71:50,1,72
228,110,65626,5,10,0:2:0:0:
235,152,65756,1,2,0:2:0:0:
181,211,65887,1,2,0:2:0:0:
187,253,66017,1,2,0:2:0:0:
117,291,66148,1,2,3:2:0:0:
55,241,66278,1,2,0:2:0:0:
84,167,66409,6,0,P|82:202|83:238,1,72,2|2,3:2|0:2,0:0:0:0:
0,301,66669,2,0,B|75:307|57:349|129:356,1,144,2|2,0:2|3:2,0:0:0:0:
236,335,67061,1,0,0:0:0:0:
275,236,67191,2,0,P|277:307|274:379,2,144,10|0|2,0:2|0:0|3:2,0:0:0:0:
340,181,67843,5,2,0:2:0:0:
423,289,67974,2,0,P|420:217|422:145,1,144,2|0,3:2|0:0,0:0:0:0:
422,146,68496,1,2,0:2:0:0:
474,87,68626,1,2,0:2:0:0:
385,0,68756,6,0,L|392:71,1,72,10|2,0:2|0:2,0:0:0:0:
299,144,69017,2,0,L|306:72,1,72,2|0,3:2|0:0,0:0:0:0:
206,144,69278,2,0,L|213:215,1,72,2|0,3:2|0:0,0:0:0:0:
214,338,69539,6,0,B|166:296|98:325|98:325|117:283|82:252|82:252|57:299|12:306,1,296.99999093628,2|0,3:2|0:0,0:0:0:0:
12,306,71104,6,0,L|17:362,2,53.9999983520508,2|2|2,0:2|0:2|0:2,0:0:0:0:
172,180,71887,2,0,L|167:233,2,53.9999983520508,2|2|2,0:2|0:2|0:2,0:0:0:0:
183,72,72409,1,0,3:2:0:0:
13,71,72669,6,0,P|45:115|52:168,1,107.999996704102,2|2,3:2|0:2,0:0:0:0:
52,168,73191,1,2,0:2:0:0:
166,233,73452,2,0,P|137:278|134:331,1,107.999996704102,2|2,0:2|0:2,0:0:0:0:
135,332,73974,1,2,0:2:0:0:
173,139,74235,6,0,B|254:158|222:203|270:227|270:227|301:197|337:189,1,215.999993408203,2|2,0:2|0:2,0:0:0:0:
429,155,74887,5,2,0:2:0:0:
429,155,75017,2,0,L|435:211,1,53.9999983520508,2|2,0:2|0:2,0:0:0:0:
384,271,75278,2,0,L|378:327,1,53.9999983520508,2|2,0:2|0:2,0:0:0:0:
433,384,75539,1,2,3:2:0:0:
339,189,75800,6,0,P|304:223|294:284,2,107.999996704102,2|2|0,3:2|0:2|0:0,0:0:0:0:
503,235,76583,1,2,0:2:0:0:
491,216,76713,1,2,0:2:0:0:
499,184,76843,1,2,0:2:0:0:
478,145,76974,1,0,0:0:0:0:
487,103,77104,1,0,0:0:0:0:
322,70,77365,6,0,P|375:69|417:38,2,107.999996704102,2|2|0,3:2|0:2|0:0,0:0:0:0:
162,33,78148,1,2,0:2:0:0:
172,51,78278,1,2,0:2:0:0:
170,83,78408,1,2,0:2:0:0:
185,123,78539,1,0,0:0:0:0:
180,165,78669,1,0,0:0:0:0:
104,329,78930,5,2,3:2:0:0:
82,146,79191,1,2,0:2:0:0:
254,207,79452,1,2,0:2:0:0:
51,256,79713,6,0,P|129:244|187:296,1,161.999995056153,2|0,0:2|0:0,0:0:0:0:
223,375,80235,2,0,P|255:352|276:318,1,80.9999975280763,2|0,0:2|0:0,0:0:0:0:
278,285,80496,2,0,L|331:294,1,53.9999983520508,2|2,3:2|0:2,0:0:0:0:
429,333,80756,6,0,B|453:259|390:208|390:208|423:167|423:167|456:118|442:29|329:6|288:88,1,450,2|2,0:2|3:2,0:0:0:0:
155,122,82583,5,0,3:2:0:0:
359,122,82712,1,0,3:2:0:0:
256,288,82843,1,0,3:2:0:0:
256,278,83104,1,8,3:2:0:0:
256,269,83365,1,8,3:2:0:0:
34,174,83496,5,8,3:2:0:0:
46,269,83626,2,0,B|122:262|95:212|175:205,1,148.50000453186,6|0,3:2|0:0,0:0:0:0:
214,202,83887,2,0,P|212:152|214:103,1,99.0000030212403,2|0,3:2|0:0,0:0:0:0:
120,0,84148,2,0,P|120:49|119:98,1,99.0000030212403,10|0,0:2|0:0,0:0:0:0:
138,249,84409,6,0,P|221:292|297:236,1,198.000006042481,2|0,3:2|3:2,0:0:0:0:
292,121,84800,1,2,0:2:0:0:
482,98,84930,1,14,0:2:0:0:
429,212,85061,1,2,3:2:0:0:
394,40,85191,6,0,P|395:89|395:138,1,99.0000030212403,6|0,3:2|0:0,0:0:0:0:
512,232,85452,2,0,P|486:273|443:295,1,99.0000030212403,2|0,3:2|0:0,0:0:0:0:
336,370,85713,2,0,P|338:295|337:221,1,148.50000453186,10|0,0:2|0:0,0:0:0:0:
325,183,85974,6,0,B|251:203|251:203|222:250|222:250|159:269,1,198.000006042481,2|2,3:2|3:2,0:0:0:0:
33,303,86365,1,2,0:2:0:0:
157,178,86496,1,14,0:2:0:0:
75,100,86626,1,2,3:2:0:0:
155,0,86756,6,0,P|152:49|153:98,1,99.0000030212403,6|0,3:2|0:0,0:0:0:0:
54,224,87017,2,0,P|54:174|52:125,1,99.0000030212403,2|0,3:2|0:0,0:0:0:0:
159,269,87278,2,0,P|156:318|157:367,1,99.0000030212403,10|0,0:2|0:0,0:0:0:0:
285,279,87539,6,0,P|249:191|156:177,2,198.000006042481,6|0|10,3:2|3:2|0:2,0:0:0:0:
0,384,88322,5,6,3:2:0:0:
47,321,88452,1,2,0:2:0:0:
159,269,88583,1,2,3:2:0:0:
300,299,88713,1,2,0:2:0:0:
311,308,88843,1,10,0:2:0:0:
297,313,88974,1,2,0:2:0:0:
242,200,89104,6,0,P|244:150|241:101,2,99.0000030212403,6|2|2,3:2|3:2|3:2,0:0:0:0:
505,240,89626,2,0,P|440:271|423:341,1,148.50000453186,8|0,0:2|0:0,0:0:0:0:
440,376,89887,5,6,3:2:0:0:
402,274,90017,1,2,0:2:0:0:
362,169,90148,2,0,P|358:121|381:76,1,99.0000030212403,2|0,3:2|0:0,0:0:0:0:
498,36,90409,1,10,0:2:0:0:
449,139,90539,1,2,0:2:0:0:
303,23,90669,5,2,3:2:0:0:
303,23,90930,2,0,B|227:30|253:78|174:87,1,148.50000453186,2|0,3:2|0:0,0:0:0:0:
134,79,91191,2,0,P|118:148|53:179,1,148.50000453186,8|0,0:2|0:0,0:0:0:0:
14,168,91452,5,2,3:2:0:0:
116,206,91582,1,2,0:2:0:0:
220,245,91713,2,0,P|234:292|225:340,1,99.0000030212403,2|0,3:2|0:0,0:0:0:0:
98,384,91974,1,10,0:2:0:0:
144,297,92104,1,2,0:2:0:0:
310,366,92235,6,0,P|322:294|305:219,1,148.50000453186,2|0,3:2|0:0,0:0:0:0:
282,187,92496,1,2,3:2:0:0:
260,31,92626,1,0,0:0:0:0:
420,69,92756,1,8,0:2:0:0:
420,69,92887,1,0,3:2:0:0:
414,157,93017,6,0,B|336:150|368:103|281:97,1,148.50000453186,2|0,3:2|0:0,0:0:0:0:
244,107,93278,2,0,P|208:138|195:189,1,99.0000030212403,2|0,3:2|0:0,0:0:0:0:
326,269,93539,2,0,P|317:222|279:185,1,99.0000030212403,10|0,0:2|0:0,0:0:0:0:
76,344,93800,6,0,B|69:281|120:294|107:211|107:211|126:265|186:287|236:268,1,297.000009063721,2|0,3:2|0:0,0:0:0:0:
261,351,94322,2,0,P|194:361|149:353,1,99.0000030212403,10|0,0:2|0:0,0:0:0:0:
21,235,94583,5,2,3:2:0:0:
2,110,94713,1,2,0:2:0:0:
194,184,94843,2,0,B|198:111|247:134|248:51,1,148.50000453186,2|0,3:2|0:0,0:0:0:0:
237,50,95104,2,0,B|235:132|186:109|182:183,1,148.50000453186,10|0,0:2|0:0,0:0:0:0:
204,260,95365,1,6,3:2:0:0:
208,272,95626,5,0,3:2:0:0:
70,325,95756,1,8,0:2:0:0:
275,190,95887,5,0,3:2:0:0:
412,245,96017,1,8,0:2:0:0:
512,110,96148,6,0,P|441:94|384:138,1,148.50000453186,6|0,3:2|0:0,0:0:0:0:
363,172,96409,2,0,P|314:162|265:152,1,99.0000030212403,2|0,3:2|0:0,0:0:0:0:
151,58,96669,2,0,P|199:48|248:38,1,99.0000030212403,10|0,0:2|0:0,0:0:0:0:
438,0,96930,5,2,3:2:0:0:
438,0,97061,1,2,0:2:0:0:
423,116,97191,1,2,3:2:0:0:
512,189,97322,1,2,0:2:0:0:
493,301,97452,2,0,P|457:272|407:266,1,99.0000030212403,14|2,0:2|3:2,0:0:0:0:
286,357,97713,6,0,P|285:307|285:258,1,99.0000030212403,6|0,3:2|0:0,0:0:0:0:
183,151,97974,2,0,P|184:200|183:249,1,99.0000030212403,2|0,3:2|0:0,0:0:0:0:
24,310,98235,2,0,B|57:286|98:297|98:297|116:326|151:340,1,148.50000453186,10|0,0:2|0:0,0:0:0:0:
195,347,98496,5,2,3:2:0:0:
195,347,98626,1,2,0:2:0:0:
107,217,98756,1,2,3:2:0:0:
264,234,98887,1,2,0:2:0:0:
279,70,99017,2,0,P|245:36|198:21,1,99.0000030212403,14|2,0:2|3:2,0:0:0:0:
45,117,99278,6,0,P|46:68|45:19,1,99.0000030212403,6|0,3:2|0:0,0:0:0:0:
197,212,99539,2,0,P|195:162|197:113,1,99.0000030212403,2|0,3:2|0:0,0:0:0:0:
86,349,99800,2,0,P|87:299|85:250,1,99.0000030212403,10|0,0:2|0:0,0:0:0:0:
297,191,100061,2,0,P|268:282|167:307,2,198.000006042481,6|0|10,3:2|3:2|0:2,0:0:0:0:
197,113,100713,1,0,0:0:0:0:
50,14,100843,6,0,B|50:122|128:92|129:187,1,198.000006042481,6|0,3:2|3:2,0:0:0:0:
38,182,101235,1,2,0:2:0:0:
144,29,101365,2,0,P|190:14|239:21,1,99.0000030212403,10|0,0:2|0:0,0:0:0:0:
440,121,101626,5,6,3:2:0:0:
305,154,101756,1,0,3:2:0:0:
335,18,101887,2,0,P|337:92|335:166,1,148.50000453186,0|0,3:2|0:0,0:0:0:0:
334,206,102148,2,0,P|382:196|428:212,1,99.0000030212403,8|0,0:2|3:2,0:0:0:0:
505,307,102409,5,6,3:2:0:0:
405,370,102539,1,2,0:2:0:0:
289,342,102669,2,0,P|279:294|245:259,1,99.0000030212403,2|0,3:2|0:0,0:0:0:0:
106,234,102930,2,0,B|182:227|162:181|237:171,1,148.50000453186,10|0,0:2|0:0,0:0:0:0:
276,174,103191,2,0,P|273:124|276:75,1,99.0000030212403,2|0,3:2|0:0,0:0:0:0:
159,8,103452,2,0,P|93:34|83:104,1,148.50000453186,2|0,3:2|0:0,0:0:0:0:
101,139,103713,1,8,0:2:0:0:
454,237,103974,5,2,3:2:0:0:
399,131,104104,1,2,0:2:0:0:
433,16,104235,2,0,P|407:57|363:78,1,99.0000030212403,2|0,3:2|0:0,0:0:0:0:
217,103,104496,2,0,B|259:163|259:163|246:238,1,148.50000453186,10|0,0:2|0:0,0:0:0:0:
238,276,104756,6,0,P|204:242|157:227,1,99.0000030212403,2|0,3:2|0:0,0:0:0:0:
66,373,105017,2,0,P|113:360|149:327,1,99.0000030212403,2|0,3:2|0:0,0:0:0:0:
62,175,105278,2,0,P|49:222|59:270,1,99.0000030212403,10|0,0:2|3:2,0:0:0:0:
249,366,105539,6,0,B|331:367|388:329|398:250|398:250|350:243|323:210,1,297.000009063721,6|0,3:2|0:0,0:0:0:0:
269,102,106061,1,10,0:2:0:0:
269,102,106191,1,2,0:2:0:0:
238,275,106322,6,0,P|231:222|224:177,1,99.0000030212403,2|0,3:2|0:0,0:0:0:0:
354,127,106583,2,0,P|359:77|367:29,1,99.0000030212403,2|0,3:2|0:0,0:0:0:0:
211,182,106843,2,0,P|218:230|224:280,1,99.0000030212403,10|0,0:2|3:2,0:0:0:0:
40,318,107104,6,0,P|63:250|130:226,1,148.50000453186,2|0,3:2|0:0,0:0:0:0:
125,220,107365,2,0,P|56:243|33:311,1,148.50000453186,0|0,3:2|0:0,0:0:0:0:
73,380,107626,1,8,0:2:0:0:
224,280,107756,1,0,3:2:0:0:
132,134,107887,1,4,3:2:0:0:
121,128,108148,5,6,3:2:0:0:
40,4,108278,1,0,3:2:0:0:
6,230,108409,5,10,0:2:0:0:
130,122,108539,1,8,0:2:0:0:
272,203,108669,6,0,P|192:186|112:173,2,161.999995056153,6|2|2,3:2|3:2|3:2,0:0:0:0:
440,253,109451,5,2,3:2:0:0:
395,339,109582,1,2,0:2:0:0:
298,342,109712,2,0,B|301:259|358:281|359:196,2,161.999995056153,10|2|2,0:2|3:2|3:2,0:0:0:0:
481,139,110495,6,0,P|414:177|352:131,1,161.999995056153,2|2,3:2|3:2,0:0:0:0:
329,21,110886,1,2,0:2:0:0:
422,59,111016,1,10,0:2:0:0:
116,143,111277,6,0,P|155:138|186:113,1,80.9999975280763,2|0,3:2|0:0,0:0:0:0:
221,0,111538,2,0,P|218:80|220:161,1,161.999995056153,2|2,3:2|3:2,0:0:0:0:
222,270,111929,1,0,0:0:0:0:
127,315,112060,2,0,P|128:274|127:234,1,80.9999975280763,2|2,3:2|0:2,0:0:0:0:
4,109,112321,5,10,0:2:0:0:
88,33,112451,1,2,0:2:0:0:
116,143,112582,1,2,3:2:0:0:
410,319,112842,5,2,3:2:0:0:
410,319,113103,1,2,3:2:0:0:
410,319,113364,2,0,B|429:287|429:287|366:313|293:293,2,161.999995056153,2|8|2,3:2|0:2|3:2,0:0:0:0:
127,315,114147,5,2,3:2:0:0:
114,317,114408,1,2,3:2:0:0:
100,319,114669,1,2,3:2:0:0:
49,260,114799,1,2,0:2:0:0:
89,195,114929,1,2,3:2:0:0:
48,128,115060,1,2,0:2:0:0:
77,57,115190,6,0,P|111:123|172:87,1,161.999995056153,2|2,3:2|3:2,0:0:0:0:
171,87,115712,1,2,3:2:0:0:
401,41,115973,1,2,3:2:0:0:
424,114,116103,1,2,0:2:0:0:
374,173,116234,1,2,3:2:0:0:
397,246,116364,1,2,0:2:0:0:
347,305,116495,6,0,B|302:322|298:325|248:315|242:314|179:332,2,161.999995056153,2|2|2,3:2|3:2|3:2,0:0:0:0:
512,188,117277,1,2,3:2:0:0:
446,146,117408,1,2,0:2:0:0:
414,76,117538,1,2,3:2:0:0:
364,134,117668,1,2,0:2:0:0:
288,150,117799,6,0,P|279:189|253:222,1,80.9999975280763,2|2,3:2|0:2,0:0:0:0:
134,212,118060,2,0,P|109:138|149:72,1,161.999995056153,2|0,3:2|3:2,0:0:0:0:
150,70,118582,5,0,3:2:0:0:
199,147,118842,5,0,3:2:0:0:
254,220,119103,6,0,B|303:211|333:231|333:231|335:275|380:302|380:302|391:244|430:259|434:201,1,288,4|2,0:1|0:2,0:0:0:0:
362,49,120407,1,2,0:2:0:0:
203,126,120668,6,0,B|176:30|240:-14|261:80|234:168|182:125|165:220,1,288,2|2,0:2|0:2,0:0:0:0:
236,370,121972,1,2,0:2:0:0:
40,352,122233,6,0,B|58:304|17:253|17:253|35:225|75:220|75:220|28:157|57:104|118:85|61:9|-29:36|-3:75,1,432,2|2,0:2|0:2,0:0:0:0:
357,262,124320,5,0,3:2:0:0:
153,262,124451,1,0,3:2:0:0:
256,96,124580,1,0,3:2:0:0:
256,106,124841,1,8,3:2:0:0:
256,115,125102,1,8,3:2:0:0:
479,144,125233,5,8,3:2:0:0:
461,56,125363,2,0,P|401:96|391:167,1,148.50000453186,6|0,3:2|0:0,0:0:0:0:
413,200,125624,2,0,P|438:242|438:290,1,99.0000030212403,2|0,3:2|0:0,0:0:0:0:
285,333,125885,2,0,P|260:291|259:242,1,99.0000030212403,10|0,0:2|0:0,0:0:0:0:
163,81,126146,6,0,B|200:111|205:162|205:162|255:140|306:156,1,198.000006042481,2|0,3:2|3:2,0:0:0:0:
263,52,126537,1,2,0:2:0:0:
112,157,126668,1,10,0:2:0:0:
0,67,126798,1,2,3:2:0:0:
21,264,126929,6,0,P|24:215|10:169,1,99.0000030212403,6|0,3:2|0:0,0:0:0:0:
148,278,127189,2,0,P|127:324|131:375,1,99.0000030212403,2|0,3:2|0:0,0:0:0:0:
300,369,127450,2,0,P|295:297|238:253,1,148.50000453186,10|0,0:2|0:0,0:0:0:0:
210,224,127711,6,0,P|212:126|208:27,1,198.000006042481,2|2,3:2|3:2,0:0:0:0:
128,121,128102,1,2,0:2:0:0:
302,182,128233,1,10,0:2:0:0:
393,53,128363,1,2,3:2:0:0:
296,5,128494,6,0,P|299:54|298:103,1,99.0000030212403,6|0,3:2|0:0,0:0:0:0:
394,233,128755,2,0,P|393:183|395:134,1,99.0000030212403,2|0,3:2|0:0,0:0:0:0:
311,272,129016,2,0,P|314:322|312:371,1,99.0000030212403,10|0,0:2|0:0,0:0:0:0:
323,372,129276,6,0,P|325:323|322:273,1,99.0000030212403,6|0,3:2|0:0,0:0:0:0:
406,135,129537,2,0,P|404:184|405:234,1,99.0000030212403,0|0,3:2|0:0,0:0:0:0:
308,104,129798,2,0,P|310:55|307:5,1,99.0000030212403,10|0,0:2|0:0,0:0:0:0:
512,0,130059,5,6,3:2:0:0:
486,74,130189,1,2,0:2:0:0:
396,158,130320,1,2,3:2:0:0:
252,173,130450,1,2,0:2:0:0:
239,168,130580,1,10,0:2:0:0:
251,159,130711,1,2,0:2:0:0:
358,238,130842,6,0,P|368:286|357:337,2,99.0000030212403,2|2|2,3:2|3:2|3:2,0:0:0:0:
206,54,131363,2,0,B|129:72|167:113|86:134,1,148.50000453186,14|0,0:2|0:0,0:0:0:0:
46,127,131624,5,6,3:2:0:0:
117,161,131755,1,2,0:2:0:0:
127,239,131885,1,2,3:2:0:0:
34,319,132016,2,0,P|19:272|27:223,2,99.0000030212403,2|10|2,0:2|0:2|0:2,0:0:0:0:
186,317,132407,5,2,3:2:0:0:
247,240,132537,1,2,0:2:0:0:
345,227,132668,1,2,3:2:0:0:
398,356,132798,2,0,P|350:358|305:337,2,99.0000030212403,2|10|2,0:2|0:2|0:2,0:0:0:0:
480,207,133189,6,0,B|423:228|404:175|345:227|345:227|361:187|339:104|281:108,1,297.000009063721,2|0,3:2|0:0,0:0:0:0:
171,189,133711,1,10,0:2:0:0:
90,81,133842,1,2,0:2:0:0:
241,29,133972,6,0,P|205:62|194:110,1,99.0000030212403,2|2,3:2|0:2,0:0:0:0:
53,158,134233,2,0,P|85:194|92:243,1,99.0000030212403,2|2,3:2|0:2,0:0:0:0:
199,281,134494,2,0,P|170:320|167:369,1,99.0000030212403,10|0,0:2|3:2,0:0:0:0:
369,358,134755,6,0,B|369:267|299:287|297:179,1,198.000006042481,2|2,3:2|3:2,0:0:0:0:
303,83,135146,1,0,0:0:0:0:
406,192,135276,1,10,0:2:0:0:
406,192,135407,1,2,0:2:0:0:
511,97,135537,6,0,P|461:90|412:85,1,99.0000030212403,2|0,3:2|0:0,0:0:0:0:
338,0,135798,2,0,P|288:6|239:11,1,99.0000030212403,2|0,3:2|0:0,0:0:0:0:
107,33,136059,2,0,P|171:63|189:133,1,148.50000453186,10|0,0:2|0:0,0:0:0:0:
165,282,136320,5,2,3:2:0:0:
19,306,136450,1,2,0:2:0:0:
0,157,136581,1,6,3:2:0:0:
11,165,136842,5,10,0:2:0:0:
153,272,136972,1,2,3:2:0:0:
267,156,137102,6,0,P|194:171|122:191,1,148.50000453186,6|0,3:2|0:0,0:0:0:0:
57,231,137363,2,0,P|127:207|199:187,1,148.50000453186,10|0,0:2|0:0,0:0:0:0:
277,168,137624,1,14,3:2:0:0:
150,285,137755,1,10,0:2:0:0:
84,119,137885,6,0,P|96:48|162:21,1,148.50000453186,6|0,3:2|0:0,0:0:0:0:
199,31,138146,2,0,P|200:80|199:130,1,99.0000030212403,2|0,3:2|0:0,0:0:0:0:
278,255,138407,2,0,P|326:240|355:201,1,99.0000030212403,10|0,0:2|0:0,0:0:0:0:
294,36,138668,5,2,3:2:0:0:
294,36,138798,1,2,0:2:0:0:
277,168,138929,1,2,3:2:0:0:
436,187,139059,1,2,0:2:0:0:
460,32,139189,2,0,P|413:45|381:82,1,99.0000030212403,14|2,0:2|3:2,0:0:0:0:
354,202,139450,6,0,P|355:251|354:300,1,99.0000030212403,6|0,3:2|0:0,0:0:0:0:
507,360,139711,2,0,P|488:314|448:287,1,99.0000030212403,2|0,3:2|0:0,0:0:0:0:
327,384,139972,2,0,B|258:364|294:323|207:299,1,148.50000453186,10|0,0:2|0:0,0:0:0:0:
169,300,140233,5,2,3:2:0:0:
169,300,140363,1,2,0:2:0:0:
164,175,140494,1,2,3:2:0:0:
8,234,140624,1,2,0:2:0:0:
65,56,140755,2,0,P|58:104|81:152,1,99.0000030212403,14|2,0:2|3:2,0:0:0:0:
242,123,141016,6,0,P|249:75|226:27,1,99.0000030212403,6|0,3:2|0:0,0:0:0:0:
366,187,141277,2,0,P|398:149|449:133,1,99.0000030212403,2|0,3:2|0:0,0:0:0:0:
309,274,141538,2,0,P|273:240|225:229,1,99.0000030212403,10|0,0:2|0:0,0:0:0:0:
96,294,141798,5,6,3:2:0:0:
96,294,141929,1,2,0:2:0:0:
234,320,142059,1,2,3:2:0:0:
244,136,142190,1,2,0:2:0:0:
76,209,142320,2,0,P|103:249|148:268,1,99.0000030212403,14|2,0:2|3:2,0:0:0:0:
309,274,142581,6,0,B|357:265|378:217|378:217|432:196|478:225,1,198.000006042481,6|0,3:2|3:2,0:0:0:0:
422,305,142972,1,2,0:2:0:0:
292,190,143102,2,0,P|277:142|285:94,1,99.0000030212403,10|0,0:2|0:0,0:0:0:0:
414,0,143363,5,6,3:2:0:0:
487,121,143494,1,2,0:2:0:0:
386,190,143624,5,2,3:2:0:0:
309,274,143755,1,2,0:2:0:0:
179,203,143885,5,10,0:2:0:0:
101,140,144016,1,2,3:2:0:0:
0,284,144146,6,0,B|58:271|90:219|90:219|107:271|157:301|157:301|141:346|141:346|206:235|285:314|319:235|292:189,1,517.5,6|0,3:2|0:0,0:0:0:0:
225,146,147276,5,2,0:2:0:0:
376,63,147537,1,2,0:2:0:0:
495,187,147798,1,2,0:2:0:0:
409,337,148059,1,2,0:2:0:0:
240,299,148320,2,0,P|269:264|314:252,1,94.4999971160889,2|0,0:2|0:0,0:0:0:0:
347,259,148842,6,0,B|356:216|384:187|384:187|367:139|414:108|414:108|340:115|310:57,1,296.99999093628,4|0,0:1|0:0,0:0:0:0:
392,8,150407,5,2,0:2:0:0:
402,24,150668,1,2,0:2:0:0:
389,21,150929,1,2,0:2:0:0:
405,11,151189,1,2,0:2:0:0:
84,153,151450,5,2,0:2:0:0:
256,192,151516,12,6,153537,0:2:0:0:
