osu file format v14

[General]
AudioFilename: audio.mp3
AudioLeadIn: 0
PreviewTime: 83626
Countdown: 0
SampleSet: Soft
StackLeniency: 0.3
Mode: 0
LetterboxInBreaks: 0
WidescreenStoryboard: 1

[Editor]
Bookmarks: 13202,25724,38246,47104,50235,54017,57028,69539,82061,96159,153548
DistanceSpacing: 0.8
BeatDivisor: 4
GridSize: 32
TimelineZoom: 2.599999

[Metadata]
Title:Hibiki
TitleUnicode:響
Artist:Shikata Akiko
ArtistUnicode:志方あきこ
Creator:imaginative
Version:The "You" That I've Forgotten.
Source:CHUNITHM AIR PLUS
Tags:mynt mildly accurate mildly_accurate vararaup japanese jp folk sound noise チュウニズム Genesis Of Destiny Rebellion sega original ost soundtrack videogame video game
BeatmapID:3504120
BeatmapSetID:1714963

[Difficulty]
HPDrainRate:6
CircleSize:4.3
OverallDifficulty:9
ApproachRate:9.4
SliderMultiplier:1.89
SliderTickRate:1

[Events]
//Background and Video events
0,0,"bg.jpeg",0,0
//Break Periods
//Storyboard Layer 0 (Background)
//Storyboard Layer 1 (Fail)
//Storyboard Layer 2 (Pass)
//Storyboard Layer 3 (Foreground)
//Storyboard Layer 4 (Overlay)
//Storyboard Sound Samples

[TimingPoints]
670,260.869565217391,6,2,1,30,1,0
670,-333.333333333333,6,2,1,30,0,0
2169,-333.333333333333,6,2,1,5,0,0
2234,-333.333333333333,6,2,1,30,0,0
3735,-333.333333333333,6,2,1,5,0,0
3800,-333.333333333333,6,2,1,30,0,0
4843,-200,6,2,1,30,0,0
5299,-200,6,2,1,5,0,0
5365,-285.714285714286,6,2,2,30,0,0
5496,-285.714285714286,6,2,1,30,0,0
6864,-285.714285714286,6,2,1,5,0,0
6930,-285.714285714286,6,2,1,40,0,0
7974,-200,6,2,1,40,0,0
8430,-200,6,2,1,5,0,0
8496,-222.222222222222,6,2,3,40,0,0
9213,-222.222222222222,6,2,3,5,0,0
9278,-250,6,2,1,40,0,0
9409,-100,6,2,1,40,0,0
9995,-100,6,2,1,5,0,0
10061,-100,6,2,1,55,0,0
11104,-200,6,2,1,55,0,0
11560,-200,6,2,1,5,0,0
11626,-200,6,2,1,55,0,0
12148,-200,6,2,1,57,0,0
13191,-111.111111111111,6,2,1,65,0,0
14169,-111.111111111111,6,2,1,5,0,0
14235,-111.111111111111,6,2,1,65,0,0
14691,-111.111111111111,6,2,1,5,0,0
14756,-111.111111111111,6,2,1,65,0,0
17299,-111.111111111111,6,2,1,5,0,0
17365,-111.111111111111,6,2,1,65,0,0
17560,-111.111111111111,6,2,1,5,0,0
17626,-111.111111111111,6,2,1,65,0,0
17821,-111.111111111111,6,2,1,5,0,0
17887,-111.111111111111,6,2,1,65,0,0
18343,-111.111111111111,6,2,1,5,0,0
18409,-111.111111111111,6,2,1,65,0,0
19647,-111.111111111111,6,2,1,5,0,0
19713,-111.111111111111,6,2,1,65,0,0
20430,-111.111111111111,6,2,1,5,0,0
20496,-111.111111111111,6,2,1,65,0,0
21995,-111.111111111111,6,2,1,5,0,0
22061,-111.111111111111,6,2,1,65,0,0
22583,-105.263157894737,6,2,1,65,0,0
22778,-105.263157894737,6,2,1,5,0,0
22843,-105.263157894737,6,2,1,65,0,0
23560,-105.263157894737,6,2,1,5,0,0
23626,-105.263157894737,6,2,1,65,0,0
24930,-100,6,2,1,65,0,0
25126,-100,6,2,1,5,0,0
25191,-100,6,2,1,65,0,0
25713,-95.2380952380952,6,2,1,70,0,0
26691,-95.2380952380952,6,2,1,5,0,0
26756,-95.2380952380952,6,2,1,70,0,0
26951,-95.2380952380952,6,2,1,5,0,0
27017,-95.2380952380952,6,2,1,70,0,0
27473,-95.2380952380952,6,2,1,5,0,0
27539,-95.2380952380952,6,2,1,70,0,0
28256,-95.2380952380952,6,2,1,5,0,0
28322,-95.2380952380952,6,2,1,70,0,0
28517,-95.2380952380952,6,2,1,5,0,0
28582,-95.2380952380952,6,2,1,70,0,0
29821,-95.2380952380952,6,2,1,5,0,0
29887,-95.2380952380952,6,2,1,70,0,0
30082,-95.2380952380952,6,2,1,5,0,0
30148,-95.2380952380952,6,2,1,70,0,0
30604,-95.2380952380952,6,2,1,5,0,0
30669,-95.2380952380952,6,2,1,70,0,0
30864,-95.2380952380952,6,2,1,5,0,0
30930,-95.2380952380952,6,2,1,70,0,0
31125,-95.2380952380952,6,2,1,5,0,0
31191,-95.2380952380952,6,2,1,70,0,0
32951,-95.2380952380952,6,2,1,5,0,0
33017,-95.2380952380952,6,2,1,70,0,0
33212,-95.2380952380952,6,2,1,5,0,0
33278,-95.2380952380952,6,2,1,70,0,0
33734,-95.2380952380952,6,2,1,5,0,0
33800,-95.2380952380952,6,2,1,70,0,0
34517,-95.2380952380952,6,2,1,5,0,0
34583,-95.2380952380952,6,2,1,70,0,0
34778,-95.2380952380952,6,2,1,5,0,0
34843,-95.2380952380952,6,2,1,70,0,0
36669,-111.111111111111,6,2,1,70,0,0
37907,-111.111111111111,6,2,1,5,0,0
37973,-111.111111111111,6,2,1,70,0,0
38168,-111.111111111111,6,2,1,5,0,0
38235,261.267145656434,6,2,1,50,1,0
38235,-125,6,2,1,50,0,0
39802,261.802949646566,6,2,1,30,1,0
39802,-142.857142857143,6,2,1,30,0,0
40587,261.5518744551,6,2,1,30,1,0
40587,-166.666666666667,6,2,1,30,0,0
41365,260.869565217391,6,2,1,30,1,0
41365,-166.666666666667,6,2,1,30,0,0
44496,-476.190476190476,6,2,1,40,0,0
46974,-476.190476190476,6,2,1,5,0,0
47104,-66.6666666666667,6,2,1,60,0,0
47300,-66.6666666666667,6,2,1,5,0,0
47365,-66.6666666666667,6,2,1,60,0,0
47561,-66.6666666666667,6,2,1,5,0,0
47626,-384.615384615385,6,2,1,60,0,0
47887,-384.615384615385,6,2,1,35,0,0
50235,-66.6666666666667,6,2,1,60,0,0
50430,-66.6666666666667,6,2,1,5,0,0
50496,-66.6666666666667,6,2,1,60,0,0
50691,-66.6666666666667,6,2,1,5,0,0
50756,-333.333333333333,6,2,1,60,0,0
51017,-333.333333333333,6,2,1,35,0,0
52256,-333.333333333333,6,2,1,5,0,0
52322,-333.333333333333,6,2,1,35,0,0
53169,-333.333333333333,6,2,1,5,0,0
53235,-333.333333333333,6,2,1,35,0,0
53952,-333.333333333333,6,2,1,5,0,0
54017,-250,6,2,1,35,0,0
57017,-117.647058823529,6,2,1,60,0,0
57473,-117.647058823529,6,2,1,5,0,0
57539,-117.647058823529,6,2,1,60,0,0
57995,-117.647058823529,6,2,1,5,0,0
58061,-117.647058823529,6,2,1,60,0,0
58256,-117.647058823529,6,2,1,5,0,0
58322,-117.647058823529,6,2,1,60,0,0
59104,-105.263157894737,6,2,1,60,0,0
59299,-105.263157894737,6,2,1,5,0,0
59365,-117.647058823529,6,2,1,60,0,0
61125,-117.647058823529,6,2,1,5,0,0
61191,-117.647058823529,6,2,1,60,0,0
61386,-117.647058823529,6,2,1,5,0,0
61452,-117.647058823529,6,2,1,60,0,0
62430,-117.647058823529,6,2,1,5,0,0
62496,-117.647058823529,6,2,1,60,0,0
64256,-117.647058823529,6,2,1,5,0,0
64322,-117.647058823529,6,2,1,60,0,0
64517,-117.647058823529,6,2,1,5,0,0
64583,-117.647058823529,6,2,1,60,0,0
65821,-117.647058823529,6,2,1,5,0,0
65887,-117.647058823529,6,2,1,60,0,0
67126,-117.647058823529,6,2,1,5,0,0
67191,-117.647058823529,6,2,1,60,0,0
69212,-117.647058823529,6,2,1,5,0,0
69278,-117.647058823529,6,2,1,60,0,0
69473,-117.647058823529,6,2,1,5,0,0
69539,-166.666666666667,6,2,1,45,0,0
71104,-142.857142857143,6,2,1,45,0,0
72669,-166.666666666667,6,2,1,45,0,0
75539,-166.666666666667,6,2,1,55,0,0
75800,-120.481927710843,6,2,1,55,0,0
79713,-153.846153846154,6,2,1,55,0,0
80496,-133.333333333333,6,2,1,55,0,0
82061,-133.333333333333,6,2,1,65,0,0
82583,-100,6,2,1,75,0,0
83038,-100,6,2,1,5,0,0
83104,-90.9090909090909,6,2,1,80,0,0
83299,-90.9090909090909,6,2,1,5,0,0
83365,-83.3333333333333,6,2,1,80,0,0
83560,-83.3333333333333,6,2,1,5,0,0
83625,-90.9090909090909,6,2,1,90,0,1
83691,-90.9090909090909,6,2,1,80,0,1
83821,-90.9090909090909,6,2,1,5,0,1
83887,-90.9090909090909,6,2,1,80,0,1
85191,-80,6,2,1,80,0,1
85386,-80,6,2,1,5,0,1
85452,-90.9090909090909,6,2,1,80,0,1
86169,-90.9090909090909,6,2,1,5,0,1
86235,-90.9090909090909,6,2,1,80,0,1
86756,-80,6,2,1,80,0,1
86952,-80,6,2,1,5,0,1
87017,-90.9090909090909,6,2,1,80,0,1
87734,-90.9090909090909,6,2,1,80,0,1
87800,-90.9090909090909,6,2,1,80,0,1
88256,-90.9090909090909,6,2,1,5,0,1
88322,-90.9090909090909,6,2,1,80,0,1
89560,-90.9090909090909,6,2,1,5,0,1
89626,-90.9090909090909,6,2,1,80,0,1
90343,-90.9090909090909,6,2,1,5,0,1
90408,-90.9090909090909,6,2,1,80,0,1
91908,-90.9090909090909,6,2,1,5,0,1
91974,-90.9090909090909,6,2,1,80,0,1
93213,-90.9090909090909,6,2,1,5,0,1
93278,-90.9090909090909,6,2,1,80,0,1
93995,-90.9090909090909,6,2,1,80,0,1
94061,-90.9090909090909,6,2,1,80,0,1
94517,-90.9090909090909,6,2,1,5,0,1
94583,-83.3333333333333,6,2,1,80,0,1
95038,-83.3333333333333,6,2,1,5,0,1
95104,-83.3333333333333,6,2,1,80,0,1
96148,-90.9090909090909,6,2,1,80,0,1
96343,-90.9090909090909,6,2,1,5,0,1
96409,-90.9090909090909,6,2,1,80,0,1
97908,-90.9090909090909,6,2,1,5,0,1
97974,-90.9090909090909,6,2,1,80,0,1
99473,-90.9090909090909,6,2,1,5,0,1
99539,-90.9090909090909,6,2,1,80,0,1
100256,-90.9090909090909,6,2,1,5,0,1
100322,-90.9090909090909,6,2,1,80,0,1
101560,-90.9090909090909,6,2,1,5,0,1
101626,-90.9090909090909,6,2,1,80,0,1
102864,-90.9090909090909,6,2,1,5,0,1
102930,-90.9090909090909,6,2,1,80,0,1
104430,-90.9090909090909,6,2,1,5,0,1
104496,-90.9090909090909,6,2,1,80,0,1
104691,-90.9090909090909,6,2,1,5,0,1
104756,-90.9090909090909,6,2,1,80,0,1
107560,-90.9090909090909,6,2,1,5,0,1
107626,-90.9090909090909,6,2,1,80,0,1
108669,260.869565217391,5,2,1,70,1,0
108669,-111.111111111111,6,2,1,70,0,0
113886,-125,6,2,1,60,0,0
119103,260.869565217391,6,2,1,45,1,0
119103,-200,6,2,1,45,0,0
120537,-200,6,2,1,5,0,0
120668,-285.714285714286,6,2,1,45,0,0
123733,-285.714285714286,6,2,1,5,0,0
123798,-285.714285714286,6,2,1,45,0,0
124320,-285.714285714286,6,2,1,70,0,0
124581,-90.9090909090909,6,2,1,70,0,0
124776,-90.9090909090909,6,2,1,5,0,0
124842,-90.9090909090909,6,2,1,85,0,0
125037,-90.9090909090909,6,2,1,5,0,0
125103,-80,6,2,1,85,0,0
125363,-90.9090909090909,6,2,1,85,0,1
125429,-90.9090909090909,6,2,1,77,0,1
125559,-90.9090909090909,6,2,1,5,0,1
125624,-90.9090909090909,6,2,1,77,0,1
125819,-90.9090909090909,6,2,1,5,0,1
125885,-90.9090909090909,6,2,1,77,0,1
126080,-90.9090909090909,6,2,1,5,0,1
126146,-90.9090909090909,6,2,1,77,0,1
126929,-83.3333333333333,6,2,1,77,0,1
127124,-83.3333333333333,6,2,1,5,0,1
127189,-83.3333333333333,6,2,1,77,0,1
127384,-83.3333333333333,6,2,1,5,0,1
127450,-83.3333333333333,6,2,1,77,0,1
127645,-83.3333333333333,6,2,1,5,0,1
127711,-83.3333333333333,6,2,1,77,0,1
127906,-83.3333333333333,6,2,1,5,0,1
127972,-83.3333333333333,6,2,1,77,0,1
128689,-83.3333333333333,6,2,1,5,0,1
128755,-83.3333333333333,6,2,1,77,0,1
128950,-83.3333333333333,6,2,1,5,0,1
129016,-83.3333333333333,6,2,1,77,0,1
129211,-83.3333333333333,6,2,1,5,0,1
129277,-83.3333333333333,6,2,1,77,0,1
131558,-83.3333333333333,6,2,1,5,0,1
131624,-95.2380952380952,6,2,1,70,0,0
134950,-95.2380952380952,6,2,1,5,0,0
135016,-95.2380952380952,6,2,1,70,0,0
135211,-95.2380952380952,6,2,1,5,0,0
135276,-95.2380952380952,6,2,1,70,0,0
135732,-95.2380952380952,6,2,1,5,0,0
135798,-95.2380952380952,6,2,1,70,0,0
135993,-95.2380952380952,6,2,1,5,0,0
136059,-95.2380952380952,6,2,1,70,0,0
136776,-95.2380952380952,6,2,1,5,0,0
136842,-95.2380952380952,6,2,1,70,0,0
137102,-95.2380952380952,6,2,1,75,0,0
137297,-95.2380952380952,6,2,1,5,0,0
137363,-95.2380952380952,6,2,1,85,0,0
137558,-95.2380952380952,6,2,1,5,0,0
137624,-95.2380952380952,6,2,1,85,0,0
137885,-90.9090909090909,6,2,1,85,0,1
137950,-90.9090909090909,6,2,1,77,0,1
138080,-90.9090909090909,6,2,1,5,0,1
138146,-90.9090909090909,6,2,1,77,0,1
138341,-90.9090909090909,6,2,1,5,0,1
138407,-90.9090909090909,6,2,1,77,0,1
138602,-90.9090909090909,6,2,1,5,0,1
138668,-90.9090909090909,6,2,1,77,0,1
139645,-90.9090909090909,6,2,1,5,0,1
139711,-90.9090909090909,6,2,1,77,0,1
139906,-90.9090909090909,6,2,1,5,0,1
139972,-90.9090909090909,6,2,1,77,0,1
140167,-90.9090909090909,6,2,1,5,0,1
140233,-90.9090909090909,6,2,1,77,0,1
141211,-90.9090909090909,6,2,1,5,0,1
141276,-90.9090909090909,6,2,1,77,0,1
143297,-90.9090909090909,6,2,1,5,0,1
143363,-90.9090909090909,6,2,1,77,0,1
144146,-357.142857142857,6,2,1,80,0,0
144211,-357.142857142857,6,2,1,55,0,0
145711,-357.142857142857,6,2,2,55,0,0
145842,-357.142857142857,6,2,1,55,0,0
147211,-357.142857142857,6,2,1,5,0,0
147276,-357.142857142857,6,2,1,55,0,0
148320,-200,6,2,1,55,0,0
148776,-200,6,2,1,5,0,0
148842,-285.714285714286,6,2,3,55,0,0
148972,-285.714285714286,6,2,1,55,0,0
150341,-285.714285714286,6,2,1,5,0,0
150407,-285.714285714286,6,2,1,70,0,0
153472,-285.714285714286,6,2,1,70,0,0
153537,-285.714285714286,6,2,2,65,0,0

[Colours]
Combo1 : 255,64,64
Combo2 : 254,126,168
Combo3 : 254,148,129

[HitObjects]
485,148,670,6,0,B|503:118|510:81|479:26|426:-6|329:40|328:78|347:121|382:144|422:115,1,326.024990050507,4|0,0:1|0:0,0:0:0:0:
419,116,2234,2,0,B|327:68|257:139|301:189|201:248|130:190,1,326.024990050507,2|0,0:3|0:0,0:0:0:0:
73,162,3800,5,2,0:2:0:0:
47,262,4061,1,2,0:2:0:0:
133,357,4322,1,2,0:2:0:0:
274,325,4583,1,2,0:2:0:0:
282,170,4843,2,0,B|295:127|360:128|360:128|322:148|310:179,1,165.375,2|0,0:2|0:0,0:0:0:0:
311,175,5365,6,0,B|322:146|353:128|379:121|379:121|353:104|309:93|276:130|240:154|258:192|228:211|168:227|133:178,1,380.362488392258,4|0,0:1|0:0,0:0:0:0:
83,121,6930,5,2,0:2:0:0:
168,49,7191,1,2,0:2:0:0:
310,36,7452,1,2,0:2:0:0:
412,176,7713,1,2,0:2:0:0:
274,311,7974,2,0,B|204:322|204:322|182:346|182:346|118:357,1,165.375,2|0,0:2|0:0,0:0:0:0:
42,365,8496,6,0,B|91:212|91:212|62:219|34:209|16:185,1,233.88749286232,4|0,0:1|0:0,0:0:0:0:
78,138,9278,2,0,B|158:123|212:100|212:100|219:128|232:146|253:157,1,207.9,2|0,0:3|0:0,0:0:0:0:
319,199,10061,5,2,0:2:0:0:
289,345,10321,1,2,0:2:0:0:
109,375,10582,1,2,0:2:0:0:
10,177,10843,1,2,0:2:0:0:
244,28,11104,2,0,B|262:2|298:12|298:12|320:41|309:82|275:102,1,165.375,2|0,0:2|0:0,0:0:0:0:
230,159,11626,5,4,0:2:0:0:
256,192,11691,12,0,13061,3:2:0:0:
137,8,13191,5,6,3:2:0:0:
129,53,13279,5,2,0:2:0:0:
121,98,13366,5,2,0:2:0:0:
148,128,13452,5,2,0:2:0:0:
153,159,13540,5,2,0:2:0:0:
159,190,13627,5,2,0:2:0:0:
120,223,13713,5,2,0:2:0:0:
116,244,13801,5,2,0:2:0:0:
112,266,13888,5,2,0:2:0:0:
147,298,13974,6,0,B|184:309|212:283|190:268|225:237|259:256,1,127.57499610672,10|0,0:2|0:0,0:0:0:0:
328,278,14235,2,0,B|331:257|349:242|349:242|333:224|326:194,1,85.0499974044801,2|0,3:2|0:0,0:0:0:0:
152,73,14496,2,0,B|182:80|203:109|203:109|232:87|277:80,1,127.57499610672,2|0,3:2|0:0,0:0:0:0:
337,67,14756,6,0,B|316:92|288:108|288:108|330:208,1,170.09999480896,2|2,3:2|0:2,0:0:0:0:
419,344,15148,2,0,B|395:314|346:312|346:312|330:344|306:360|271:360,1,170.09999480896,0|2,3:2|3:2,0:0:0:0:
122,326,15539,1,10,0:2:0:0:
274,285,15669,1,2,3:2:0:0:
239,192,15800,1,2,3:2:0:0:
117,224,15931,1,2,0:2:0:0:
152,73,16061,2,0,L|166:160,1,85.0499974044801,2|2,3:2|0:2,0:0:0:0:
13,21,16322,5,6,3:2:0:0:
7,56,16409,6,0,L|-2:120,1,56.6999982696534,2|2,0:2|0:2,0:0:0:0:
130,315,16583,5,2,0:2:0:0:
124,280,16670,6,0,L|115:216,1,56.6999982696534,2|2,0:2|0:2,0:0:0:0:
252,73,16843,5,2,0:2:0:0:
246,108,16930,6,0,L|237:172,1,56.6999982696534,2|2,0:2|0:2,0:0:0:0:
403,321,17104,6,0,B|432:290|411:245|411:245|410:274|392:287,1,127.57499610672,10|0,0:2|0:0,0:0:0:0:
393,285,17365,2,0,P|340:311|280:265,1,127.57499610672,2|0,3:2|0:0,0:0:0:0:
230,226,17626,2,0,B|197:244|167:246|167:246|182:277|182:322,1,127.57499610672,2|0,3:2|0:0,0:0:0:0:
200,376,17887,5,2,3:2:0:0:
55,306,18017,1,2,0:2:0:0:
230,226,18148,2,0,B|267:215|295:241|273:256|308:287|342:268,1,127.57499610672,2|0,0:2|0:0,0:0:0:0:
409,245,18409,2,0,B|426:225|422:196|422:196|411:213|388:226,1,85.0499974044801,2|0,0:2|3:2,0:0:0:0:
324,12,18670,5,10,0:2:0:0:
226,62,18800,1,2,3:2:0:0:
210,162,18930,1,2,3:2:0:0:
269,234,19061,1,2,0:2:0:0:
349,260,19191,1,2,3:2:0:0:
421,234,19322,1,2,0:2:0:0:
475,107,19452,6,0,B|425:113|425:113|401:135|401:135|350:143,1,127.57499610672,6|0,3:2|0:0,0:0:0:0:
292,175,19713,2,0,B|375:160,1,85.0499974044801,2|0,0:2|3:2,0:0:0:0:
212,37,19974,2,0,B|295:51,1,85.0499974044801,2|2,0:2|3:2,0:0:0:0:
133,224,20235,6,0,B|60:238|60:238|35:222|34:187,1,127.57499610672,10|0,0:2|0:0,0:0:0:0:
49,69,20496,2,0,B|32:89|36:118|36:118|47:101|70:88,1,85.0499974044801,2|0,3:2|0:0,0:0:0:0:
198,137,20756,2,0,B|215:157|211:186|211:186|200:169|177:156,1,85.0499974044801,2|0,3:2|0:0,0:0:0:0:
24,360,21017,6,0,B|71:373|108:339|83:316|125:278|170:303,1,170.09999480896,2|2,3:2|0:2,0:0:0:0:
269,344,21409,1,2,3:2:0:0:
308,182,21539,2,0,B|329:218|329:218|306:253,1,85.0499974044801,2|2,0:2|3:2,0:0:0:0:
443,366,21800,6,0,B|416:288|416:288|443:274|451:243,1,127.57499610672,10|0,0:2|0:0,0:0:0:0:
486,191,22061,2,0,P|502:147|482:109,1,85.0499974044801,2|0,3:2|0:0,0:0:0:0:
380,21,22322,1,2,3:2:0:0:
380,21,22583,6,0,B|356:55|311:44|311:44|296:13|260:4,1,134.662496404123,2|0,3:2|0:0,0:0:0:0:
245,79,22843,1,2,0:2:0:0:
245,79,22974,1,2,3:2:0:0:
109,4,23104,2,0,L|122:97,1,89.7749976027489,2|0,0:2|3:2,0:0:0:0:
0,229,23365,6,0,B|87:200|87:200|98:222|119:244,1,134.662496404123,10|0,0:2|0:0,0:0:0:0:
170,279,23626,2,0,P|151:232|174:190,1,89.7749976027489,2|0,3:2|0:0,0:0:0:0:
344,221,23887,2,0,P|301:240|254:221,1,89.7749976027489,2|0,3:2|0:0,0:0:0:0:
421,29,24148,5,2,3:2:0:0:
414,57,24278,1,2,3:2:0:0:
318,104,24409,5,2,3:2:0:0:
325,132,24539,1,2,3:2:0:0:
452,181,24669,5,2,3:2:0:0:
425,263,24799,1,0,3:2:0:0:
371,378,24931,6,0,B|332:388|302:360|322:342|288:311|251:331,1,141.75,10|0,0:2|0:0,0:0:0:0:
176,337,25191,1,4,3:2:0:0:
176,337,25452,1,8,0:2:0:0:
87,223,25583,1,8,0:2:0:0:
229,108,25713,5,6,3:2:0:0:
129,120,25843,1,2,0:2:0:0:
87,223,25974,1,2,3:2:0:0:
129,326,26104,1,2,0:2:0:0:
229,338,26235,1,10,0:2:0:0:
319,38,26496,6,0,L|301:189,1,148.83749545784,2|0,3:2|0:0,0:0:0:0:
295,260,26756,2,0,B|352:250|352:250|381:265|381:265|440:257,1,148.83749545784,2|0,3:2|0:0,0:0:0:0:
508,227,27017,1,10,0:2:0:0:
105,30,27278,6,0,B|189:0|189:0|204:30|237:38,1,148.83749545784,6|0,3:2|0:0,0:0:0:0:
312,56,27539,1,2,3:2:0:0:
266,199,27669,1,2,0:2:0:0:
319,39,27800,1,10,0:2:0:0:
493,302,28061,6,0,P|430:313|409:234,1,148.83749545784,2|0,3:2|0:0,0:0:0:0:
391,175,28322,2,0,B|290:198|290:198|318:203|339:227,1,148.83749545784,2|0,3:2|0:0,0:0:0:0:
275,268,28582,1,10,0:2:0:0:
195,345,28713,1,0,3:2:0:0:
60,230,28844,5,6,3:2:0:0:
158,246,28974,1,2,0:2:0:0:
228,161,29104,1,2,3:2:0:0:
217,50,29235,1,2,0:2:0:0:
125,9,29365,1,10,0:2:0:0:
403,78,29626,6,0,B|387:64|370:38|370:38|390:141,1,148.83749545784,2|0,3:2|0:0,0:0:0:0:
426,200,29887,2,0,B|442:186|459:160|459:160|439:263,1,148.83749545784,2|0,3:2|0:0,0:0:0:0:
427,328,30148,2,0,P|376:343|335:319,1,99.2249969718934,10|0,0:2|3:2,0:0:0:0:
180,96,30409,6,0,B|179:133|155:166|155:166|187:187|197:228,1,148.83749545784,2|0,3:2|0:0,0:0:0:0:
201,312,30669,2,0,B|163:311|130:287|130:287|109:319|68:329,1,148.83749545784,2|0,3:2|0:0,0:0:0:0:
45,253,30930,2,0,B|45:215|69:182|69:182|37:161|27:120,1,148.83749545784,10|0,0:2|0:0,0:0:0:0:
5,49,31191,1,2,3:2:0:0:
110,112,31322,1,8,0:2:0:0:
233,43,31452,2,0,B|183:-4|110:28|110:28|157:31|178:60,1,198.449993943787,2|0,3:2|3:2,0:0:0:0:
105,125,31843,1,8,0:2:0:0:
279,107,31974,5,6,3:2:0:0:
223,191,32104,1,2,0:2:0:0:
271,289,32235,1,2,3:2:0:0:
382,320,32365,1,2,0:2:0:0:
454,254,32496,1,10,0:2:0:0:
201,59,32756,6,0,B|241:47|273:77|251:96|287:129|326:108,1,148.83749545784,2|0,3:2|0:0,0:0:0:0:
380,65,33017,2,0,B|356:93|338:107|338:107|380:196,1,148.83749545784,2|0,3:2|0:0,0:0:0:0:
426,262,33278,1,10,0:2:0:0:
169,365,33539,6,0,B|198:279|198:279|169:263|160:229,1,148.83749545784,6|0,3:2|0:0,0:0:0:0:
124,172,33800,1,2,3:2:0:0:
0,216,33930,1,2,0:2:0:0:
35,93,34061,1,10,0:2:0:0:
199,279,34322,6,0,P|261:299|320:244,1,148.83749545784,2|0,3:2|0:0,0:0:0:0:
356,179,34583,2,0,P|336:241|391:300,1,148.83749545784,2|0,3:2|0:0,0:0:0:0:
460,312,34843,1,6,3:2:0:0:
346,384,34974,1,8,0:2:0:0:
199,279,35104,6,0,B|145:264|102:303|131:329|83:372|30:349,2,198.449993943787,6|0|8,3:2|3:2|0:2,0:0:0:0:
30,127,35887,2,0,B|84:112|127:151|98:177|146:220|200:198,2,198.449993943787,0|0|10,3:2|3:2|0:2,0:0:0:0:
21,242,36540,1,2,3:2:0:0:
182,125,36669,6,0,B|247:134|247:134|274:160|274:160|341:173,2,170.09999480896,2|0|8,3:2|3:2|0:2,0:0:0:0:
433,39,37451,1,0,3:2:0:0:
296,0,37582,1,8,0:2:0:0:
447,45,37712,2,0,L|429:181,1,127.57499610672,0|0,3:2|0:0,0:0:0:0:
345,161,37973,2,0,L|363:297,1,127.57499610672,8|0,0:2|0:0,0:0:0:0:
395,359,38235,5,6,3:2:0:0:
388,375,38365,1,2,0:2:0:0:
306,345,38496,1,2,0:2:0:0:
299,361,38626,1,2,0:2:0:0:
220,337,38756,2,0,B|208:300|208:300|226:264,1,75.6,2|2,0:2|0:2,0:0:0:0:
293,51,39017,6,0,B|281:87|281:87|299:123,1,75.6,2|2,0:2|0:2,0:0:0:0:
197,139,39280,2,0,B|181:106|181:106|193:70,1,75.6,2|2,0:2|0:2,0:0:0:0:
97,88,39541,2,0,B|85:124|85:124|103:160,1,75.6,2|2,0:2|0:2,0:0:0:0:
118,318,39802,6,0,L|51:333,2,66.1499979812623,2|2|2,0:2|0:2|0:2,0:0:0:0:
118,230,40194,2,0,L|182:244,2,66.1499979812623,2|2|2,0:2|0:2|0:2,0:0:0:0:
261,322,40587,2,0,L|200:335,1,56.6999982696534,2|2,0:2|0:2,0:0:0:0:
373,235,40848,2,0,L|259:209,1,113.399996539307,2|0,0:2|0:0,0:0:0:0:
262,209,41240,1,2,0:2:0:0:
154,103,41365,6,0,B|181:75|219:86|219:86|232:111|264:118,2,113.399996539307,2|2|2,0:2|0:2|0:2,0:0:0:0:
32,326,42148,2,0,B|84:289|84:289|51:178,1,170.09999480896,2|2,0:2|0:2,0:0:0:0:
53,187,42669,1,2,0:2:0:0:
357,65,42930,6,0,B|317:25|258:41|258:41|244:77|210:88,1,170.09999480896,2|0,0:2|0:0,0:0:0:0:
216,85,43452,1,2,0:2:0:0:
303,259,43713,2,0,B|368:246|368:246|391:225|391:225|463:206,1,170.09999480896,2|0,0:2|0:0,0:0:0:0:
465,210,44235,2,0,L|458:272,1,56.6999982696534,2|0,0:2|0:0,0:0:0:0:
505,360,44496,6,0,B|409:423|329:322|377:243|288:174|205:234,1,377.054988493195,4|0,0:1|0:0,0:0:0:0:
171,304,47104,6,0,B|144:284|101:274|101:274|134:134,1,212.625008111,14|0,3:2|0:0,0:0:0:0:
171,68,47365,2,0,B|197:87|240:97|240:97|209:230,1,212.625008111,14|0,3:2|0:0,0:0:0:0:
171,304,47626,6,0,B|283:274|372:385|372:385|355:252|481:186,1,466.829997150696,14|0,3:2|0:0,0:0:0:0:
479,266,50235,6,0,B|425:295|372:252|399:214|347:176|299:207,1,212.625008111,14|0,3:2|0:0,0:0:0:0:
232,249,50496,2,0,B|202:121|202:121|243:106|263:69,1,212.625008111,14|0,3:2|0:0,0:0:0:0:
335,87,50756,6,0,B|347:54|348:15|308:-32|251:-54|163:7|168:45|193:95|240:103|267:65,1,326.024990050507,14|0,3:2|0:0,0:0:0:0:
263,69,52322,6,0,B|211:41|170:82|196:111|138:144|97:111,1,184.274994376373,2|0,0:2|0:0,0:0:0:0:
51,69,53235,6,0,L|73:233,1,155.924995241547,2|0,0:2|0:0,0:0:0:0:
83,293,54017,5,2,0:2:0:0:
256,192,54083,12,0,56756,0:0:0:0:
326,3,57017,5,4,3:2:0:0:
326,3,57278,2,0,B|309:29|290:42|290:42|313:105,1,120.487502298117,2|0,0:2|0:0,0:0:0:0:
343,177,57539,1,2,0:2:0:0:
219,353,57800,2,0,B|207:362|193:383|193:383|208:301,1,120.487502298117,10|0,0:2|0:0,0:0:0:0:
221,233,58061,2,0,B|254:206|294:224|294:224|304:253|338:266,1,120.487502298117,2|0,0:2|0:0,0:0:0:0:
378,301,58322,1,2,0:2:0:0:
504,40,58583,6,0,B|458:16|423:51|445:76|395:106|359:77,1,160.650003064156,2|0,3:2|0:0,0:0:0:0:
240,33,58974,1,2,0:2:0:0:
365,81,59104,2,0,B|397:114|374:163|374:163|373:132|353:117,1,134.662496404123,2|0,0:2|0:0,0:0:0:0:
281,182,59365,2,0,B|245:200|245:200|194:181,1,80.3250015320778,10|2,0:2|0:2,0:0:0:0:
54,164,59626,2,0,B|90:146|90:146|141:165,1,80.3250015320778,2|0,0:2|0:0,0:0:0:0:
150,317,59887,2,0,B|132:281|132:281|151:230,1,80.3250015320778,2|2,3:2|0:2,0:0:0:0:
195,72,60148,5,2,3:2:0:0:
195,72,60409,1,2,0:2:0:0:
263,114,60539,1,0,0:0:0:0:
331,63,60669,1,2,0:2:0:0:
488,160,60930,2,0,L|474:281,1,120.487502298117,10|0,0:2|0:0,0:0:0:0:
479,351,61191,2,0,B|447:355|424:332|424:332|410:360|372:364,1,120.487502298117,2|0,0:2|0:0,0:0:0:0:
301,377,61452,1,2,3:2:0:0:
334,105,61713,6,0,B|346:83|372:61|422:83|415:134|380:174,1,160.650003064156,2|0,3:2|0:0,0:0:0:0:
337,244,62104,1,2,0:2:0:0:
210,188,62235,2,0,B|164:194|164:194|142:216|142:216|99:221,1,120.487502298117,2|0,0:2|0:0,0:0:0:0:
29,265,62496,2,0,B|28:248|11:229|11:229|25:211|30:178,1,80.3250015320778,10|2,0:2|0:2,0:0:0:0:
38,30,62756,2,0,B|39:47|56:66|56:66|42:84|37:117,1,80.3250015320778,2|2,0:2|0:2,0:0:0:0:
196,139,63017,2,0,B|179:140|160:157|160:157|142:143|109:138,1,80.3250015320778,10|2,0:2|0:2,0:0:0:0:
325,15,63278,5,6,3:2:0:0:
325,15,63539,1,2,0:2:0:0:
374,72,63669,1,0,0:0:0:0:
331,132,63800,1,2,0:2:0:0:
501,182,64061,2,0,B|479:203|450:213|450:213|472:241|479:274,1,120.487502298117,10|0,0:2|0:0,0:0:0:0:
511,340,64322,2,0,B|480:326|450:348|466:367|431:382|402:367,1,120.487502298117,2|0,0:2|0:0,0:0:0:0:
332,349,64583,1,2,3:2:0:0:
250,112,64843,6,0,P|303:83|316:208,1,240.975004596233,2|0,3:2|0:0,0:0:0:0:
283,267,65365,2,0,P|257:237|254:192,1,80.3250015320778
127,39,65626,2,0,B|146:60|168:71|168:71|135:136,1,120.487502298117,10|0,0:2|0:0,0:0:0:0:
86,195,65887,1,2,0:2:0:0:
86,195,66017,1,2,0:2:0:0:
210,295,66148,2,0,P|170:301|131:276,1,80.3250015320778,2|2,3:2|0:2,0:0:0:0:
329,165,66409,5,2,3:2:0:0:
228,116,66539,1,2,0:2:0:0:
185,226,66669,1,2,0:2:0:0:
342,377,66931,2,0,B|389:369|389:369|408:354|408:354|469:342,1,120.487502298117,2|0,3:2|0:0,0:0:0:0:
505,284,67191,2,0,B|443:133|443:133|479:118|514:85,1,240.975004596233,10|0,0:2|0:0,0:0:0:0:
428,11,67713,1,2,3:2:0:0:
428,11,67843,1,2,0:2:0:0:
339,104,67974,6,0,B|299:136|251:114|251:114|239:80|198:64,1,160.650003064156,2|0,3:2|0:0,0:0:0:0:
59,217,68495,1,2,0:2:0:0:
59,217,68626,1,2,0:2:0:0:
155,164,68756,2,0,L|140:246,1,80.3250015320778,10|2,0:2|0:2,0:0:0:0:
241,335,69017,2,0,P|297:341|343:292,1,120.487502298117,2|0,3:2|0:0,0:0:0:0:
369,231,69278,2,0,P|363:287|412:333,1,120.487502298117,2|0,3:2|0:0,0:0:0:0:
461,257,69539,6,0,B|450:248|445:236|445:236|441:250|433:264,2,56.6999982696534,2|2|2,3:2|0:2|0:2,0:0:0:0:
408,138,70322,2,0,B|419:147|424:159|424:159|428:145|436:131,2,56.6999982696534,2|2|2,0:2|0:2|0:2,0:0:0:0:
260,331,71104,6,0,B|249:316|249:316|255:298|255:298|266:313|266:313|261:332,2,66.1499979812623,2|2|2,0:2|0:2|0:2,0:0:0:0:
237,164,71887,2,0,B|247:178|247:178|241:196|241:196|230:181|230:181|235:162,2,66.1499979812623,2|2|2,0:2|0:2|0:2,0:0:0:0:
137,264,72408,1,0,3:2:0:0:
21,366,72670,6,0,B|-6:349|-2:312|-2:312|25:312|46:335,1,113.399996539307,2|2,3:2|0:2,0:0:0:0:
137,264,73191,1,2,0:2:0:0:
253,357,73452,2,0,B|280:340|276:303|276:303|249:303|228:326,1,113.399996539307,2|2,0:2|0:2,0:0:0:0:
144,384,73974,1,2,0:2:0:0:
92,142,74234,6,0,B|152:109|195:164|167:211|234:261|283:219,1,226.799993078613,2|2,0:2|0:2,0:0:0:0:
372,199,74887,1,2,0:2:0:0:
372,199,75017,2,0,P|379:166|365:133,1,56.6999982696534,2|2,0:2|0:2,0:0:0:0:
433,99,75278,2,0,P|407:76|372:72,1,56.6999982696534,2|2,0:2|0:2,0:0:0:0:
376,0,75539,2,0,P|343:10|322:39,1,56.6999982696534,2|2,3:2|0:2,0:0:0:0:
260,125,75800,6,0,B|248:149|250:174|250:174|263:159|278:154,2,78.435001136982,2|0|2,3:2|0:0|0:2,0:0:0:0:
260,125,76322,1,0,0:0:0:0:
420,205,76583,2,0,B|432:229|430:254|430:254|417:239|402:234,2,78.435001136982,2|2|2,0:2|0:2|0:2,0:0:0:0:
389,137,76974,1,0,0:0:0:0:
389,137,77104,1,0,0:0:0:0:
187,313,77365,6,0,B|223:328|223:328|248:295,2,78.435001136982,2|2|2,3:2|0:2|0:2,0:0:0:0:
187,313,77887,1,0,0:0:0:0:
403,328,78148,2,0,B|367:343|367:343|342:310,2,78.435001136982,2|2|2,0:2|0:2|0:2,0:0:0:0:
393,257,78539,1,0,0:0:0:0:
393,257,78670,1,0,0:0:0:0:
246,182,78930,5,2,3:2:0:0:
115,229,79191,1,2,0:2:0:0:
73,87,79452,1,2,0:2:0:0:
374,22,79713,2,0,B|333:-16|278:2|278:2|261:38|215:51,1,184.27499156456,2|0,0:2|0:0,0:0:0:0:
217,51,80235,1,2,0:2:0:0:
336,153,80496,6,0,P|374:164|405:148,1,70.8750027036668,2|2,3:2|0:2,0:0:0:0:
470,112,80756,5,2,0:2:0:0:
512,203,81017,1,2,0:2:0:0:
461,306,81278,1,2,0:2:0:0:
237,335,81539,5,2,0:2:0:0:
304,270,81669,1,2,0:2:0:0:
249,195,81800,1,2,0:2:0:0:
410,63,82061,6,0,B|350:89|301:46|330:13|270:-20|224:9,1,212.625008111,2|0,3:2|0:0,0:0:0:0:
54,60,82583,1,0,3:2:0:0:
113,215,82713,1,0,3:2:0:0:
261,163,82843,2,0,B|319:174|319:174|345:198|345:198|400:212,1,141.75,0|0,3:2|0:0,0:0:0:0:
449,163,83104,6,0,B|425:185|395:201|395:201|425:292,1,155.925004758454,8|0,3:2|0:0,0:0:0:0:
484,334,83365,6,0,B|436:312|396:347|420:374|371:401|334:377,1,170.09999480896,8|0,3:2|0:0,0:0:0:0:
252,351,83626,6,0,L|273:191,1,155.925004758454,6|0,3:2|0:0,0:0:0:0:
249,128,83887,2,0,L|233:243,1,103.950003172302,2|0,3:2|0:0,0:0:0:0:
35,336,84148,2,0,L|19:220,1,103.950003172302,10|0,0:2|0:0,0:0:0:0:
313,80,84409,2,0,B|283:43|222:41|222:41|202:80|173:101|129:100,1,207.900006344605,2|0,3:2|3:2,0:0:0:0:
6,150,84800,1,2,0:2:0:0:
109,218,84930,1,14,0:2:0:0:
249,128,85061,1,2,3:2:0:0:
74,0,85191,6,0,B|34:42|62:104|62:104|64:64|89:46,1,177.1875,6|0,3:2|0:0,0:0:0:0:
264,43,85452,2,0,B|238:40|213:27|213:27|199:45|167:56,1,103.950003172302,2|0,3:2|0:0,0:0:0:0:
17,227,85713,2,0,B|46:226|68:243|68:243|85:221|114:214,1,103.950003172302,10|0,0:2|0:0,0:0:0:0:
422,131,85974,2,0,B|334:115|334:115|304:132|312:172,1,155.925004758454,2|0,3:2|0:0,0:0:0:0:
309,248,86235,5,2,3:2:0:0:
227,354,86365,1,2,0:2:0:0:
320,258,86496,1,14,0:2:0:0:
180,126,86626,1,2,3:2:0:0:
393,0,86757,6,0,B|342:-23|300:13|325:41|274:70|235:45,1,177.1875,6|0,3:2|0:0,0:0:0:0:
161,22,87017,2,0,P|140:71|165:117,1,103.950003172302,2|0,3:2|0:0,0:0:0:0:
383,166,87278,2,0,P|334:145|288:170,1,103.950003172302,10|0,0:2|0:0,0:0:0:0:
64,342,87539,2,0,B|142:324|142:324|175:288|175:288|267:270,1,207.900006344605,6|0,3:2|3:2,0:0:0:0:
383,166,87931,1,0,0:0:0:0:
203,45,88061,2,0,B|166:64|131:71|131:71|152:109|156:147,1,155.925004758454,10|0,0:2|0:0,0:0:0:0:
177,216,88322,5,6,3:2:0:0:
239,304,88452,1,2,0:2:0:0:
351,312,88582,1,2,3:2:0:0:
427,231,88713,1,2,0:2:0:0:
412,121,88843,1,10,0:2:0:0:
319,62,88974,1,2,0:2:0:0:
218,112,89104,5,6,3:2:0:0:
116,60,89235,1,2,3:2:0:0:
12,12,89365,2,0,L|36:170,1,155.925004758454,2|0,3:2|0:0,0:0:0:0:
14,239,89626,2,0,L|-3:123,1,103.950003172302,8|0,0:2|3:2,0:0:0:0:
362,110,89887,5,6,3:2:0:0:
231,252,90017,1,2,0:2:0:0:
160,96,90148,2,0,B|203:77|242:104|219:138|261:159|300:138,1,155.925004758454,2|0,3:2|0:0,0:0:0:0:
362,110,90408,1,10,0:2:0:0:
231,252,90539,1,2,0:2:0:0:
421,338,90669,2,0,B|443:290|443:290|405:234,1,103.950003172302,2|0,3:2|0:0,0:0:0:0:
185,330,90930,2,0,B|233:352|233:352|289:314,1,103.950003172302,2|0,3:2|0:0,0:0:0:0:
362,110,91191,2,0,B|346:212,1,103.950003172302,8|0,0:2|0:0,0:0:0:0:
232,352,91452,5,2,3:2:0:0:
345,212,91583,1,2,0:2:0:0:
158,88,91713,2,0,B|135:182|135:182|163:191|176:221,1,155.925004758454,2|0,3:2|0:0,0:0:0:0:
196,289,91974,1,10,0:2:0:0:
60,164,92104,1,2,0:2:0:0:
271,92,92235,2,0,B|297:140|297:140|272:185,1,103.950003172302,2|0,3:2|0:0,0:0:0:0:
0,333,92496,5,2,3:2:0:0:
111,371,92626,1,0,0:0:0:0:
195,296,92756,1,8,0:2:0:0:
280,272,92887,1,0,3:2:0:0:
356,355,93018,6,0,B|379:381|425:380|425:380|439:350|460:333|493:332,1,155.925004758454,2|0,3:2|0:0,0:0:0:0:
511,264,93278,2,0,P|459:257|407:288,1,103.950003172302,2|0,3:2|0:0,0:0:0:0:
228,163,93539,2,0,P|282:151|333:177,1,103.950003172302,10|0,0:2|0:0,0:0:0:0:
502,85,93800,2,0,B|428:49|342:109|386:157|302:209|218:157,1,311.850009516907,2|0,3:2|0:0,0:0:0:0:
44,58,94322,2,0,B|62:77|95:92|95:92|61:192,1,155.925004758454,10|0,0:2|0:0,0:0:0:0:
38,246,94583,5,2,3:2:0:0:
124,348,94713,1,2,0:2:0:0:
250,237,94843,2,0,B|232:208|193:216|193:216|167:245|175:289|210:314,1,170.09999480896,2|0,3:2|0:0,0:0:0:0:
258,365,95104,1,10,0:2:0:0:
360,302,95235,1,2,0:2:0:0:
512,211,95365,5,6,3:2:0:0:
512,211,95626,1,0,3:2:0:0:
329,188,95756,1,8,0:2:0:0:
440,356,95887,1,0,3:2:0:0:
409,100,96017,1,8,0:2:0:0:
207,348,96148,6,0,B|98:325|98:325|120:321|142:299,1,155.925004758454,6|0,3:2|0:0,0:0:0:0:
189,243,96409,2,0,P|213:202|192:145,1,103.950003172302,2|0,3:2|0:0,0:0:0:0:
6,46,96670,2,0,P|55:73|105:53,1,103.950003172302,10|0,0:2|0:0,0:0:0:0:
235,14,96930,1,2,3:2:0:0:
200,146,97061,5,2,0:2:0:0:
299,148,97191,1,2,3:2:0:0:
357,228,97322,1,2,0:2:0:0:
338,308,97452,1,14,0:2:0:0:
223,343,97583,1,2,3:2:0:0:
80,383,97713,6,0,B|46:369|16:368|16:368|37:267,1,155.925004758454,6|0,3:2|0:0,0:0:0:0:
81,200,97974,2,0,P|106:156|77:104,1,103.950003172302,2|0,3:2|0:0,0:0:0:0:
0,0,98235,2,0,P|38:29|101:9,1,103.950003172302,10|0,0:2|0:0,0:0:0:0:
336,7,98496,5,2,3:2:0:0:
168,74,98626,1,2,0:2:0:0:
343,98,98756,1,2,3:2:0:0:
223,150,98886,1,2,0:2:0:0:
351,190,99017,1,14,0:2:0:0:
272,224,99147,1,2,3:2:0:0:
475,343,99278,6,0,B|431:324|395:354|417:378|370:400|332:378,1,155.925004758454,6|0,3:2|0:0,0:0:0:0:
268,346,99539,2,0,P|218:327|167:352,1,103.950003172302,2|0,3:2|0:0,0:0:0:0:
17,376,99800,2,0,P|36:326|11:275,1,103.950003172302,10|0,0:2|0:0,0:0:0:0:
127,32,100061,2,0,B|79:71|79:71|116:162,1,155.925004758454,6|0,3:2|0:0,0:0:0:0:
93,230,100322,2,0,P|144:231|181:197,1,103.950003172302,0|0,3:2|0:0,0:0:0:0:
269,82,100583,1,10,0:2:0:0:
181,197,100713,1,0,0:0:0:0:
417,122,100843,6,0,B|465:73|473:13|410:-18|370:9|367:56,1,207.900006344605,6|0,3:2|3:2,0:0:0:0:
503,212,101235,1,2,0:2:0:0:
262,99,101365,2,0,B|202:106|202:106|174:131|174:131|104:139,1,155.925004758454,10|0,0:2|0:0,0:0:0:0:
40,147,101626,1,6,3:2:0:0:
136,246,101756,1,0,3:2:0:0:
26,371,101887,1,0,3:2:0:0:
26,371,102148,2,0,B|76:341|76:341|134:359,1,103.950003172302,8|0,0:2|3:2,0:0:0:0:
256,113,102409,5,6,3:2:0:0:
198,216,102539,1,2,0:2:0:0:
301,329,102669,2,0,B|340:351|378:325|356:296|400:262|441:293,1,155.925004758454,2|0,3:2|0:0,0:0:0:0:
438,302,102930,2,0,B|403:275|359:309|381:338|343:364|304:342,1,155.925004758454,10|0,0:2|0:0,0:0:0:0:
232,311,103191,5,2,3:2:0:0:
211,184,103322,1,0,0:0:0:0:
197,21,103452,2,0,B|190:45|172:66|172:66|194:90|203:117,1,103.950003172302,2|0,3:2|0:0,0:0:0:0:
227,292,103713,1,8,0:2:0:0:
497,258,103974,5,2,3:2:0:0:
349,173,104104,1,2,0:2:0:0:
227,292,104235,2,0,B|191:255|216:200|216:200|218:235|240:251,1,155.925004758454,2|0,3:2|0:0,0:0:0:0:
238,249,104496,2,0,B|142:265|142:265|122:239|135:202,1,155.925004758454,10|0,0:2|0:0,0:0:0:0:
121,119,104756,5,2,3:2:0:0:
5,327,105017,1,2,3:2:0:0:
123,100,105278,1,10,0:2:0:0:
255,135,105408,1,0,3:2:0:0:
402,85,105539,6,0,L|368:296,2,207.900006344605,6|0|10,3:2|3:2|0:2,0:0:0:0:
256,152,106191,1,2,0:2:0:0:
100,89,106322,6,0,L|134:300,2,207.900006344605,2|2|10,3:2|3:2|0:2,0:0:0:0:
254,174,106974,1,0,3:2:0:0:
133,294,107104,5,2,3:2:0:0:
264,166,107235,1,0,3:2:0:0:
448,328,107365,2,0,B|407:329|377:363|377:363|371:318|327:295,1,155.925004758454,0|0,3:2|0:0,0:0:0:0:
286,254,107626,1,8,0:2:0:0:
164,349,107757,1,0,3:2:0:0:
53,268,107887,2,0,B|35:287|13:292|13:292|71:326|116:295,1,155.925004758454,4|0,3:2|0:0,0:0:0:0:
177,258,108148,6,0,B|186:230|202:209|202:209|181:190|165:155,1,103.950003172302,6|0,3:2|3:2,0:0:0:0:
100,56,108409,1,10,0:2:0:0:
0,214,108539,1,8,0:2:0:0:
256,121,108669,6,0,B|193:136|193:136|173:171|173:171|105:188,2,170.09999480896,6|2|2,3:2|3:2|3:2,0:0:0:0:
256,121,109451,2,0,B|338:101,1,85.0499974044801,2|2,3:2|0:2,0:0:0:0:
413,242,109712,2,0,B|330:222,1,85.0499974044801,10|2,0:2|0:2,0:0:0:0:
257,321,109973,5,2,3:2:0:0:
129,199,110234,1,2,3:2:0:0:
20,351,110495,1,2,3:2:0:0:
20,351,110755,2,0,P|6:316|34:270,1,85.0499974044801,2|2,3:2|0:2,0:0:0:0:
187,226,111016,2,0,P|152:240|106:212,1,85.0499974044801,10|2,0:2|0:2,0:0:0:0:
6,142,111277,5,2,3:2:0:0:
145,85,111538,1,2,3:2:0:0:
284,28,111799,1,2,3:2:0:0:
284,28,112060,2,0,B|276:48|261:65|261:65|282:87|291:114,1,85.0499974044801,2|2,3:2|0:2,0:0:0:0:
371,186,112320,1,10,0:2:0:0:
284,98,112451,1,2,0:2:0:0:
142,245,112582,6,0,B|190:267|230:232|206:205|255:178|292:202,1,170.09999480896,2|2,3:2|3:2,0:0:0:0:
289,200,113103,1,2,3:2:0:0:
435,325,113364,2,0,B|387:347|347:312|371:285|322:258|285:282,1,170.09999480896,2|8,3:2|0:2,0:0:0:0:
108,349,113886,5,2,3:2:0:0:
120,265,114147,1,2,3:2:0:0:
132,181,114408,1,2,3:2:0:0:
145,23,114669,2,0,L|138:105,1,75.6,2|2,3:2|0:2,0:0:0:0:
235,28,114929,2,0,L|228:110,1,75.6,2|2,3:2|0:2,0:0:0:0:
328,33,115190,5,2,3:2:0:0:
340,117,115451,1,2,3:2:0:0:
352,201,115712,1,2,3:2:0:0:
367,364,115973,2,0,L|360:288,1,75.6,2|2,3:2|0:2,0:0:0:0:
276,369,116233,2,0,L|269:293,1,75.6,2|2,3:2|0:2,0:0:0:0:
435,182,116495,5,2,3:2:0:0:
352,201,116756,1,2,3:2:0:0:
269,220,117017,1,2,3:2:0:0:
105,262,117277,2,0,L|182:242,1,75.6,2|2,3:2|0:2,0:0:0:0:
88,177,117538,2,0,L|165:157,1,75.6,2|2,3:2|0:2,0:0:0:0:
70,94,117799,5,2,3:2:0:0:
70,94,117929,1,2,0:2:0:0:
298,85,118060,2,0,B|267:114|231:98|231:98|215:70|186:61|153:73,1,151.2,2|0,3:2|3:2,0:0:0:0:
281,202,118582,1,0,3:2:0:0:
374,34,118842,1,0,3:2:0:0:
164,69,119103,6,0,B|135:39|100:37|69:51|69:51|76:16|157:-14|222:-6|282:35|252:98|289:146|384:152|438:96,1,519.75,4|0,0:1|0:0,0:0:0:0:
362,38,120668,6,0,B|269:131|269:131|379:303,1,330.749989906311,2|2,0:2|0:2,0:0:0:0:
401,133,122233,6,0,B|446:71|544:105|534:206|457:251|378:224|387:162|383:129|346:112|301:115|268:140,1,380.362488392258,2|0,0:2|0:0,0:0:0:0:
217,157,123798,5,2,0:2:0:0:
115,328,124059,1,0,0:0:0:0:
383,362,124320,1,0,3:2:0:0:
334,228,124451,1,0,3:2:0:0:
117,300,124581,6,0,B|162:310|192:273|166:253|204:220|246:232,1,155.925004758454,0|0,3:2|0:0,0:0:0:0:
334,228,124842,2,0,B|288:238|258:201|284:181|246:148|204:160,1,155.925004758454,8|0,3:2|0:0,0:0:0:0:
91,158,125103,1,8,3:2:0:0:
202,0,125233,1,8,3:2:0:0:
344,233,125364,6,0,B|406:217|406:217|429:186|429:186|493:171,1,155.925004758454,6|0,3:2|0:0,0:0:0:0:
481,306,125624,2,0,B|418:289|418:289|395:259|395:259|343:246,1,155.925004758454,2|0,3:2|0:0,0:0:0:0:
160,173,125885,2,0,B|212:186|212:186|235:216|235:216|298:233,1,155.925004758454,10|0,0:2|0:0,0:0:0:0:
298,245,126146,2,0,B|228:262|228:262|198:302|198:302|115:324,1,207.900006344605,2|0,3:2|3:2,0:0:0:0:
160,173,126537,1,2,0:2:0:0:
0,54,126668,1,10,0:2:0:0:
20,210,126798,1,2,3:2:0:0:
143,24,126929,6,0,B|187:-13|187:-13|298:13,1,170.09999480896,6|0,3:2|0:0,0:0:0:0:
315,90,127189,2,0,B|205:64|205:64|161:101,1,170.09999480896,2|0,3:2|0:0,0:0:0:0:
179,178,127450,2,0,B|223:141|223:141|332:166,1,170.09999480896,10|0,0:2|0:0,0:0:0:0:
350,243,127711,2,0,B|240:217|240:217|196:254,1,170.09999480896,2|0,3:2|0:0,0:0:0:0:
147,320,127972,5,2,3:2:0:0:
220,372,128102,1,2,0:2:0:0:
340,368,128233,1,10,0:2:0:0:
426,271,128363,1,2,3:2:0:0:
467,131,128494,6,0,B|425:91|363:119|363:119|403:121|421:146,1,170.09999480896,6|0,3:2|0:0,0:0:0:0:
254,179,128755,2,0,B|296:219|358:191|358:191|318:188|300:164,1,170.09999480896,2|0,3:2|0:0,0:0:0:0:
469,112,129016,2,0,B|427:72|365:100|365:100|405:102|423:127,1,170.09999480896,10|0,0:2|0:0,0:0:0:0:
234,195,129277,2,0,B|289:248|372:210|372:210|319:208|295:175,1,226.799993078613,6|0,3:2|3:2,0:0:0:0:
271,307,129668,1,0,0:0:0:0:
49,199,129798,2,0,B|31:267|72:307|72:307|74:269|98:247,1,170.09999480896,10|0,0:2|0:0,0:0:0:0:
144,211,130059,5,6,3:2:0:0:
261,32,130189,1,2,0:2:0:0:
172,55,130320,1,2,3:2:0:0:
354,162,130450,1,2,0:2:0:0:
330,73,130581,1,10,0:2:0:0:
214,251,130711,1,2,0:2:0:0:
303,228,130842,5,2,3:2:0:0:
121,123,130972,1,2,3:2:0:0:
144,211,131103,2,0,B|157:242|150:279|150:279|144:250|127:237,1,113.399996539307,2|0,3:2|0:0,0:0:0:0:
336,305,131363,2,0,B|289:286|249:323|282:350|235:378|190:364,1,170.09999480896,14|0,0:2|0:0,0:0:0:0:
122,350,131624,5,6,3:2:0:0:
37,305,131754,1,2,0:2:0:0:
30,204,131884,1,2,3:2:0:0:
102,136,132015,1,2,0:2:0:0:
182,72,132146,2,0,B|192:95|206:114|206:114|189:134|186:159,1,99.2249969718934,10|2,0:2|0:2,0:0:0:0:
398,0,132407,5,2,3:2:0:0:
319,55,132537,1,2,0:2:0:0:
312,156,132667,1,2,3:2:0:0:
384,224,132798,1,2,0:2:0:0:
460,294,132929,2,0,B|470:270|484:251|484:251|467:231|464:206,1,99.2249969718934,10|2,0:2|0:2,0:0:0:0:
216,311,133189,6,0,B|351:291|351:291|320:317|315:347,2,198.449993943787,2|0|10,3:2|3:2|0:2,0:0:0:0:
25,345,133842,1,2,0:2:0:0:
55,151,133972,2,0,L|40:249,1,99.2249969718934,2|2,3:2|0:2,0:0:0:0:
216,311,134233,2,0,L|201:213,1,99.2249969718934,2|2,3:2|0:2,0:0:0:0:
182,82,134494,1,10,0:2:0:0:
182,82,134755,6,0,B|174:105|155:121|155:121|255:107,1,148.83749545784,2|0,3:2|0:0,0:0:0:0:
336,111,135016,2,0,B|353:142|377:153|377:153|342:237,1,148.83749545784,2|0,3:2|0:0,0:0:0:0:
283,292,135276,2,0,P|232:305|193:271,1,99.2249969718934,10|2,0:2|0:2,0:0:0:0:
38,91,135537,2,0,B|2:128|27:183|27:183|29:148|51:132,1,148.83749545784,2|0,3:2|0:0,0:0:0:0:
126,117,135798,2,0,B|174:126|174:126|196:172|196:172|247:182,1,148.83749545784,2|0,3:2|0:0,0:0:0:0:
318,196,136059,1,10,0:2:0:0:
318,196,136320,5,2,3:2:0:0:
279,349,136450,1,2,0:2:0:0:
455,201,136581,2,0,B|475:221|501:239|501:239|453:337,1,148.83749545784,6|0,3:2|0:0,0:0:0:0:
443,351,136842,1,10,0:2:0:0:
300,273,136972,1,2,3:2:0:0:
455,201,137102,6,0,B|487:179|526:190|526:190|494:165|494:127,1,148.83749545784,6|0,3:2|0:0,0:0:0:0:
437,69,137363,2,0,B|397:49|354:73|379:98|339:120|301:98,1,148.83749545784,10|0,0:2|0:0,0:0:0:0:
234,84,137624,1,14,3:2:0:0:
357,217,137755,1,10,0:2:0:0:
180,331,137885,6,0,B|79:355|79:355|69:327|42:305,1,155.925004758454,6|0,3:2|0:0,0:0:0:0:
1,245,138146,2,0,L|25:84,1,155.925004758454,2|0,3:2|0:0,0:0:0:0:
66,22,138407,2,0,B|126:31|126:31|152:60|152:60|217:71,1,155.925004758454,10|0,0:2|0:0,0:0:0:0:
281,37,138668,5,2,3:2:0:0:
372,149,138798,1,2,0:2:0:0:
274,227,138929,1,2,3:2:0:0:
188,164,139059,1,2,0:2:0:0:
81,131,139189,1,14,0:2:0:0:
11,208,139320,1,2,3:2:0:0:
37,354,139450,6,0,B|81:376|123:353|95:325|144:295|179:316,1,155.925004758454,6|0,3:2|0:0,0:0:0:0:
232,352,139711,2,0,L|219:193,1,155.925004758454,2|0,3:2|0:0,0:0:0:0:
207,120,139972,2,0,B|251:100|293:121|265:149|314:179|349:158,1,155.925004758454,10|0,0:2|0:0,0:0:0:0:
405,115,140233,5,2,3:2:0:0:
496,199,140363,1,2,0:2:0:0:
496,313,140494,1,2,3:2:0:0:
403,377,140624,1,2,0:2:0:0:
298,372,140755,1,14,0:2:0:0:
231,303,140885,1,2,3:2:0:0:
146,141,141016,6,0,B|58:125|58:125|28:142|36:182,1,155.925004758454,6|0,3:2|0:0,0:0:0:0:
85,315,141276,2,0,L|104:212,1,103.950003172302,2|0,3:2|0:0,0:0:0:0:
325,310,141537,2,0,L|305:207,1,103.950003172302,10|0,0:2|0:0,0:0:0:0:
178,46,141798,5,6,3:2:0:0:
102,127,141929,1,2,0:2:0:0:
117,237,142059,1,2,3:2:0:0:
210,296,142190,1,2,0:2:0:0:
316,262,142320,1,14,0:2:0:0:
244,168,142451,1,2,3:2:0:0:
155,27,142581,6,0,B|134:-8|87:1|87:1|56:36|65:89|107:119,1,207.900006344605,6|0,3:2|3:2,0:0:0:0:
259,181,142972,1,2,0:2:0:0:
115,316,143102,2,0,B|176:305|176:305|197:280|197:280|267:262,1,155.925004758454,10|0,0:2|0:0,0:0:0:0:
342,245,143363,5,6,3:2:0:0:
413,341,143494,1,2,0:2:0:0:
512,275,143624,1,2,3:2:0:0:
438,176,143755,1,2,0:2:0:0:
327,245,143886,1,10,0:2:0:0:
409,354,144016,1,2,3:2:0:0:
221,203,144146,6,0,B|138:114|-7:211|44:351|194:387|271:317|235:233|228:185|264:131|363:106|426:168,1,621.810007590454,6|0,3:2|0:0,0:0:0:0:
482,215,147276,5,2,0:2:0:0:
418,332,147537,1,2,0:2:0:0:
280,342,147798,1,2,0:2:0:0:
180,233,148059,1,2,0:2:0:0:
76,122,148320,2,0,L|53:297,1,165.375,2|0,0:2|0:0,0:0:0:0:
0,344,148842,6,0,B|96:407|176:306|128:227|226:149|300:218,1,380.362488392258,4|0,0:1|0:0,0:0:0:0:
356,260,150407,5,2,0:2:0:0:
233,318,150668,1,2,0:2:0:0:
91,222,150929,1,2,0:2:0:0:
150,37,151189,1,2,0:2:0:0:
425,105,151450,1,2,0:2:0:0:
256,192,151516,12,6,153537,0:2:0:0:
