osu file format v14

[General]
AudioFilename: audio.mp3
AudioLeadIn: 0
PreviewTime:83626
Countdown: 0
SampleSet: Soft
StackLeniency: 0.4
Mode: 0
LetterboxInBreaks: 0
WidescreenStoryboard: 1

[Editor]
Bookmarks: 13202,25724,38246,44496,57028,69550,96159,113897,153548
DistanceSpacing: 1.2
BeatDivisor: 4
GridSize: 16
TimelineZoom: 2.5

[Metadata]
Title:Hibiki
TitleUnicode:響
Artist:Shikata Akiko
ArtistUnicode:志方あきこ
Creator:imaginative
Version:Insane
Source:CHUNITHM AIR PLUS
Tags:mynt mildly accurate mildly_accurate vararaup japanese jp folk sound noise チュウニズム Genesis Of Destiny Rebellion sega original ost soundtrack videogame video game
BeatmapID:3571033
BeatmapSetID:1714963

[Difficulty]
HPDrainRate:5
CircleSize:4
OverallDifficulty:8
ApproachRate:9.1
SliderMultiplier:2
SliderTickRate:1

[Events]
//Background and Video events
0,0,"bg.jpeg",0,0
//Break Periods
2,38435,43912
2,119303,121649
//Storyboard Layer 0 (Background)
//Storyboard Layer 1 (Fail)
//Storyboard Layer 2 (Pass)
//Storyboard Layer 3 (Foreground)
//Storyboard Layer 4 (Overlay)
//Storyboard Sound Samples

[TimingPoints]
670,260.869565217391,6,2,1,30,1,0
670,-200,6,2,1,30,0,0
2169,-200,6,2,1,5,0,0
2235,-285.714285714286,6,2,1,30,0,0
3734,-285.714285714286,6,2,1,5,0,0
3800,-285.714285714286,6,2,1,30,0,0
4844,-200,6,2,1,30,0,0
5300,-200,6,2,1,5,0,0
5365,-285.714285714286,6,2,2,30,0,0
5496,-285.714285714286,6,2,1,30,0,0
6864,-285.714285714286,6,2,1,5,0,0
6930,-285.714285714286,6,2,1,40,0,0
7974,-250,6,2,1,40,0,0
8430,-250,6,2,1,5,0,0
8496,-200,6,2,3,40,0,0
9213,-200,6,2,3,5,0,0
9278,-333.333333333333,6,2,1,40,0,0
9995,-333.333333333333,6,2,1,5,0,0
10061,-333.333333333333,6,2,1,55,0,0
11104,-250,6,2,1,55,0,0
11560,-250,6,2,1,5,0,0
11626,-181.818181818182,6,2,1,55,0,0
12082,-181.818181818182,6,2,1,5,0,0
12148,-181.818181818182,6,2,1,57,0,0
13191,-117.647058823529,6,2,1,65,0,0
18343,-117.647058823529,6,2,1,5,0,0
18409,-117.647058823529,6,2,1,65,0,0
18604,-117.647058823529,6,2,1,5,0,0
18669,-117.647058823529,6,2,1,65,0,0
24930,-105.263157894737,6,2,1,65,0,0
25713,-111.111111111111,6,2,1,70,0,0
26430,-111.111111111111,6,2,1,5,0,0
26496,-111.111111111111,6,2,1,70,0,0
27995,-111.111111111111,6,2,1,5,0,0
28061,-111.111111111111,6,2,1,70,0,0
29560,-111.111111111111,6,2,1,5,0,0
29626,-111.111111111111,6,2,1,70,0,0
31125,-111.111111111111,6,2,1,5,0,0
31191,-111.111111111111,6,2,1,70,0,0
32691,-111.111111111111,6,2,1,5,0,0
32756,-111.111111111111,6,2,1,70,0,0
34256,-111.111111111111,6,2,1,5,0,0
34322,-111.111111111111,6,2,1,70,0,0
38235,261.267145656434,6,2,1,50,1,0
38235,-111.111111111111,6,2,1,50,0,0
39802,261.802949646566,6,2,1,30,1,0
40587,261.5518744551,6,2,1,30,1,0
41365,260.869565217391,6,2,1,30,1,0
44496,-400,6,2,1,40,0,0
47104,-83.3333333333333,6,2,1,60,0,0
47299,-83.3333333333333,6,2,1,5,0,0
47365,-83.3333333333333,6,2,1,60,0,0
47560,-83.3333333333333,6,2,1,5,0,0
47626,-400,6,2,1,60,0,0
47887,-400,6,2,1,35,0,0
50235,-83.3333333333333,6,2,1,60,0,0
50430,-83.3333333333333,6,2,1,5,0,0
50496,-83.3333333333333,6,2,1,60,0,0
50691,-83.3333333333333,6,2,1,5,0,0
50757,-83.3333333333333,6,2,1,60,0,0
51017,-166.666666666667,6,2,1,35,0,0
51212,-166.666666666667,6,2,1,35,0,0
51278,-166.666666666667,6,2,1,35,0,0
51473,-166.666666666667,6,2,1,35,0,0
51539,-166.666666666667,6,2,1,35,0,0
52322,-200,6,2,1,35,0,0
53169,-200,6,2,1,5,0,0
53235,-250,6,2,1,35,0,0
53952,-250,6,2,1,5,0,0
54018,-250,6,2,1,35,0,0
57017,-250,6,2,1,60,0,0
57278,-125,6,2,1,60,0,0
57473,-125,6,2,1,5,0,0
57539,-125,6,2,1,60,0,0
58256,-125,6,2,1,5,0,0
58322,-125,6,2,1,60,0,0
59299,-125,6,2,1,5,0,0
59365,-125,6,2,1,60,0,0
60604,-125,6,2,1,5,0,0
60669,-125,6,2,1,60,0,0
61386,-125,6,2,1,5,0,0
61452,-125,6,2,1,60,0,0
62430,-125,6,2,1,5,0,0
62496,-125,6,2,1,60,0,0
63734,-125,6,2,1,5,0,0
63800,-125,6,2,1,60,0,0
64517,-125,6,2,1,5,0,0
64583,-125,6,2,1,60,0,0
64843,-114.942528735632,6,2,1,60,0,0
65626,-125,6,2,1,60,0,0
67191,-117.647058823529,6,2,1,60,0,0
67974,-125,6,2,1,60,0,0
69017,-142.857142857143,6,2,1,60,0,0
69278,-166.666666666667,6,2,1,60,0,0
69539,-153.846153846154,6,2,1,45,0,0
75017,-133.333333333333,6,2,1,45,0,0
75539,-133.333333333333,6,2,1,55,0,0
75800,-125,6,2,1,55,0,0
80430,-125,6,2,1,5,0,0
80496,-125,6,2,1,55,0,0
82061,-125,6,2,1,65,0,0
82583,-125,6,2,1,75,0,0
82844,-100,6,2,1,75,0,0
83039,-100,6,2,1,5,0,0
83104,-100,6,2,1,80,0,0
83299,-100,6,2,1,5,0,0
83365,-100,6,2,1,80,0,0
83625,-100,6,2,1,90,0,1
83691,-100,6,2,1,80,0,1
86169,-100,6,2,1,5,0,1
86235,-100,6,2,1,80,0,1
89038,-100,6,2,1,5,0,1
89104,-100,6,2,1,80,0,1
89299,-100,6,2,1,5,0,1
89365,-100,6,2,1,80,0,1
92430,-100,6,2,1,5,0,1
92496,-100,6,2,1,80,0,1
93212,-100,6,2,1,5,0,1
93278,-100,6,2,1,80,0,1
93473,-100,6,2,1,5,0,1
93539,-100,6,2,1,80,0,1
93995,-100,6,2,1,5,0,1
94061,-100,6,2,1,80,0,1
94256,-100,6,2,1,5,0,1
94322,-100,6,2,1,80,0,1
101560,-100,6,2,1,5,0,1
101626,-100,6,2,1,80,0,1
102082,-100,6,2,1,5,0,1
102148,-100,6,2,1,80,0,1
102864,-100,6,2,1,5,0,1
102930,-100,6,2,1,80,0,1
103126,-100,6,2,1,80,0,1
103191,-100,6,2,1,80,0,1
103647,-100,6,2,1,5,0,1
103713,-100,6,2,1,80,0,1
104430,-100,6,2,1,5,0,1
104496,-100,6,2,1,80,0,1
108082,-100,6,2,1,5,0,1
108148,-100,6,2,1,80,0,1
108669,260.869565217391,5,2,1,70,1,0
108669,-111.111111111111,5,2,1,70,0,0
109451,-117.647058823529,5,2,1,70,0,0
113886,-142.857142857143,5,2,1,60,0,0
118516,-142.857142857143,5,2,1,5,0,0
118582,-142.857142857143,5,2,1,60,0,0
119103,260.869565217391,6,2,1,45,1,0
122233,-285.714285714286,6,2,1,45,0,0
123732,-285.714285714286,6,2,1,5,0,0
123798,-222.222222222222,6,2,1,45,0,0
124254,-222.222222222222,6,2,1,5,0,0
124320,-222.222222222222,6,2,1,70,0,0
124841,-222.222222222222,6,2,1,85,0,0
125363,-100,6,2,1,85,0,1
125429,-100,6,2,1,77,0,1
125558,-100,6,2,1,5,0,1
125624,-100,6,2,1,77,0,1
126341,-100,6,2,1,5,0,1
126407,-100,6,2,1,77,0,1
127124,-100,6,2,1,5,0,1
127189,-100,6,2,1,77,0,1
127906,-100,6,2,1,5,0,1
127972,-100,6,2,1,77,0,1
128689,-100,6,2,1,5,0,1
128755,-100,6,2,1,77,0,1
129471,-100,6,2,1,5,0,1
129537,-100,6,2,1,77,0,1
130776,-100,6,2,1,5,0,1
130842,-100,6,2,1,77,0,1
131298,-100,6,2,1,5,0,1
131363,-100,6,2,1,77,0,1
131624,-100,6,2,1,70,0,0
131755,-111.111111111111,6,2,1,70,0,0
136581,-105.263157894737,6,2,1,70,0,0
136776,-105.263157894737,6,2,1,5,0,0
136842,-105.263157894737,6,2,1,70,0,0
137102,-95.2380952380952,6,2,1,75,0,0
137297,-95.2380952380952,6,2,1,5,0,0
137363,-95.2380952380952,6,2,1,85,0,0
137558,-95.2380952380952,6,2,1,5,0,0
137624,-95.2380952380952,6,2,1,85,0,0
137885,-100,6,2,1,85,0,1
137950,-100,6,2,1,77,0,1
138080,-100,6,2,1,5,0,1
138146,-100,6,2,1,77,0,1
138862,-100,6,2,1,5,0,1
138929,-100,6,2,1,77,0,1
139645,-100,6,2,1,5,0,1
139711,-100,6,2,1,77,0,1
141211,-100,6,2,1,5,0,1
141276,-100,6,2,1,77,0,1
143102,-90.9090909090909,6,2,1,77,0,1
143297,-90.9090909090909,6,2,1,5,0,1
143363,-90.9090909090909,6,2,1,77,0,1
144146,-222.222222222222,6,2,1,80,0,0
144211,-222.222222222222,6,2,1,55,0,0
145711,-400,6,2,2,55,0,0
145842,-400,6,2,1,55,0,0
148320,-222.222222222222,6,2,1,55,0,0
148776,-222.222222222222,6,2,1,5,0,0
148842,-285.714285714286,6,2,3,55,0,0
148972,-285.714285714286,6,2,1,55,0,0
150407,-285.714285714286,6,2,1,70,0,0
153537,-285.714285714286,6,2,2,65,0,0

[Colours]
Combo1 : 255,64,64
Combo2 : 254,126,168
Combo3 : 254,148,129

[HitObjects]
126,193,670,6,0,B|93:136|18:134|29:54|61:11|129:26|145:75|145:75|167:31|241:9|302:118|223:164|141:156|126:225,1,575,4|0,0:1|0:0,0:0:0:0:
99,285,2235,6,0,B|197:329|297:255|225:175|351:103|435:151,1,402.499987716675,2|0,0:3|0:0,0:0:0:0:
501,184,3800,5,2,0:2:0:0:
504,201,4061,1,2,0:2:0:0:
412,248,4322,1,2,0:2:0:0:
415,265,4582,1,2,0:2:0:0:
323,312,4844,2,0,B|298:285|287:244|309:212|309:212|319:252|341:274,1,175,2|0,0:2|0:0,0:0:0:0:
337,270,5365,6,0,B|213:241|213:241|149:128|149:128|7:96,1,402.499987716675,4|0,0:1|0:0,0:0:0:0:
7,96,6930,5,2,0:2:0:0:
11,112,7191,1,2,0:2:0:0:
111,59,7452,1,2,0:2:0:0:
115,75,7713,1,2,0:2:0:0:
215,22,7974,2,0,B|197:4|162:12|162:12|141:60|180:89,1,140,2|0,0:2|0:0,0:0:0:0:
153,155,8496,6,0,B|199:106|277:110|277:110|302:197|386:210,1,275,4|0,0:1|0:0,0:0:0:0:
453,158,9278,2,0,B|429:181|397:194|397:194|429:291,1,164.9999949646,2|0,0:3|0:0,0:0:0:0:
449,357,10061,5,2,0:2:0:0:
445,373,10322,1,2,0:2:0:0:
345,320,10583,1,2,0:2:0:0:
341,336,10844,1,2,0:2:0:0:
241,283,11104,2,0,B|219:263|186:254|166:277|166:277|193:279|218:308,1,140,2|0,0:2|0:0,0:0:0:0:
213,303,11626,6,0,B|159:304|101:331|101:331|94:281|72:245,1,192.500005874634,4|0,0:2|0:0,0:0:0:0:
48,194,12148,1,0,3:2:0:0:
152,146,12409,1,0,3:2:0:0:
0,70,12669,1,0,3:2:0:0:
220,0,12930,1,0,3:2:0:0:
220,0,13061,1,0,3:2:0:0:
300,95,13191,6,0,L|289:150,2,56.6666677474976,6|2|2,3:2|0:2|0:2,0:0:0:0:
231,201,13452,2,0,L|242:256,2,56.6666677474976,2|2|2,0:2|0:2|0:2,0:0:0:0:
296,316,13713,2,0,P|335:323|365:310,2,56.6666677474976,2|2|2,0:2|0:2|0:2,0:0:0:0:
371,210,13974,2,0,B|413:191|456:222|425:257|479:288|515:267,2,170.000003242493,10|2|2,0:2|3:2|3:2,0:0:0:0:
112,272,14756,6,0,P|184:268|208:179,1,170.000003242493,2|2,3:2|0:2,0:0:0:0:
337,190,15148,2,0,P|266:204|220:125,1,170.000003242493,0|2,3:2|3:2,0:0:0:0:
256,19,15539,1,10,0:2:0:0:
258,35,15670,1,2,3:2:0:0:
347,44,15800,1,2,3:2:0:0:
349,59,15931,1,2,0:2:0:0:
433,66,16061,2,0,L|445:159,1,85.0000016212464,2|2,3:2|0:2,0:0:0:0:
392,297,16322,6,0,P|419:312|445:313,2,56.6666677474976,6|2|2,3:2|0:2|0:2,0:0:0:0:
300,298,16583,2,0,P|300:328|312:351,2,56.6666677474976,2|2|2,0:2|0:2|0:2,0:0:0:0:
248,225,16843,2,0,P|221:240|207:262,2,56.6666677474976,2|2|2,0:2|0:2|0:2,0:0:0:0:
283,98,17104,2,0,B|216:110|216:110|195:133|195:133|126:149,2,170.000003242493,10|2|2,0:2|3:2|3:2,0:0:0:0:
447,257,17887,5,2,3:2:0:0:
383,172,18017,1,2,0:2:0:0:
478,86,18148,2,0,B|514:121|514:121|477:201,1,127.50000243187,2|0,0:2|0:0,0:0:0:0:
447,257,18409,2,0,B|407:272|383:252|398:231|365:214|327:231,1,127.50000243187,2|0,0:2|0:0,0:0:0:0:
266,272,18669,5,10,0:2:0:0:
181,306,18799,1,2,3:2:0:0:
110,289,18930,1,2,3:2:0:0:
79,262,19060,1,2,0:2:0:0:
70,244,19191,2,0,L|84:155,1,85.0000016212464,2|2,3:2|0:2,0:0:0:0:
177,49,19452,6,0,B|59:27|59:27|46:51|24:67,2,170.000003242493,6|2|2,3:2|0:2|0:2,0:0:0:0:
218,121,20104,1,2,3:2:0:0:
355,97,20235,2,0,B|472:75|472:75|485:99|507:115,2,170.000003242493,10|2|2,0:2|3:2|3:2,0:0:0:0:
212,276,21017,5,2,3:2:0:0:
286,206,21148,1,2,0:2:0:0:
378,319,21278,2,0,P|363:280|377:239,1,85.0000016212464,2|2,0:2|3:2,0:0:0:0:
492,177,21539,2,0,P|452:188|407:169,1,85.0000016212464,2|2,0:2|3:2,0:0:0:0:
298,107,21800,2,0,B|254:85|213:111|232:136|188:164|138:141,2,170.000003242493,10|2|2,0:2|3:2|3:2,0:0:0:0:
461,23,22583,6,0,L|451:116,1,85.0000016212464,2|2,3:2|0:2,0:0:0:0:
439,211,22843,1,2,0:2:0:0:
308,269,22974,2,0,B|293:299|266:311|266:311|327:321|378:278,1,170.000003242493,2|0,3:2|3:2,0:0:0:0:
324,150,23365,2,0,B|263:164|263:164|241:196|241:196|173:212,2,170.000003242493,10|2|2,0:2|3:2|3:2,0:0:0:0:
164,28,24148,5,2,3:2:0:0:
155,45,24278,1,2,3:2:0:0:
83,96,24409,1,2,3:2:0:0:
92,113,24539,1,2,3:2:0:0:
164,173,24669,2,0,L|141:275,1,85.0000016212464,2|0,3:2|3:2,0:0:0:0:
61,334,24930,6,0,B|107:354|154:320|120:282|179:248|219:271,2,189.999994926453,10|4|8,0:2|3:2|0:2,0:0:0:0:
61,334,25583,1,8,0:2:0:0:
243,369,25713,6,0,B|285:387|285:387|330:368,1,89.9999972534181,6|2,3:2|0:2,0:0:0:0:
492,272,25974,2,0,B|450:290|450:290|405:271,1,89.9999972534181,2|2,3:2|0:2,0:0:0:0:
203,175,26235,2,0,B|266:202|266:202|333:173,1,134.999995880127,10|0,0:2|0:0,0:0:0:0:
396,145,26496,1,2,3:2:0:0:
492,272,26757,1,2,3:2:0:0:
325,369,27017,1,10,0:2:0:0:
198,156,27278,6,0,B|130:166|130:166|97:198|97:198|33:208,1,179.999994506836,6|2,3:2|3:2,0:0:0:0:
105,295,27669,1,2,0:2:0:0:
198,156,27800,2,0,B|238:139|270:160|255:176|286:198|320:182,1,134.999995880127,10|0,0:2|0:0,0:0:0:0:
400,162,28061,1,2,3:2:0:0:
282,6,28322,1,2,3:2:0:0:
113,120,28583,1,10,0:2:0:0:
119,136,28713,1,0,3:2:0:0:
269,195,28843,6,0,P|284:243|261:283,1,89.9999972534181,6|2,3:2|0:2,0:0:0:0:
136,363,29104,2,0,P|184:348|224:371,1,89.9999972534181,2|2,3:2|0:2,0:0:0:0:
451,331,29365,2,0,B|424:352|385:342|385:342|369:304|327:297,1,134.999995880127,10|0,0:2|0:0,0:0:0:0:
267,276,29626,1,2,3:2:0:0:
156,166,29887,1,2,3:2:0:0:
283,38,30148,1,10,0:2:0:0:
53,0,30409,6,0,L|62:90,1,89.9999972534181,2|0,3:2|0:0,0:0:0:0:
156,166,30670,2,0,L|147:256,1,89.9999972534181,2|0,3:2|0:0,0:0:0:0:
77,377,30930,2,0,B|127:365|127:365|149:339|149:339|196:327,1,134.999995880127,10|0,0:2|0:0,0:0:0:0:
276,310,31191,2,0,B|301:308|330:321|330:321|308:320|289:342,1,89.9999972534181,2|8,3:2|0:2,0:0:0:0:
147,255,31452,2,0,B|112:137|112:137|142:125|157:96,1,179.999994506836,2|0,3:2|3:2,0:0:0:0:
85,64,31843,1,8,0:2:0:0:
269,203,31974,6,0,L|284:108,1,89.9999972534181,6|2,3:2|0:2,0:0:0:0:
439,34,32234,2,0,L|453:122,1,89.9999972534181,2|2,3:2|0:2,0:0:0:0:
335,304,32496,2,0,L|357:161,1,134.999995880127,10|0,0:2|0:0,0:0:0:0:
367,97,32756,1,2,3:2:0:0:
502,261,33017,1,2,3:2:0:0:
324,377,33278,1,10,0:2:0:0:
255,198,33539,6,0,B|219:162|169:180|169:180|148:226|91:241,1,179.999994506836,6|2,3:2|3:2,0:0:0:0:
0,164,33930,1,2,0:2:0:0:
104,71,34061,2,0,B|131:50|170:60|170:60|186:98|228:105,1,134.999995880127,10|0,0:2|0:0,0:0:0:0:
291,97,34322,1,2,3:2:0:0:
243,283,34583,1,2,3:2:0:0:
457,336,34843,1,6,3:2:0:0:
463,351,34974,1,8,0:2:0:0:
391,260,35104,6,0,B|274:232|274:232|239:289,2,179.999994506836,6|0|8,3:2|3:2|0:2,0:0:0:0:
352,80,35887,2,0,B|469:52|469:52|483:89|504:109,2,179.999994506836,0|0|10,3:2|3:2|0:2,0:0:0:0:
261,102,36539,1,2,3:2:0:0:
343,221,36669,6,0,B|358:251|385:263|385:263|324:273|273:230,2,179.999994506836,2|0|8,3:2|3:2|0:2,0:0:0:0:
134,347,37452,1,0,3:2:0:0:
204,269,37583,1,8,0:2:0:0:
70,219,37713,2,0,P|52:264|81:308,1,89.9999972534181,0|0,3:2|0:0,0:0:0:0:
174,140,37974,2,0,P|192:95|163:51,1,89.9999972534181,8|0,0:2|0:0,0:0:0:0:
56,0,38235,5,6,3:2:0:0:
50,33,44496,6,0,B|167:-19|287:69|201:165|352:251|450:187,1,475,4|0,0:1|0:0,0:0:0:0:
382,109,47104,6,0,B|353:135|319:150|319:150|344:255,1,179.999994506836,14|0,3:2|0:0,0:0:0:0:
375,265,47365,2,0,B|350:163|350:163|384:148|413:122,1,179.999994506836,14|0,3:2|0:0,0:0:0:0:
449,35,47626,6,0,B|294:76|294:76|222:208|222:208|59:247,1,475,14|0,3:2|0:0,0:0:0:0:
57,327,50235,6,0,B|179:297|179:297|197:328|219:341,1,179.999994506836,14|0,3:2|0:0,0:0:0:0:
254,275,50496,2,0,B|270:284|288:315|288:315|411:286,1,179.999994506836,14|0,3:2|0:0,0:0:0:0:
484,269,50757,5,14,3:2:0:0:
484,269,51017,5,2,0:2:0:0:
402,199,51278,1,2,0:2:0:0:
462,74,51539,1,2,0:2:0:0:
282,139,51800,1,2,0:2:0:0:
109,0,52061,1,2,0:2:0:0:
60,246,52322,6,0,B|42:216|35:179|60:121|138:93|216:138|214:187|195:223|152:241|123:213,1,325,2|0,0:2|0:0,0:0:0:0:
123,213,53235,6,0,B|158:219|200:231|200:231|222:272|222:272|261:288|312:297,1,220,2|0,0:2|0:0,0:0:0:0:
387,322,54018,5,2,0:2:0:0:
256,192,54083,12,0,56756,0:0:0:0:
256,192,57017,5,4,3:2:0:0:
118,155,57278,2,0,B|103:177|84:192|84:192|106:259,1,120,2|0,0:2|0:0,0:0:0:0:
149,318,57539,1,2,0:2:0:0:
256,192,57800,1,10,0:2:0:0:
334,73,58061,2,0,B|369:61|406:79|383:102|427:117|456:100,1,120,2|0,0:2|0:0,0:0:0:0:
511,79,58322,1,2,0:2:0:0:
359,216,58583,6,0,P|370:314|498:317,1,240,2|2,3:2|0:2,0:0:0:0:
463,169,59104,2,0,B|417:179|417:179|398:206|398:206|344:218,1,120,2|0,0:2|0:0,0:0:0:0:
279,233,59365,1,10,0:2:0:0:
272,249,59496,1,2,0:2:0:0:
328,326,59626,2,0,L|241:348,1,80,2|0,0:2|0:0,0:0:0:0:
152,376,59887,2,0,P|133:337|146:305,1,80,2|2,3:2|0:2,0:0:0:0:
199,213,60148,5,2,3:2:0:0:
21,172,60409,2,0,B|-2:95|-2:95|15:82|26:56,1,120,2|0,0:2|0:0,0:0:0:0:
55,3,60669,1,2,0:2:0:0:
194,122,60930,1,10,0:2:0:0:
294,232,61191,2,0,B|378:211|378:211|391:233|417:246,1,120,2|0,0:2|0:0,0:0:0:0:
451,288,61452,1,2,3:2:0:0:
512,79,61713,6,0,B|455:43|392:90|424:130|351:174|293:124,1,240,2|2,3:2|0:2,0:0:0:0:
180,61,62235,2,0,P|207:108|167:163,1,120,2|0,0:2|0:0,0:0:0:0:
129,217,62496,1,10,0:2:0:0:
136,234,62626,1,2,0:2:0:0:
74,290,62756,1,2,0:2:0:0:
67,307,62886,1,2,0:2:0:0:
147,360,63017,2,0,B|189:373|189:373|228:356,1,80,10|2,0:2|0:2,0:0:0:0:
340,296,63278,5,6,3:2:0:0:
480,183,63539,2,0,B|457:268|457:268|472:279|478:295,1,120,2|0,0:2|0:0,0:0:0:0:
496,363,63800,1,2,0:2:0:0:
340,296,64061,1,10,0:2:0:0:
200,238,64322,2,0,L|230:119,1,120,2|0,0:2|0:0,0:0:0:0:
245,53,64583,1,2,3:2:0:0:
84,289,64843,6,0,B|68:256|39:243|39:243|108:227|146:262|125:288|175:326|218:305,1,261.000002190399,2|0,3:2|0:0,0:0:0:0:
209,308,65365,1,0,0:0:0:0:
355,97,65626,2,0,P|343:140|363:177,1,80,10|2,0:2|0:2,0:0:0:0:
280,219,65887,2,0,P|311:250|353:252,1,80,2|2,0:2|0:2,0:0:0:0:
348,344,66148,2,0,P|391:332|413:297,1,80,2|2,3:2|0:2,0:0:0:0:
494,152,66409,6,0,L|484:234,2,80,2|2|2,3:2|0:2|0:2,0:0:0:0:
341,254,66930,1,2,3:2:0:0:
404,47,67191,2,0,B|312:67|312:67|274:121|274:121|174:144,1,255.000004863739,10|0,0:2|0:0,0:0:0:0:
64,178,67713,1,2,3:2:0:0:
71,194,67843,1,2,0:2:0:0:
114,281,67974,6,0,B|171:317|234:270|202:230|275:186|333:236,1,240,2|0,3:2|0:0,0:0:0:0:
359,325,68496,2,0,L|346:242,1,80,2|2,0:2|0:2,0:0:0:0:
474,103,68756,2,0,L|461:182,1,80,10|2,0:2|0:2,0:0:0:0:
393,98,69017,2,0,L|380:177,1,69.9999978637696,2|0,3:2|0:0,0:0:0:0:
310,95,69278,2,0,L|297:174,1,59.9999981689454,2|0,3:2|0:0,0:0:0:0:
173,231,69539,6,0,B|166:254|179:275|179:275|185:263|193:253,2,64.9999970245363,2|2|2,3:2|0:2|0:2,0:0:0:0:
339,231,70322,2,0,B|346:254|333:275|333:275|327:263|319:253,2,64.9999970245363,2|2|2,0:2|0:2|0:2,0:0:0:0:
120,345,71104,2,0,B|155:361|155:361|169:352|184:350,2,64.9999970245363,2|2|2,0:2|0:2|0:2,0:0:0:0:
392,345,71887,2,0,B|357:361|357:361|343:352|328:350,2,64.9999970245363,2|2|2,0:2|0:2|0:2,0:0:0:0:
256,352,72409,1,0,3:2:0:0:
400,224,72669,5,2,3:2:0:0:
256,256,72930,1,2,0:2:0:0:
256,266,73191,1,2,0:2:0:0:
112,224,73452,1,2,0:2:0:0:
256,256,73713,1,2,0:2:0:0:
256,266,73974,1,2,0:2:0:0:
416,116,74235,6,0,B|353:69|284:124|323:169|247:215|186:163,1,259.999988098145,2|2,0:2|0:2,0:0:0:0:
90,135,74887,1,2,0:2:0:0:
90,135,75017,2,0,P|76:176|90:209,1,75.0000028610231,2|2,0:2|0:2,0:0:0:0:
10,258,75278,2,0,P|38:290|74:295,1,75.0000028610231,2|2,0:2|0:2,0:0:0:0:
83,378,75539,2,0,P|125:369|147:341,1,75.0000028610231,2|2,3:2|0:2,0:0:0:0:
256,240,75800,6,0,B|246:260|246:260|256:279|256:279|267:261|267:261|260:240,2,80,2|0|2,3:2|0:0|0:2,0:0:0:0:
352,336,76322,1,0,0:0:0:0:
256,144,76583,2,0,B|246:124|246:124|256:105|256:105|267:123|267:123|260:144,2,80,2|2|2,0:2|0:2|0:2,0:0:0:0:
352,48,76974,1,0,0:0:0:0:
352,48,77104,1,0,0:0:0:0:
160,192,77365,6,0,B|119:210|119:210|79:190,2,80,2|2|2,3:2|0:2|0:2,0:0:0:0:
121,117,77887,1,0,0:0:0:0:
352,192,78148,2,0,B|393:210|393:210|433:190,2,80,2|2|2,0:2|0:2|0:2,0:0:0:0:
391,117,78539,1,0,0:0:0:0:
391,117,78669,1,0,0:0:0:0:
256,320,78930,5,2,3:2:0:0:
192,192,79191,1,2,0:2:0:0:
256,64,79452,1,2,0:2:0:0:
64,11,79713,6,0,B|31:48|-8:73|-8:73|52:215,1,240,2|0,0:2|0:0,0:0:0:0:
88,297,80235,2,0,B|119:306|145:291|136:266|173:249|206:267,1,120,2|0,0:2|0:0,0:0:0:0:
271,291,80496,2,0,L|258:208,1,80,2|2,3:2|0:2,0:0:0:0:
243,100,80756,1,2,0:2:0:0:
256,192,80822,12,2,82061,3:2:0:0:
467,323,82583,5,0,3:2:0:0:
392,280,82713,1,0,3:2:0:0:
265,355,82844,2,0,B|226:270|226:270|256:248|269:213,1,150,0|0,3:2|0:0,0:0:0:0:
270,153,83104,2,0,B|212:165|212:165|185:195|185:195|125:208,1,150,8|0,3:2|0:0,0:0:0:0:
55,211,83365,1,8,3:2:0:0:
47,234,83496,1,8,3:2:0:0:
61,50,83626,6,0,P|110:37|160:72,1,100,6|0,3:2|0:0,0:0:0:0:
136,206,83887,2,0,P|100:170|105:109,1,100,2|0,3:2|0:0,0:0:0:0:
237,69,84148,2,0,P|223:117|168:143,1,100,10|0,0:2|0:0,0:0:0:0:
46,276,84409,2,0,B|95:254|145:291|109:331|172:367|214:343,1,200,2|0,3:2|3:2,0:0:0:0:
212,343,84800,1,2,0:2:0:0:
295,251,84930,1,14,0:2:0:0:
298,272,85060,1,2,3:2:0:0:
243,166,85191,6,0,P|192:153|149:176,1,100,6|0,3:2|0:0,0:0:0:0:
377,229,85452,2,0,P|428:242|471:219,1,100,2|0,3:2|0:0,0:0:0:0:
406,54,85713,2,0,P|393:105|416:148,1,100,10|0,0:2|0:0,0:0:0:0:
512,311,85974,2,0,B|408:290|408:290|393:314|368:333,1,150,2|0,3:2|0:0,0:0:0:0:
300,338,86235,1,2,3:2:0:0:
303,355,86365,1,2,0:2:0:0:
213,348,86496,1,14,0:2:0:0:
216,365,86626,1,2,3:2:0:0:
83,377,86756,6,0,P|62:334|82:285,1,100,6|0,3:2|0:0,0:0:0:0:
0,203,87018,2,0,P|34:169|87:173,1,100,2|0,3:2|0:0,0:0:0:0:
128,58,87278,2,0,P|170:80|182:131,1,100,10|0,0:2|0:0,0:0:0:0:
243,253,87539,2,0,B|204:300|138:275|138:275|141:244|132:222|112:198,1,200,6|0,3:2|3:2,0:0:0:0:
34,347,88061,1,10,0:2:0:0:
216,189,88322,6,0,B|297:206|297:206|322:229|322:229|414:249,1,200,6|2,3:2|3:2,0:0:0:0:
469,148,88713,1,2,0:2:0:0:
459,27,88843,2,0,B|428:9|398:18|398:18|378:66|414:96,1,150,10|0,0:2|0:0,0:0:0:0:
475,154,89104,2,0,B|438:137|400:165|427:195|380:222|349:204,1,150,6|0,3:2|0:0,0:0:0:0:
274,175,89365,2,0,P|222:162|177:187,1,100,2|0,3:2|0:0,0:0:0:0:
109,345,89626,1,8,0:2:0:0:
135,273,89756,1,0,3:2:0:0:
18,176,89887,6,0,P|0:226|21:268,1,100,6|2,3:2|0:2,0:0:0:0:
187,333,90148,2,0,B|236:355|286:318|250:278|313:242|354:266,1,200,2|10,3:2|0:2,0:0:0:0:
486,302,90539,1,2,0:2:0:0:
423,201,90669,2,0,P|405:151|426:109,1,100,2|0,3:2|0:0,0:0:0:0:
461,8,90930,2,0,P|417:38|371:28,1,100,2|0,3:2|0:0,0:0:0:0:
245,0,91191,1,8,0:2:0:0:
251,6,91452,6,0,L|235:104,1,100,2|2,3:2|0:2,0:0:0:0:
139,210,91713,2,0,P|53:200|40:95,1,200,2|10,3:2|0:2,0:0:0:0:
143,53,92104,1,2,0:2:0:0:
257,12,92235,2,0,L|233:160,1,150,2|0,3:2|0:0,0:0:0:0:
217,234,92496,1,2,3:2:0:0:
311,272,92626,1,0,0:0:0:0:
390,253,92756,1,8,0:2:0:0:
424,223,92887,1,0,3:2:0:0:
433,207,93017,6,0,B|457:111|457:111|428:101|408:75,1,150,2|0,3:2|0:0,0:0:0:0:
344,59,93278,2,0,B|318:86|278:79|278:79|258:34|204:29,1,150,2|0,3:2|0:0,0:0:0:0:
146,39,93539,1,10,0:2:0:0:
0,259,93800,2,0,P|70:264|107:197,1,150,2|0,3:2|0:0,0:0:0:0:
121,131,94061,2,0,P|151:195|223:196,1,150,0|0,3:2|0:0,0:0:0:0:
294,172,94322,1,10,0:2:0:0:
419,288,94582,5,2,3:2:0:0:
512,229,94713,1,2,0:2:0:0:
437,358,94843,2,0,B|394:379|336:346|364:301|319:267|266:300,1,200,2|10,3:2|0:2,0:0:0:0:
182,343,95235,1,2,0:2:0:0:
114,172,95365,6,0,B|102:130|59:121|26:157|13:200|78:252,1,200,6|0,3:2|3:2,0:0:0:0:
188,349,95756,1,8,0:2:0:0:
207,251,95887,1,0,3:2:0:0:
227,153,96018,1,8,0:2:0:0:
412,234,96148,6,0,P|357:248|315:222,1,100,6|0,3:2|0:0,0:0:0:0:
478,81,96409,2,0,P|492:136|466:178,1,100,2|0,3:2|0:0,0:0:0:0:
317,24,96669,2,0,P|372:10|414:36,1,100,10|0,0:2|0:0,0:0:0:0:
262,80,96930,1,2,3:2:0:0:
408,29,97061,1,2,0:2:0:0:
408,29,97191,2,0,L|389:139,1,100,2|2,3:2|0:2,0:0:0:0:
278,157,97452,1,14,0:2:0:0:
284,179,97583,1,2,3:2:0:0:
166,7,97713,6,0,P|117:-6|67:29,1,100,6|0,3:2|0:0,0:0:0:0:
90,156,97974,2,0,P|126:120|121:59,1,100,2|0,3:2|0:0,0:0:0:0:
0,20,98235,2,0,P|14:68|69:94,1,100,10|0,0:2|0:0,0:0:0:0:
184,194,98496,1,2,3:2:0:0:
185,211,98626,1,2,0:2:0:0:
256,138,98757,1,2,3:2:0:0:
257,155,98887,1,2,0:2:0:0:
329,78,99018,2,0,L|344:187,1,100,14|2,0:2|3:2,0:0:0:0:
437,374,99278,6,0,P|449:329|429:280,1,100,6|0,3:2|0:0,0:0:0:0:
512,189,99539,2,0,P|472:163|420:167,1,100,2|0,3:2|0:0,0:0:0:0:
381,33,99800,2,0,P|344:62|332:113,1,100,10|0,0:2|0:0,0:0:0:0:
179,118,100061,2,0,B|228:96|278:133|242:173|305:209|347:185,1,200,6|0,3:2|3:2,0:0:0:0:
173,257,100582,1,10,0:2:0:0:
176,274,100713,1,0,0:0:0:0:
345,185,100843,6,0,B|404:234|404:234|355:360,1,200,6|0,3:2|3:2,0:0:0:0:
359,348,101234,1,2,0:2:0:0:
277,288,101365,2,0,B|243:256|206:270|206:270|186:308|142:309,1,150,10|0,0:2|0:0,0:0:0:0:
76,311,101626,1,6,3:2:0:0:
117,231,101756,1,0,3:2:0:0:
41,153,101887,2,0,B|23:184|32:214|32:214|80:234|110:198,1,150,0|0,3:2|0:0,0:0:0:0:
160,136,102148,1,8,0:2:0:0:
277,288,102409,6,0,P|331:301|369:274,1,100,6|2,3:2|0:2,0:0:0:0:
421,196,102669,2,0,B|400:300|400:300|424:315|443:340,1,150,2|0,3:2|0:0,0:0:0:0:
493,275,102930,2,0,B|514:171|514:171|490:156|480:142,1,150,10|0,0:2|0:0,0:0:0:0:
420,75,103191,2,0,P|366:94|324:73,1,100,2|0,3:2|0:0,0:0:0:0:
479,26,103452,2,0,B|438:11|402:35|421:57|376:76|335:51,1,150,2|0,3:2|0:0,0:0:0:0:
266,26,103713,1,8,0:2:0:0:
331,194,103974,6,0,P|348:237|321:285,1,100,2|2,3:2|0:2,0:0:0:0:
226,336,104235,2,0,B|197:360|158:350|158:350|142:303|89:293,1,150,2|0,3:2|0:0,0:0:0:0:
31,305,104496,1,10,0:2:0:0:
199,165,104756,2,0,B|118:182|118:182|93:205|93:205|1:225,2,200,2|2|10,3:2|3:2|0:2,0:0:0:0:
199,165,105409,1,0,3:2:0:0:
343,13,105539,6,0,B|365:-25|409:-23|431:21|433:66|357:99,1,200,6|0,3:2|3:2,0:0:0:0:
423,282,106061,1,10,0:2:0:0:
424,299,106191,1,2,0:2:0:0:
327,254,106322,2,0,B|278:232|228:269|264:309|201:345|159:321,1,200,2|2,3:2|3:2,0:0:0:0:
36,168,106843,2,0,P|16:218|39:262,1,100,10|0,0:2|3:2,0:0:0:0:
160,321,107104,6,0,B|186:294|216:276|216:276|180:136,1,200,2|0,3:2|3:2,0:0:0:0:
306,86,107496,1,0,0:0:0:0:
306,86,107626,2,0,L|281:182,1,100,8|0,0:2|3:2,0:0:0:0:
422,251,107887,2,0,B|367:261|367:261|340:295|340:295|280:305,1,150,4|0,3:2|0:0,0:0:0:0:
216,284,108148,1,6,3:2:0:0:
208,307,108278,1,0,3:2:0:0:
370,170,108409,2,0,P|322:195|278:180,1,100,10|8,0:2|0:2,0:0:0:0:
56,73,108669,6,0,B|102:85|102:85|130:167|130:167|180:181,2,179.999994506836,6|2|2,3:2|3:2|3:2,0:0:0:0:
15,330,109451,2,0,P|2:290|19:244,1,85.0000016212464,2|2,3:2|0:2,0:0:0:0:
171,284,109712,2,0,P|131:297|85:280,1,85.0000016212464,10|2,0:2|0:2,0:0:0:0:
182,181,109973,2,0,B|230:157|267:195|239:228|287:255|330:229,2,170.000003242493,2|2|2,3:2|3:2|3:2,0:0:0:0:
424,119,110755,2,0,L|409:205,1,85.0000016212464,2|2,3:2|0:2,0:0:0:0:
347,337,111016,2,0,L|332:251,1,85.0000016212464,10|2,0:2|0:2,0:0:0:0:
217,161,111277,6,0,B|158:180|158:180|133:218|133:218|67:243,2,170.000003242493,2|2|2,3:2|3:2|3:2,0:0:0:0:
400,56,112060,2,0,P|349:35|294:121,1,170.000003242493,2|10,3:2|0:2,0:0:0:0:
358,205,112451,1,2,0:2:0:0:
292,115,112582,2,0,P|249:100|205:119,1,85.0000016212464,2|0,3:2|0:0,0:0:0:0:
207,248,112842,2,0,P|241:218|247:170,1,85.0000016212464,2|0,3:2|0:0,0:0:0:0:
133,111,113103,2,0,P|141:155|179:184,1,85.0000016212464,2|0,3:2|0:0,0:0:0:0:
248,181,113364,1,2,3:2:0:0:
130,314,113625,1,8,0:2:0:0:
284,356,113886,6,0,B|377:382|377:382|403:340,2,139.999995727539,2|2|2,3:2|3:2|3:2,0:0:0:0:
146,322,114669,2,0,L|162:248,1,69.9999978637696,2|2,3:2|0:2,0:0:0:0:
233,191,114930,2,0,L|217:117,1,69.9999978637696,2|2,3:2|0:2,0:0:0:0:
127,39,115190,2,0,B|112:61|87:78|87:78|109:160,2,139.999995727539,2|2|2,3:2|3:2|3:2,0:0:0:0:
273,14,115973,2,0,P|314:3|347:16,1,69.9999978637696,2|2,3:2|0:2,0:0:0:0:
468,91,116234,2,0,P|427:80|394:93,1,69.9999978637696,2|2,3:2|0:2,0:0:0:0:
289,137,116495,6,0,B|263:227|263:227|284:238|300:270,2,139.999995727539,2|2|2,3:2|3:2|3:2,0:0:0:0:
476,154,117277,2,0,L|460:228,1,69.9999978637696,2|2,3:2|0:2,0:0:0:0:
381,319,117538,2,0,L|365:245,1,69.9999978637696,2|2,3:2|0:2,0:0:0:0:
286,152,117799,6,0,P|313:120|348:108,1,69.9999978637696,2|2,3:2|0:2,0:0:0:0:
196,207,118060,2,0,B|260:246|313:196|282:150|342:104|413:138,1,244.999992523194,2|0,3:2|0:0,0:0:0:0:
476,154,118582,1,0,3:2:0:0:
437,285,118842,1,0,3:2:0:0:
401,372,119103,5,4,0:1:0:0:
69,104,122233,6,0,B|50:56|7:37|7:37|97:30|149:70|109:120|185:204|277:152,1,402.499987716675,2|0,0:2|0:0,0:0:0:0:
329,107,123798,2,0,B|305:133|281:146|281:146|310:249,1,157.499995193482,2|0,0:2|0:0,0:0:0:0:
369,286,124320,1,0,3:2:0:0:
362,306,124450,1,0,3:2:0:0:
269,377,124581,1,0,3:2:0:0:
114,320,124841,1,8,3:2:0:0:
182,142,125103,1,8,3:2:0:0:
192,166,125233,1,8,3:2:0:0:
82,59,125363,6,0,B|120:37|164:64|138:90|179:113|227:87,1,150,6|0,3:2|0:0,0:0:0:0:
283,62,125624,2,0,P|335:44|381:68,1,100,2|0,3:2|0:0,0:0:0:0:
377,220,125885,2,0,P|335:183|333:132,1,100,10|0,0:2|0:0,0:0:0:0:
507,80,126146,6,0,B|479:104|454:116|454:116|478:203,1,150,2|0,3:2|0:0,0:0:0:0:
493,271,126407,1,0,3:2:0:0:
500,296,126537,1,2,0:2:0:0:
396,293,126668,1,10,0:2:0:0:
403,318,126798,1,2,3:2:0:0:
278,340,126929,6,0,B|227:325|227:325|204:285|204:285|144:269,1,150,6|0,3:2|0:0,0:0:0:0:
81,211,127189,2,0,B|68:242|82:271|82:271|82:252|94:233,1,100,2|0,3:2|0:0,0:0:0:0:
225,115,127450,2,0,B|238:146|224:175|224:175|224:156|212:137,1,100,10|0,0:2|0:0,0:0:0:0:
67,6,127711,6,0,B|36:-12|6:-3|6:-3|-14:45|22:75,1,150,2|0,3:2|0:0,0:0:0:0:
71,127,127972,1,2,3:2:0:0:
78,144,128102,1,2,0:2:0:0:
7,210,128233,1,10,0:2:0:0:
0,227,128363,1,2,3:2:0:0:
101,319,128494,6,0,B|202:295|202:295|209:315|226:335,1,150,6|0,3:2|0:0,0:0:0:0:
291,368,128755,2,0,P|344:382|382:354,1,100,2|0,3:2|0:0,0:0:0:0:
404,143,129016,2,0,P|390:196|418:234,1,100,10|0,0:2|0:0,0:0:0:0:
512,326,129276,6,0,B|474:304|430:331|456:357|415:380|367:354,1,150,6|0,3:2|0:0,0:0:0:0:
308,339,129537,2,0,B|288:292|288:292|317:249,1,100,0|0,3:2|0:0,0:0:0:0:
404,143,129798,1,10,0:2:0:0:
404,143,130059,6,0,B|333:157|333:157|301:202|301:202|218:219,1,200,6|2,3:2|3:2,0:0:0:0:
73,218,130450,1,2,0:2:0:0:
190,326,130581,2,0,B|203:352|227:363|227:363|172:372|127:334,1,150,10|0,0:2|0:0,0:0:0:0:
68,309,130842,6,0,P|53:266|74:215,1,100,2|2,3:2|3:2,0:0:0:0:
224,115,131103,2,0,B|186:137|142:110|168:84|127:61|79:87,1,150,2|0,3:2|0:0,0:0:0:0:
23,112,131363,1,14,0:2:0:0:
287,37,131624,5,6,3:2:0:0:
291,54,131755,2,0,L|304:152,1,89.9999972534181,2|2,0:2|3:2,0:0:0:0:
438,91,132016,1,2,0:2:0:0:
434,108,132147,2,0,L|421:206,1,89.9999972534181,10|2,0:2|0:2,0:0:0:0:
231,224,132407,5,2,3:2:0:0:
256,232,132537,2,0,B|283:236|301:248|301:248|318:234|343:223,1,89.9999972534181,2|2,0:2|3:2,0:0:0:0:
469,299,132798,1,2,0:2:0:0:
444,307,132928,2,0,B|417:311|399:323|399:323|382:309|357:298,1,89.9999972534181,10|2,0:2|0:2,0:0:0:0:
136,338,133189,6,0,B|182:326|182:326|214:242|214:242|260:230,2,179.999994506836,2|0|10,3:2|3:2|0:2,0:0:0:0:
37,352,133842,1,2,0:2:0:0:
125,245,133972,2,0,P|144:209|126:160,1,89.9999972534181,2|2,3:2|0:2,0:0:0:0:
180,81,134233,2,0,P|147:56|96:65,1,89.9999972534181,2|2,3:2|0:2,0:0:0:0:
34,4,134494,2,0,P|3:31|3:83,1,89.9999972534181,10|0,0:2|3:2,0:0:0:0:
129,164,134755,6,0,B|167:191|216:168|216:168|230:120|288:110,2,179.999994506836,2|2|10,3:2|3:2|0:2,0:0:0:0:
129,164,135407,1,2,0:2:0:0:
271,273,135537,2,0,B|232:246|183:269|183:269|169:317|111:327,2,179.999994506836,2|2|10,3:2|3:2|0:2,0:0:0:0:
452,226,136320,1,2,3:2:0:0:
461,256,136450,1,2,0:2:0:0:
387,154,136581,2,0,B|349:132|314:153|331:185|287:202|254:179,1,142.49999619484,6|0,3:2|0:0,0:0:0:0:
184,166,136842,1,10,0:2:0:0:
236,58,136972,1,2,3:2:0:0:
74,100,137102,6,0,B|49:202|49:202|78:213|90:241,1,157.499995193482,6|0,3:2|0:0,0:0:0:0:
125,302,137363,2,0,B|229:281|229:281|247:314|269:324,1,157.499995193482,10|0,0:2|0:0,0:0:0:0:
323,360,137624,1,14,3:2:0:0:
368,260,137755,1,10,0:2:0:0:
424,159,137885,6,0,B|373:144|373:144|350:104|350:104|290:88,1,150,6|0,3:2|0:0,0:0:0:0:
244,44,138146,2,0,P|223:85|243:134,1,100,2|0,3:2|0:0,0:0:0:0:
295,277,138407,2,0,P|316:236|296:187,1,100,10|0,0:2|0:0,0:0:0:0:
161,276,138667,6,0,B|139:305|148:335|148:335|196:355|230:317,1,150,2|0,3:2|0:0,0:0:0:0:
295,277,138929,1,2,3:2:0:0:
301,301,139059,1,2,0:2:0:0:
408,241,139189,1,14,0:2:0:0:
402,265,139320,1,2,3:2:0:0:
304,154,139450,6,0,B|263:129|222:159|248:185|199:214|159:182,1,150,6|0,3:2|0:0,0:0:0:0:
98,245,139711,2,0,B|85:214|99:185|99:185|99:204|111:223,1,100,2|0,3:2|0:0,0:0:0:0:
178,33,139972,2,0,B|191:64|177:93|177:93|177:74|165:55,1,100,10|0,0:2|0:0,0:0:0:0:
0,11,140233,5,2,3:2:0:0:
10,37,140363,1,2,0:2:0:0:
78,100,140494,1,2,3:2:0:0:
68,126,140624,1,2,0:2:0:0:
0,175,140755,1,14,0:2:0:0:
10,201,140885,1,2,3:2:0:0:
83,291,141016,6,0,L|233:264,1,150,6|0,3:2|0:0,0:0:0:0:
289,211,141276,2,0,P|311:257|294:307,1,100,2|0,3:2|0:0,0:0:0:0:
205,177,141537,2,0,P|233:134|285:124,1,100,10|0,0:2|0:0,0:0:0:0:
409,93,141798,5,6,3:2:0:0:
399,116,141929,1,2,0:2:0:0:
467,179,142059,1,2,3:2:0:0:
477,202,142190,1,2,0:2:0:0:
406,243,142320,1,14,0:2:0:0:
396,266,142451,1,2,3:2:0:0:
495,362,142581,6,0,B|424:348|424:348|392:303|392:303|309:286,1,200,6|0,3:2|3:2,0:0:0:0:
223,370,142972,1,2,0:2:0:0:
321,288,143102,2,0,B|360:252|361:216|334:180|288:188|275:223,1,165.000005035401,10|0,0:2|0:0,0:0:0:0:
224,275,143363,5,6,3:2:0:0:
231,299,143494,1,2,0:2:0:0:
142,208,143624,1,2,3:2:0:0:
135,232,143755,1,2,0:2:0:0:
218,121,143885,1,10,0:2:0:0:
225,145,144015,1,2,3:2:0:0:
128,75,144146,6,0,B|234:15|337:127|262:215|400:303|487:226,1,449.99998626709,6|0,3:2|0:0,0:0:0:0:
460,112,145711,6,0,B|424:141|382:160|382:160|436:315,1,250,4|0,0:1|0:0,0:0:0:0:
307,339,147276,5,2,0:2:0:0:
313,368,147537,1,2,0:2:0:0:
205,309,147798,1,2,0:2:0:0:
211,338,148059,1,2,0:2:0:0:
103,279,148320,2,0,B|139:179|139:179|115:161|101:128,1,157.499995193482,2|0,0:2|0:0,0:0:0:0:
68,76,148842,6,0,B|110:14|192:2|245:38|245:38|253:84|277:129|332:154,1,349.999989318848,4|0,0:1|0:0,0:0:0:0:
507,118,150407,5,2,0:2:0:0:
483,193,150667,1,2,0:2:0:0:
330,153,150929,1,2,0:2:0:0:
354,228,151189,1,2,0:2:0:0:
397,342,151450,1,2,0:2:0:0:
256,192,151516,12,6,153537,0:2:0:0:
