osu file format v14

[General]
AudioFilename: audio.mp3
AudioLeadIn: 0
PreviewTime: 83626
Countdown: 0
SampleSet: Soft
StackLeniency: 0.3
Mode: 0
LetterboxInBreaks: 0
WidescreenStoryboard: 1

[Editor]
Bookmarks: 13202,25724,38246,47104,50235,57017,57028,69550,96159,113897,153548
DistanceSpacing: 1.3
BeatDivisor: 4
GridSize: 32
TimelineZoom: 2.4

[Metadata]
Title:Hibiki
TitleUnicode:響
Artist:Shikata Akiko
ArtistUnicode:志方あきこ
Creator:imaginative
Version:Hard
Source:CHUNITHM AIR PLUS
Tags:mynt mildly accurate mildly_accurate vararaup japanese jp folk sound noise チュウニズム Genesis Of Destiny Rebellion sega original ost soundtrack videogame video game
BeatmapID:3544587
BeatmapSetID:1714963

[Difficulty]
HPDrainRate:4.5
CircleSize:3.6
OverallDifficulty:6
ApproachRate:8
SliderMultiplier:1.3
SliderTickRate:1

[Events]
//Background and Video events
0,0,"bg.jpeg",0,0
//Break Periods
2,119303,121483
//Storyboard Layer 0 (Background)
//Storyboard Layer 1 (Fail)
//Storyboard Layer 2 (Pass)
//Storyboard Layer 3 (Foreground)
//Storyboard Layer 4 (Overlay)
//Storyboard Sound Samples

[TimingPoints]
670,260.869565217391,6,2,1,30,1,0
670,-200,6,2,1,30,0,0
3800,-153.846153846154,6,2,1,30,0,0
5365,-200,6,2,2,30,0,0
5496,-200,6,2,1,30,0,0
6930,-142.857142857143,6,2,1,40,0,0
8496,-181.818181818182,6,2,3,40,0,0
9278,-142.857142857143,6,2,1,40,0,0
10061,-142.857142857143,6,2,1,55,0,0
11560,-142.857142857143,6,2,1,5,0,0
11626,-142.857142857143,6,2,1,55,0,0
12082,-142.857142857143,6,2,1,5,0,0
12148,-142.857142857143,6,2,1,57,0,0
12930,-125,6,2,1,57,0,0
13191,-111.111111111111,6,2,1,65,0,0
14691,-111.111111111111,6,2,1,5,0,0
14756,-111.111111111111,6,2,1,65,0,0
17821,-111.111111111111,6,2,1,5,0,0
17887,-111.111111111111,6,2,1,65,0,0
18604,-111.111111111111,6,2,1,5,0,0
18669,-111.111111111111,6,2,1,65,0,0
24930,-100,6,2,1,65,0,0
25125,-100,6,2,1,5,0,0
25191,-100,6,2,1,65,0,0
25713,-105.263157894737,6,2,1,70,0,0
26429,-105.263157894737,6,2,1,5,0,0
26495,-105.263157894737,6,2,1,70,0,0
27995,-105.263157894737,6,2,1,5,0,0
28061,-105.263157894737,6,2,1,70,0,0
29560,-105.263157894737,6,2,1,5,0,0
29626,-105.263157894737,6,2,1,70,0,0
32691,-105.263157894737,6,2,1,5,0,0
32756,-105.263157894737,6,2,1,70,0,0
34256,-105.263157894737,6,2,1,5,0,0
34322,-105.263157894737,6,2,1,70,0,0
38235,261.267145656434,6,2,1,50,1,0
38235,-111.111111111111,6,2,1,50,0,0
39802,261.802949646566,6,2,1,30,1,0
39802,-111.111111111111,6,2,1,30,0,0
40587,261.5518744551,6,2,1,30,1,0
40587,-111.111111111111,6,2,1,30,0,0
41365,260.869565217391,6,2,1,30,1,0
41365,-133.333333333333,6,2,1,30,0,0
42930,-153.846153846154,6,2,1,30,0,0
43713,-181.818181818182,6,2,1,30,0,0
44496,-285.714285714286,6,2,1,40,0,0
47104,-285.714285714286,6,2,1,60,0,0
47626,-222.222222222222,6,2,1,60,0,0
47887,-222.222222222222,6,2,1,35,0,0
50234,-222.222222222222,6,2,1,60,0,0
51017,-153.846153846154,6,2,1,35,0,0
54017,-222.222222222222,6,2,1,35,0,0
57017,-222.222222222222,6,2,1,60,0,0
57278,-117.647058823529,6,2,1,60,0,0
69539,-125,6,2,1,45,0,0
75539,-125,6,2,1,55,0,0
75800,-117.647058823529,6,2,1,55,0,0
79713,-125,6,2,1,55,0,0
80169,-125,6,2,1,55,0,0
80235,-125,6,2,1,55,0,0
80496,-117.647058823529,6,2,1,55,0,0
82061,-117.647058823529,6,2,1,65,0,0
82582,-117.647058823529,6,2,1,75,0,0
82843,-105.263157894737,6,2,1,75,0,0
83038,-105.263157894737,6,2,1,5,0,0
83104,-105.263157894737,6,2,1,80,0,0
83299,-105.263157894737,6,2,1,5,0,0
83365,-105.263157894737,6,2,1,80,0,0
83625,-100,6,2,1,90,0,1
83691,-100,6,2,1,80,0,1
86169,-100,6,2,1,5,0,1
86235,-100,6,2,1,80,0,1
88256,-100,6,2,1,5,0,1
88322,-100,6,2,1,80,0,1
89038,-100,6,2,1,5,0,1
89104,-100,6,2,1,80,0,1
89887,-105.263157894737,6,2,1,80,0,1
93212,-105.263157894737,6,2,1,5,0,1
93278,-105.263157894737,6,2,1,80,0,1
93473,-105.263157894737,6,2,1,5,0,1
93539,-105.263157894737,6,2,1,80,0,1
94517,-105.263157894737,6,2,1,5,0,1
94583,-105.263157894737,6,2,1,80,0,1
96148,-100,6,2,1,80,0,1
97125,-100,6,2,1,5,0,1
97191,-100,6,2,1,80,0,1
101560,-100,6,2,1,5,0,1
101626,-100,6,2,1,80,0,1
102082,-100,6,2,1,5,0,1
102148,-100,6,2,1,80,0,1
102409,-105.263157894737,6,2,1,80,0,1
102864,-105.263157894737,6,2,1,5,0,1
102931,-105.263157894737,6,2,1,80,0,1
103126,-105.263157894737,6,2,1,5,0,1
103191,-105.263157894737,6,2,1,80,0,1
103647,-105.263157894737,6,2,1,5,0,1
103713,-105.263157894737,6,2,1,80,0,1
104430,-105.263157894737,6,2,1,5,0,1
104496,-105.263157894737,6,2,1,80,0,1
108409,-100,6,2,1,80,0,1
108669,260.869565217391,5,2,1,70,1,0
109451,-111.111111111111,5,2,1,70,0,0
113755,-111.111111111111,5,2,1,5,0,0
113886,-117.647058823529,5,2,1,60,0,0
118516,-117.647058823529,5,2,1,5,0,0
118582,-117.647058823529,5,2,1,60,0,0
119103,260.869565217391,6,2,1,45,1,0
124320,-100,6,2,1,70,0,0
124581,-105.263157894737,6,2,1,70,0,0
124776,-105.263157894737,6,2,1,5,0,0
124842,-105.263157894737,6,2,1,85,0,0
125037,-105.263157894737,6,2,1,5,0,0
125103,-105.263157894737,6,2,1,85,0,0
125363,-100,6,2,1,85,0,1
125429,-100,6,2,1,77,0,1
125558,-100,6,2,1,5,0,1
125624,-100,6,2,1,77,0,1
127124,-100,6,2,1,5,0,1
127189,-100,6,2,1,77,0,1
128689,-100,6,2,1,5,0,1
128755,-100,6,2,1,77,0,1
129993,-100,6,2,1,5,0,1
130059,-100,6,2,1,77,0,1
130776,-100,6,2,1,5,0,1
130842,-100,6,2,1,77,0,1
131298,-100,6,2,1,5,0,1
131363,-100,6,2,1,77,0,1
131624,-105.263157894737,6,2,1,70,0,0
134950,-105.263157894737,6,2,1,5,0,0
135016,-105.263157894737,6,2,1,70,0,0
135211,-105.263157894737,6,2,1,5,0,0
135276,-105.263157894737,6,2,1,70,0,0
136776,-105.263157894737,6,2,1,5,0,0
136842,-105.263157894737,6,2,1,70,0,0
137102,-100,6,2,1,75,0,0
137297,-100,6,2,1,5,0,0
137364,-105.263157894737,6,2,1,85,0,0
137559,-105.263157894737,6,2,1,5,0,0
137624,-105.263157894737,6,2,1,85,0,0
137885,-100,6,2,1,85,0,1
137950,-100,6,2,1,77,0,1
138080,-100,6,2,1,5,0,1
138146,-100,6,2,1,77,0,1
139645,-100,6,2,1,5,0,1
139711,-100,6,2,1,77,0,1
141210,-100,6,2,1,5,0,1
141276,-100,6,2,1,77,0,1
143297,-100,6,2,1,5,0,1
143363,-100,6,2,1,77,0,1
144146,-100,6,2,1,80,0,0
144211,-100,6,2,1,55,0,0
145711,-100,6,2,2,55,0,0
145842,-100,6,2,1,55,0,0
147016,-100,6,2,1,55,0,0
147276,-133.333333333333,6,2,1,55,0,0
148842,-166.666666666667,6,2,3,55,0,0
148972,-166.666666666667,6,2,1,55,0,0
150407,-166.666666666667,6,2,1,70,0,0
153537,-166.666666666667,6,2,2,65,0,0

[Colours]
Combo1 : 255,64,64
Combo2 : 254,126,168
Combo3 : 254,148,129

[HitObjects]
8,17,670,6,0,B|83:-30|165:33|111:118|201:171|266:129,1,325,4|0,0:1|0:0,0:0:0:0:
364,80,2235,2,0,B|410:128|461:157|461:157|378:342,1,325,2|0,0:3|0:0,0:0:0:0:
266,372,3800,6,0,P|220:378|189:355,2,84.4999961318971,2|2|2,0:2|0:2|0:2,0:0:0:0:
333,263,4583,1,2,0:2:0:0:
450,309,4843,2,0,L|438:220,1,84.4999961318971,2|0,0:2|0:0,0:0:0:0:
479,108,5365,6,0,B|437:118|382:119|382:119|341:170|301:220|301:220|258:222|200:232,1,325,4|0,0:1|0:0,0:0:0:0:
86,246,6930,2,0,P|65:293|91:334,2,90.9999972229005,2|2|2,0:2|0:2|0:2,0:0:0:0:
155,149,7713,1,2,0:2:0:0:
105,41,7974,2,0,B|152:22|152:22|201:42,1,90.9999972229005,2|0,0:2|0:0,0:0:0:0:
306,107,8496,6,0,B|339:131|373:117|373:117|390:75|437:71,1,143.000004364014,4|0,0:1|0:0,0:0:0:0:
481,176,9278,2,0,L|460:361,1,181.999994445801,2|0,0:3|0:0,0:0:0:0:
362,289,10061,2,0,P|321:273|270:296,1,90.9999972229005,2|2,0:2|0:2,0:0:0:0:
165,365,10582,1,2,0:2:0:0:
50,290,10843,1,2,0:2:0:0:
154,201,11104,2,0,B|127:101|127:101|157:93|185:72,1,159.249995140076,2|0,0:2|0:0,0:0:0:0:
207,61,11626,6,0,B|250:41|289:68|269:91|313:110|360:83,1,159.249995140076,4|0,0:2|0:0,0:0:0:0:
383,70,12148,5,0,3:2:0:0:
456,183,12409,1,0,3:2:0:0:
403,306,12669,1,0,3:2:0:0:
270,334,12930,2,0,L|263:273,1,52,0|0,3:2|3:2,0:0:0:0:
239,203,13191,6,0,P|212:211|192:232,2,38.9999988098145,6|2|2,3:2|0:2|0:2,0:0:0:0:
263,157,13452,2,0,P|290:165|310:186,2,38.9999988098145,2|2|2,0:2|0:2|0:2,0:0:0:0:
240,110,13713,2,0,P|213:118|193:139,2,38.9999988098145,2|2|2,0:2|0:2|0:2,0:0:0:0:
271,69,13974,2,0,P|329:53|380:97,1,116.999996429443,10|2,0:2|3:2,0:0:0:0:
373,82,14496,2,0,L|384:181,1,87.7499973220826,2|0,3:2|0:0,0:0:0:0:
367,203,14756,6,0,B|334:218|305:197|320:180|283:168|252:186,1,116.999996429443,2|2,3:2|0:2,0:0:0:0:
191,219,15148,2,0,P|169:264|205:319,1,116.999996429443,0|2,3:2|3:2,0:0:0:0:
256,369,15539,2,0,L|321:360,1,58.4999982147217,10|2,0:2|3:2,0:0:0:0:
338,288,15800,2,0,L|403:279,1,58.4999982147217,2|2,3:2|0:2,0:0:0:0:
408,204,16061,2,0,L|473:195,1,58.4999982147217,2|2,3:2|0:2,0:0:0:0:
503,122,16322,6,0,L|512:72,2,38.9999988098145,6|2|2,3:2|0:2|0:2,0:0:0:0:
479,76,16583,2,0,L|488:26,2,38.9999988098145,2|2|2,0:2|0:2|0:2,0:0:0:0:
445,37,16843,2,0,L|454:-13,2,38.9999988098145,2|2|2,0:2|0:2|0:2,0:0:0:0:
397,57,17104,2,0,B|320:80|320:80|309:64|283:52,1,116.999996429443,10|2,0:2|3:2,0:0:0:0:
293,57,17626,2,0,P|312:95|298:141,1,87.7499973220826,2|0,3:2|0:0,0:0:0:0:
280,169,17887,6,0,P|254:162|220:173,2,58.4999982147217,2|2|2,3:2|0:2|0:2,0:0:0:0:
119,132,18409,2,0,B|108:151|91:166|91:166|109:218,1,87.7499973220826,2|0,0:2|0:0,0:0:0:0:
110,244,18669,2,0,L|171:258,1,58.4999982147217,10|2,0:2|3:2,0:0:0:0:
242,240,18931,2,0,L|303:254,1,58.4999982147217,2|2,3:2|0:2,0:0:0:0:
371,232,19191,2,0,L|432:246,1,58.4999982147217,2|2,3:2|0:2,0:0:0:0:
496,199,19452,6,0,B|508:115|508:115|491:128|472:134,1,116.999996429443,6|2,3:2|0:2,0:0:0:0:
440,71,19844,1,0,3:2:0:0:
440,71,19974,2,0,L|373:78,1,58.4999982147217,2|2,0:2|3:2,0:0:0:0:
311,107,20235,2,0,B|288:136|293:168|293:168|315:194|311:230,2,116.999996429443,10|2|2,0:2|3:2|3:2,0:0:0:0:
183,23,21017,6,0,B|167:44|146:59|146:59|164:132,1,116.999996429443,2|2,3:2|0:2,0:0:0:0:
120,188,21409,1,2,3:2:0:0:
120,188,21539,2,0,L|108:251,1,58.4999982147217,2|2,0:2|3:2,0:0:0:0:
97,320,21800,2,0,B|130:335|158:317|144:297|179:283|212:303,2,116.999996429443,10|2|2,0:2|3:2|3:2,0:0:0:0:
189,198,22583,6,0,P|249:191|284:240,1,116.999996429443,2|2,3:2|0:2,0:0:0:0:
290,310,22974,1,2,3:2:0:0:
290,310,23104,2,0,P|322:320|352:317,1,58.4999982147217,2|0,0:2|3:2,0:0:0:0:
422,307,23365,2,0,L|407:216,1,87.7499973220826,10|0,0:2|0:0,0:0:0:0:
375,199,23626,2,0,L|384:142,1,58.4999982147217,2|0,3:2|0:0,0:0:0:0:
390,65,23887,1,2,3:2:0:0:
226,78,24148,6,0,L|236:142,2,58.4999982147217,2|2|2,3:2|3:2|3:2,0:0:0:0:
167,27,24539,1,2,3:2:0:0:
167,27,24669,2,0,P|136:19|98:33,1,58.4999982147217,2|0,3:2|3:2,0:0:0:0:
40,70,24930,2,0,L|52:169,1,97.5,10|0,0:2|0:0,0:0:0:0:
28,202,25191,2,0,B|22:258|58:289|58:289|52:267|62:240,1,130,4|8,3:2|0:2,0:0:0:0:
125,204,25583,1,8,0:2:0:0:
185,265,25713,6,0,B|217:275|217:275|257:258,1,61.7499983510972,6|2,3:2|0:2,0:0:0:0:
311,221,25974,2,0,B|321:189|321:189|304:149,1,61.7499983510972,2|2,3:2|0:2,0:0:0:0:
256,103,26234,2,0,B|208:88|208:88|147:113,1,92.6249975266457,10|0,0:2|0:0,0:0:0:0:
132,123,26495,1,2,3:2:0:0:
239,257,26756,1,2,3:2:0:0:
363,377,27017,1,10,0:2:0:0:
484,254,27278,6,0,B|448:245|419:264|441:281|400:302|366:282,1,123.499996702194,6|2,3:2|3:2,0:0:0:0:
301,260,27669,1,2,0:2:0:0:
301,260,27800,2,0,L|313:166,1,92.6249975266457,10|0,0:2|0:0,0:0:0:0:
297,130,28061,1,2,3:2:0:0:
144,211,28322,1,2,3:2:0:0:
28,89,28583,1,10,0:2:0:0:
28,89,28713,1,0,3:2:0:0:
109,115,28843,6,0,B|141:125|141:125|176:112,1,61.7499983510972,6|2,3:2|0:2,0:0:0:0:
247,103,29104,2,0,B|237:135|237:135|250:170,1,61.7499983510972,2|2,3:2|0:2,0:0:0:0:
229,240,29365,2,0,B|181:225|181:225|128:244,1,92.6249975266457,10|0,0:2|0:0,0:0:0:0:
102,253,29626,1,2,3:2:0:0:
241,355,29887,1,2,3:2:0:0:
373,244,30148,1,10,0:2:0:0:
505,132,30409,6,0,L|438:140,1,61.7499983510972,2|0,3:2|0:0,0:0:0:0:
379,89,30670,2,0,L|312:81,1,61.7499983510972,2|0,3:2|0:0,0:0:0:0:
248,40,30930,2,0,P|235:68|242:107,1,61.7499983510972,10|0,0:2|0:0,0:0:0:0:
245,182,31191,1,2,3:2:0:0:
245,182,31321,1,8,0:2:0:0:
166,165,31452,2,0,B|82:153|82:153|70:173|43:196,1,123.499996702194,2|0,3:2|3:2,0:0:0:0:
17,252,31843,1,8,0:2:0:0:
90,298,31974,6,0,P|129:308|160:293,1,61.7499983510972,6|2,3:2|0:2,0:0:0:0:
210,250,32235,2,0,P|200:289|215:320,1,61.7499983510972,2|2,3:2|0:2,0:0:0:0:
266,362,32496,2,0,B|293:366|314:354|298:341|330:326|361:338,1,92.6249975266457,10|0,0:2|0:0,0:0:0:0:
388,348,32756,1,2,3:2:0:0:
436,181,33017,1,2,3:2:0:0:
479,13,33278,1,10,0:2:0:0:
356,117,33539,6,0,B|306:110|306:110|287:91|287:91|224:83,1,123.499996702194,6|2,3:2|3:2,0:0:0:0:
162,69,33930,1,2,0:2:0:0:
162,69,34061,2,0,B|134:101|134:101|156:160,1,92.6249975266457,10|0,0:2|0:0,0:0:0:0:
162,187,34322,1,2,3:2:0:0:
20,285,34582,1,2,3:2:0:0:
170,370,34843,1,6,3:2:0:0:
243,337,34974,1,8,0:2:0:0:
250,257,35104,6,0,B|213:253|180:241|180:241|165:269|151:293,2,123.499996702194,6|0|8,3:2|3:2|0:2,0:0:0:0:
392,181,35887,2,0,B|430:172|462:156|462:156|488:181|490:217,2,123.499996702194,0|0|10,3:2|3:2|0:2,0:0:0:0:
322,140,36539,1,2,3:2:0:0:
263,85,36669,6,0,B|227:76|198:95|220:112|179:133|145:113,2,123.499996702194,2|0|8,3:2|3:2|0:2,0:0:0:0:
406,7,37452,1,0,3:2:0:0:
406,7,37583,1,8,0:2:0:0:
478,40,37713,2,0,L|465:106,1,61.7499983510972,0|0,3:2|0:0,0:0:0:0:
447,178,37974,1,8,0:2:0:0:
503,319,38235,6,0,P|510:350|501:380,2,58.4999982147217,6|2|2,3:2|0:2|0:2,0:0:0:0:
431,345,38626,1,2,0:2:0:0:
431,345,38757,1,2,0:2:0:0:
316,245,39018,2,0,P|292:234|256:235,2,58.4999982147217,2|2|2,0:2|0:2|0:2,0:0:0:0:
276,310,39410,1,2,0:2:0:0:
276,310,39541,1,2,0:2:0:0:
123,315,39802,6,0,B|152:326|152:326|193:313,2,58.4999982147217,2|2|2,0:2|0:2|0:2,0:0:0:0:
54,348,40194,2,0,B|26:361|26:361|-15:352,2,58.4999982147217,2|2|2,0:2|0:2|0:2,0:0:0:0:
123,315,40587,2,0,L|134:251,1,58.4999982147217,2|2,0:2|0:2,0:0:0:0:
112,184,40848,2,0,B|62:126|80:77|80:77|100:106|128:113,1,175.499994644165,2|2,0:2|0:2,0:0:0:0:
148,42,41365,6,0,B|187:47|187:47|202:61|202:61|253:68,2,97.50000371933,2|2|2,0:2|0:2|0:2,0:0:0:0:
220,146,42148,2,0,B|274:175|315:134|292:112|337:71|398:102,1,195.00000743866,2|2,0:2|0:2,0:0:0:0:
473,172,42930,2,0,B|477:193|490:211|490:211|471:223|457:250,1,84.4999961318971,2|2,0:2|0:2,0:0:0:0:
415,340,43452,1,2,0:2:0:0:
316,319,43713,2,0,B|272:325|272:325|252:373|252:373|203:380,1,143.000004364014,2|2,0:2|0:2,0:0:0:0:
92,298,44496,6,0,B|70:260|61:214|99:146|165:106|286:163|287:210|266:274|207:297|164:251,1,409.499987503052,4|2,0:1|0:2,0:0:0:0:
158,376,47104,1,14,3:2:0:0:
278,358,47365,1,14,3:2:0:0:
398,340,47626,6,0,B|359:316|245:224|330:82|453:130|502:196|477:238|406:369|333:272|342:226|312:194|253:204|208:232,1,526.499983932496,14|2,3:2|0:2,0:0:0:0:
93,273,50234,1,14,3:2:0:0:
125,155,50496,1,14,3:2:0:0:
40,66,50757,1,14,3:2:0:0:
40,66,51017,6,0,B|78:85|78:85|123:72,1,84.4999961318971,2|2,0:2|0:2,0:0:0:0:
215,42,51539,2,0,L|203:134,2,84.4999961318971,2|2|2,0:2|0:2|0:2,0:0:0:0:
317,2,52322,6,0,B|377:180|377:180|350:200|332:234,1,253.499988395691,2|0,0:2|0:0,0:0:0:0:
296,296,53234,2,0,B|215:309|215:309|188:348|188:348|102:363,1,211.249990329743,2|0,0:2|0:0,0:0:0:0:
33,354,54017,6,0,B|118:401|204:327|140:237|236:173|309:216,1,350.99998928833,2|2,0:2|0:2,0:0:0:0:
256,192,55648,12,0,56756,0:0:0:0:
256,192,57017,5,4,3:2:0:0:
116,159,57278,2,0,L|105:222,1,55.2500010538101,2|0,0:2|0:0,0:0:0:0:
74,283,57539,2,0,P|104:294|136:287,1,55.2500010538101,2|0,0:2|0:0,0:0:0:0:
202,272,57800,1,10,0:2:0:0:
336,221,58061,1,2,0:2:0:0:
469,167,58322,1,2,0:2:0:0:
390,46,58583,6,0,B|349:26|303:47|328:79|284:107|234:74,1,165.75000316143,2|2,3:2|0:2,0:0:0:0:
184,27,59104,1,2,0:2:0:0:
40,36,59365,2,0,L|50:98,1,55.2500010538101,10|2,0:2|0:2,0:0:0:0:
28,165,59626,2,0,L|38:227,1,55.2500010538101,2|0,0:2|0:0,0:0:0:0:
5,290,59887,2,0,L|15:352,1,55.2500010538101,2|2,3:2|0:2,0:0:0:0:
84,376,60148,5,2,3:2:0:0:
197,288,60409,2,0,P|208:259|195:229,1,55.2500010538101,2|0,0:2|0:0,0:0:0:0:
158,172,60669,1,2,0:2:0:0:
46,88,60930,1,10,0:2:0:0:
184,49,61191,1,2,0:2:0:0:
322,10,61452,1,2,3:2:0:0:
451,71,61713,6,0,P|438:146|427:243,1,165.75000316143,2|2,3:2|0:2,0:0:0:0:
448,309,62235,1,2,0:2:0:0:
314,254,62496,2,0,L|302:319,1,55.2500010538101,10|2,0:2|0:2,0:0:0:0:
231,334,62756,2,0,L|220:279,1,55.2500010538101,2|2,0:2|0:2,0:0:0:0:
149,248,63017,2,0,L|137:313,1,55.2500010538101,10|2,0:2|0:2,0:0:0:0:
90,363,63278,5,6,3:2:0:0:
39,229,63539,2,0,P|28:199|33:173,1,55.2500010538101,2|0,0:2|0:0,0:0:0:0:
56,103,63800,1,2,0:2:0:0:
178,28,64061,2,0,B|251:13|251:13|267:34|284:47,1,110.50000210762,10|2,0:2|0:2,0:0:0:0:
359,156,64583,1,2,3:2:0:0:
485,89,64843,6,0,B|517:127|509:165|509:165|463:193|467:248,1,165.75000316143,2|0,3:2|0:0,0:0:0:0:
481,308,65365,1,0,0:0:0:0:
352,221,65626,2,0,L|290:232,1,55.2500010538101,10|2,0:2|0:2,0:0:0:0:
232,188,65887,2,0,L|170:199,1,55.2500010538101,2|2,0:2|0:2,0:0:0:0:
115,151,66148,2,0,L|53:162,1,55.2500010538101,2|2,3:2|0:2,0:0:0:0:
9,102,66409,6,0,P|-2:71|5:45,1,55.2500010538101,2|2,3:2|0:2,0:0:0:0:
61,0,66669,1,2,0:2:0:0:
173,89,66930,1,2,3:2:0:0:
287,2,67191,2,0,B|341:15|341:15|355:36|375:55|375:55|445:73,1,165.75000316143,10|0,0:2|0:0,0:0:0:0:
508,68,67713,2,0,L|492:125,1,55.2500010538101,2|2,3:2|0:2,0:0:0:0:
437,174,67974,6,0,L|455:294,1,110.50000210762,2|0,3:2|0:0,0:0:0:0:
346,378,68495,1,2,0:2:0:0:
346,378,68626,1,2,0:2:0:0:
270,344,68756,2,0,P|238:336|211:345,1,55.2500010538101,10|2,0:2|0:2,0:0:0:0:
146,374,69017,1,2,3:2:0:0:
91,253,69278,1,2,3:2:0:0:
40,138,69539,6,0,L|27:198,2,52,2|2|2,3:2|0:2|0:2,0:0:0:0:
257,212,70322,2,0,L|270:272,2,52,2|2|2,0:2|0:2|0:2,0:0:0:0:
40,138,71104,6,0,B|22:157|22:157|45:178,2,52,2|2|2,0:2|0:2|0:2,0:0:0:0:
265,89,71887,2,0,B|284:106|284:106|266:126,2,52,2|2|2,0:2|0:2|0:2,0:0:0:0:
169,25,72409,1,0,3:2:0:0:
69,79,72669,6,0,L|83:187,1,104,2|2,3:2|0:2,0:0:0:0:
64,295,73191,1,2,0:2:0:0:
168,248,73452,2,0,B|210:238|240:248|240:248|215:251|199:269,1,104,2|2,0:2|0:2,0:0:0:0:
145,352,73974,1,2,0:2:0:0:
265,321,74235,6,0,B|341:332|341:332|382:367|382:367|462:378,1,208,2|2,0:2|0:2,0:0:0:0:
508,251,75017,2,0,L|500:192,1,52,2|2,0:2|0:2,0:0:0:0:
439,159,75278,2,0,L|431:100,1,52,2|2,0:2|0:2,0:0:0:0:
364,78,75539,2,0,L|356:19,1,52,2|2,3:2|0:2,0:0:0:0:
282,3,75800,6,0,P|251:-4|219:6,2,55.2500010538101,2|0|2,3:2|0:0|0:2,0:0:0:0:
250,120,76322,1,0,0:0:0:0:
212,235,76583,2,0,P|236:241|276:228,2,55.2500010538101,2|2|2,0:2|0:2|0:2,0:0:0:0:
138,208,76974,1,0,0:0:0:0:
138,208,77104,1,0,0:0:0:0:
78,314,77365,6,0,B|65:341|65:341|77:367,2,55.2500010538101,2|2|2,3:2|0:2|0:2,0:0:0:0:
138,208,77887,1,0,0:0:0:0:
74,110,78148,2,0,B|61:83|61:83|71:60,2,55.2500010538101,2|2|2,0:2|0:2|0:2,0:0:0:0:
150,87,78539,1,0,0:0:0:0:
150,87,78669,1,0,0:0:0:0:
264,154,78930,5,2,3:2:0:0:
378,86,79191,1,2,0:2:0:0:
451,196,79452,1,2,0:2:0:0:
325,270,79713,6,0,B|273:300|219:258|255:201|196:166|153:194,1,208,2|2,0:2|0:2,0:0:0:0:
31,253,80496,2,0,L|40:316,1,55.2500010538101,2|2,3:2|0:2,0:0:0:0:
74,375,80756,1,2,0:2:0:0:
256,192,80822,12,2,82061,3:2:0:0:
256,192,82582,5,0,3:2:0:0:
256,192,82713,1,0,3:2:0:0:
174,221,82843,2,0,B|131:235|131:235|80:205,1,92.6249975266457,0|0,3:2|0:0,0:0:0:0:
56,183,83104,2,0,B|70:226|70:226|40:277,1,92.6249975266457,8|0,3:2|0:0,0:0:0:0:
19,301,83365,1,8,3:2:0:0:
95,341,83496,1,8,3:2:0:0:
179,373,83626,6,0,L|247:362,1,65,6|0,3:2|0:0,0:0:0:0:
312,312,83887,2,0,L|380:321,1,65,2|0,3:2|0:0,0:0:0:0:
457,296,84148,1,10,0:2:0:0:
389,140,84409,2,0,B|353:124|320:146|337:165|300:181|261:159,1,130,2|0,3:2|3:2,0:0:0:0:
190,157,84800,1,2,0:2:0:0:
190,157,84930,2,0,L|183:88,1,65,14|2,0:2|3:2,0:0:0:0:
125,21,85191,6,0,P|91:15|58:33,1,65,6|0,3:2|0:0,0:0:0:0:
1,84,85452,2,0,P|-5:118|13:151,1,65,2|0,3:2|0:0,0:0:0:0:
34,225,85713,1,10,0:2:0:0:
171,127,85974,2,0,B|212:129|212:129|229:144|229:144|272:148,1,97.5,2|0,3:2|0:0,0:0:0:0:
293,117,86235,2,0,P|335:120|359:143,1,65,2|2,3:2|0:2,0:0:0:0:
432,107,86496,2,0,P|450:146|442:178,1,65,14|2,0:2|3:2,0:0:0:0:
507,234,86756,5,6,3:2:0:0:
372,338,87017,2,0,B|340:328|340:328|307:344,1,65,2|0,3:2|0:0,0:0:0:0:
232,373,87278,2,0,B|200:383|200:383|167:367,1,65,10|0,0:2|0:0,0:0:0:0:
88,331,87539,2,0,B|65:253|65:253|91:242|110:213,1,130,6|0,3:2|3:2,0:0:0:0:
14,87,88061,2,0,P|64:98|97:61,1,97.5,10|0,0:2|0:0,0:0:0:0:
120,35,88322,6,0,B|168:28|205:15|205:15|217:39|233:51,1,130,6|2,3:2|3:2,0:0:0:0:
303,91,88713,1,2,0:2:0:0:
377,52,88843,2,0,B|408:88|408:88|384:142,1,97.5,10|0,0:2|0:0,0:0:0:0:
378,175,89104,2,0,L|389:248,1,65,6|2,3:2|3:2,0:0:0:0:
390,324,89365,2,0,P|355:334|322:322,1,65,2|0,3:2|0:0,0:0:0:0:
251,290,89626,1,8,0:2:0:0:
90,351,89887,6,0,P|100:311|91:287,1,61.7499983510972,6|2,3:2|0:2,0:0:0:0:
62,218,90148,2,0,B|113:222|113:222|134:242|134:242|187:250,1,123.499996702194,2|10,3:2|0:2,0:0:0:0:
254,218,90539,1,2,0:2:0:0:
254,218,90669,2,0,P|291:209|319:222,1,61.7499983510972,2|0,3:2|0:0,0:0:0:0:
389,238,90930,2,0,L|380:167,1,61.7499983510972,2|0,3:2|0:0,0:0:0:0:
385,96,91191,1,8,0:2:0:0:
233,17,91452,6,0,P|201:10|171:17,1,61.7499983510972,2|2,3:2|0:2,0:0:0:0:
100,53,91713,2,0,B|114:81|135:94|135:94|101:161,1,123.499996702194,2|10,3:2|0:2,0:0:0:0:
95,238,92104,1,2,0:2:0:0:
95,238,92235,2,0,B|129:253|160:232|144:214|179:199|216:219,1,123.499996702194,2|2,3:2|3:2,0:0:0:0:
288,243,92626,1,0,0:0:0:0:
288,243,92756,2,0,B|319:254|319:254|360:234,1,61.7499983510972,8|0,0:2|3:2,0:0:0:0:
408,191,93017,6,0,P|395:238|422:278,1,92.6249975266457,2|0,3:2|0:0,0:0:0:0:
439,308,93278,2,0,P|395:300|348:338,1,92.6249975266457,2|0,3:2|0:0,0:0:0:0:
333,358,93539,1,10,0:2:0:0:
178,316,93800,2,0,B|235:277|235:277|201:149,1,185.249995053291,2|0,3:2|0:0,0:0:0:0:
204,84,94322,2,0,B|242:89|242:89|257:104|257:104|297:112,1,92.6249975266457,10|0,0:2|0:0,0:0:0:0:
326,126,94583,6,0,P|365:132|392:120,1,61.7499983510972,2|2,3:2|0:2,0:0:0:0:
434,61,94843,2,0,L|425:198,1,123.499996702194,2|10,3:2|0:2,0:0:0:0:
482,242,95235,1,2,0:2:0:0:
451,322,95365,6,0,B|414:337|386:319|399:297|359:284|327:308,1,123.499996702194,6|0,3:2|3:2,0:0:0:0:
268,340,95756,1,8,0:2:0:0:
268,340,95887,2,0,P|240:330|203:342,1,61.7499983510972,0|8,3:2|0:2,0:0:0:0:
126,374,96148,6,0,L|140:307,1,65,6|0,3:2|0:0,0:0:0:0:
69,263,96408,2,0,L|83:196,1,65,2|0,3:2|0:0,0:0:0:0:
20,140,96669,1,10,0:2:0:0:
136,17,96930,2,0,B|163:5|187:21|175:35|202:47|232:31,1,97.5,2|0,3:2|0:0,0:0:0:0:
266,20,97191,1,2,3:2:0:0:
350,46,97321,1,2,0:2:0:0:
350,46,97451,2,0,L|339:110,1,65,14|2,0:2|3:2,0:0:0:0:
296,191,97713,6,0,P|327:205|358:202,1,65,6|0,3:2|0:0,0:0:0:0:
392,279,97974,2,0,P|420:258|433:229,1,65,2|0,3:2|0:0,0:0:0:0:
503,188,98235,1,10,0:2:0:0:
418,41,98496,2,0,L|345:54,1,65,2|2,3:2|0:2,0:0:0:0:
276,86,98756,2,0,L|203:99,1,65,2|2,3:2|0:2,0:0:0:0:
136,131,99017,1,14,0:2:0:0:
136,131,99148,1,2,3:2:0:0:
185,207,99278,5,6,3:2:0:0:
150,372,99539,2,0,B|183:384|183:384|215:371,1,65,2|0,3:2|0:0,0:0:0:0:
282,327,99800,2,0,B|294:294|294:294|281:263,1,65,10|0,0:2|0:0,0:0:0:0:
334,191,100061,2,0,B|248:170|248:170|234:184|210:195,1,130,6|0,3:2|3:2,0:0:0:0:
97,76,100583,1,10,0:2:0:0:
97,76,100713,1,0,0:0:0:0:
168,22,100843,6,0,B|191:4|223:6|223:6|247:40|291:37,1,130,6|0,3:2|3:2,0:0:0:0:
371,26,101235,1,2,0:2:0:0:
371,26,101365,2,0,L|352:129,1,97.5,10|0,0:2|0:0,0:0:0:0:
374,158,101626,2,0,L|361:226,1,65,6|0,3:2|3:2,0:0:0:0:
408,293,101887,2,0,P|356:311|312:294,1,97.5,0|0,3:2|0:0,0:0:0:0:
280,275,102148,1,8,0:2:0:0:
136,346,102409,6,0,L|121:279,1,61.7499983510972,6|2,3:2|0:2,0:0:0:0:
55,242,102669,2,0,P|76:203|50:160,1,92.6249975266457,2|0,3:2|0:0,0:0:0:0:
30,130,102931,2,0,P|72:141|116:114,1,92.6249975266457,10|0,0:2|0:0,0:0:0:0:
137,86,103191,2,0,L|144:150,1,61.7499983510972,2|0,3:2|0:0,0:0:0:0:
182,217,103452,2,0,B|215:202|215:202|246:227|281:216,1,92.6249975266457,2|0,3:2|0:0,0:0:0:0:
306,209,103713,1,8,0:2:0:0:
416,92,103974,6,0,L|406:152,1,61.7499983510972,2|2,3:2|0:2,0:0:0:0:
468,203,104235,2,0,P|484:247|457:289,1,92.6249975266457,2|0,3:2|0:0,0:0:0:0:
430,309,104496,1,10,0:2:0:0:
309,203,104756,1,2,3:2:0:0:
210,329,105017,1,2,3:2:0:0:
76,238,105278,2,0,L|90:165,1,61.7499983510972,10|0,0:2|3:2,0:0:0:0:
97,91,105539,6,0,B|127:70|163:85|163:85|176:118|213:124,1,123.499996702194,6|0,3:2|3:2,0:0:0:0:
364,92,106061,1,10,0:2:0:0:
364,92,106191,1,2,0:2:0:0:
436,128,106322,2,0,B|416:155|390:167|390:167|419:196|428:234,1,123.499996702194,2|2,3:2|3:2,0:0:0:0:
484,367,106843,2,0,L|417:355,1,61.7499983510972,10|0,0:2|3:2,0:0:0:0:
354,313,107104,6,0,B|319:302|289:316|302:338|269:358|227:338,1,123.499996702194,2|0,3:2|3:2,0:0:0:0:
162,325,107496,1,0,0:0:0:0:
162,325,107626,2,0,L|175:259,1,61.7499983510972,8|0,0:2|3:2,0:0:0:0:
208,191,107887,1,4,3:2:0:0:
86,81,108148,1,6,3:2:0:0:
86,81,108278,1,0,3:2:0:0:
166,53,108409,2,0,P|207:46|233:60,1,65,10|8,0:2|0:2,0:0:0:0:
308,72,108669,5,6,3:2:0:0:
387,201,108930,1,2,3:2:0:0:
466,330,109190,1,2,3:2:0:0:
320,375,109451,2,0,L|253:371,1,58.4999982147217,2|2,3:2|0:2,0:0:0:0:
191,342,109712,2,0,L|124:338,1,58.4999982147217,10|2,0:2|0:2,0:0:0:0:
56,331,109973,5,2,3:2:0:0:
168,228,110234,1,2,3:2:0:0:
65,116,110495,1,2,3:2:0:0:
177,14,110756,2,0,P|186:45|177:76,1,58.4999982147217,2|2,3:2|0:2,0:0:0:0:
145,137,111016,2,0,P|176:128|207:137,1,58.4999982147217,10|2,0:2|0:2,0:0:0:0:
267,171,111277,5,2,3:2:0:0:
412,125,111538,1,2,3:2:0:0:
461,269,111799,1,2,3:2:0:0:
315,313,112060,2,0,L|250:298,2,58.4999982147217,2|2|10,3:2|0:2|0:2,0:0:0:0:
382,276,112451,1,2,0:2:0:0:
382,276,112582,6,0,B|408:203|408:203|389:192|369:166,1,116.999996429443,2|2,3:2|3:2,0:0:0:0:
314,39,113103,1,2,3:2:0:0:
257,180,113364,2,0,B|210:203|168:164|193:134|152:96|107:119,1,175.499994644165,2|0,3:2|0:0,0:0:0:0:
40,143,113886,6,0,L|59:266,2,110.50000210762,2|2|2,3:2|3:2|3:2,0:0:0:0:
138,31,114669,2,0,P|170:25|200:35,1,55.2500010538101,2|2,3:2|0:2,0:0:0:0:
260,65,114929,2,0,L|242:135,1,55.2500010538101,2|2,3:2|0:2,0:0:0:0:
201,181,115190,2,0,B|212:228|212:228|232:242|232:242|242:285,2,110.50000210762,2|2|2,3:2|3:2|3:2,0:0:0:0:
342,209,115973,2,0,P|375:216|407:203,1,55.2500010538101,2|2,3:2|0:2,0:0:0:0:
468,185,116234,2,0,L|461:121,1,55.2500010538101,2|2,3:2|0:2,0:0:0:0:
420,71,116495,6,0,B|395:85|387:114|387:114|351:103|327:115,2,110.50000210762,2|2|2,3:2|3:2|3:2,0:0:0:0:
287,16,117277,2,0,P|255:10|227:21,1,55.2500010538101,2|2,3:2|0:2,0:0:0:0:
163,50,117538,2,0,L|174:113,1,55.2500010538101,2|2,3:2|0:2,0:0:0:0:
172,182,117799,2,0,P|149:191|110:180,1,55.2500010538101,2|2,3:2|0:2,0:0:0:0:
45,161,118060,2,0,B|10:282|10:282|40:299|73:337,1,193.375003688335,2|0,3:2|0:0,0:0:0:0:
91,350,118582,1,0,3:2:0:0:
210,293,118842,1,0,3:2:0:0:
339,232,119103,5,4,0:1:0:0:
256,192,122233,12,2,123798,0:2:0:0:
256,192,124320,5,0,3:2:0:0:
256,192,124450,1,0,3:2:0:0:
340,172,124581,2,0,B|380:178|380:178|391:189|391:189|432:197,1,92.6249975266457,0|0,3:2|0:0,0:0:0:0:
469,206,124842,2,0,B|463:246|463:246|452:257|452:257|444:298,1,92.6249975266457,8|0,3:2|0:0,0:0:0:0:
437,336,125103,1,8,3:2:0:0:
355,308,125233,1,8,3:2:0:0:
276,353,125363,6,0,P|231:367|184:338,1,97.5,6|0,3:2|0:0,0:0:0:0:
153,320,125624,2,0,L|162:252,1,65,2|0,3:2|0:0,0:0:0:0:
115,184,125885,1,10,0:2:0:0:
53,26,126146,2,0,B|72:24|83:13|83:13|99:23|131:26,1,65,2|0,3:2|0:0,0:0:0:0:
181,73,126407,2,0,P|223:76|245:64,1,65,0|2,3:2|0:2,0:0:0:0:
324,42,126668,2,0,L|320:115,1,65,10|2,0:2|3:2,0:0:0:0:
266,181,126929,6,0,B|272:221|272:221|261:239|261:239|270:286,1,97.5,6|0,3:2|0:0,0:0:0:0:
280,314,127189,2,0,P|310:330|347:326,1,65,2|0,3:2|0:0,0:0:0:0:
424,317,127450,1,10,0:2:0:0:
454,150,127711,2,0,L|464:77,1,65,2|0,3:2|0:0,0:0:0:0:
408,20,127972,2,0,P|375:13|336:29,1,65,2|2,3:2|0:2,0:0:0:0:
294,90,128233,2,0,L|301:160,1,65,10|2,0:2|3:2,0:0:0:0:
309,245,128494,6,0,B|280:251|264:264|264:264|251:246|216:234,1,97.5,6|0,3:2|0:0,0:0:0:0:
184,221,128755,2,0,P|168:256|176:288,1,65,2|0,3:2|0:0,0:0:0:0:
172,365,129016,2,0,P|140:353|105:366,1,65,10|0,0:2|0:0,0:0:0:0:
21,375,129276,2,0,B|-2:343|14:305|14:305|49:292|55:253,1,130,6|0,3:2|3:2,0:0:0:0:
147,126,129798,2,0,P|185:159|187:204,1,97.5,10|0,0:2|0:0,0:0:0:0:
170,246,130059,6,0,B|224:253|224:253|238:268|238:268|293:279,1,130,6|2,3:2|3:2,0:0:0:0:
375,291,130450,1,2,0:2:0:0:
432,228,130581,2,0,B|447:204|470:195|470:195|456:177|458:147,1,97.5,10|0,0:2|0:0,0:0:0:0:
431,117,130842,2,0,P|389:109|355:128,1,65,2|2,3:2|3:2,0:0:0:0:
292,151,131103,2,0,B|301:170|318:184|318:184|302:239,1,97.5,2|0,3:2|0:0,0:0:0:0:
291,278,131363,1,14,0:2:0:0:
179,162,131624,6,0,L|190:231,2,61.7499983510972,6|2|2,3:2|0:2|3:2,0:0:0:0:
139,90,132016,2,0,P|175:79|209:88,2,61.7499983510972,2|10|2,0:2|0:2|0:2,0:0:0:0:
63,119,132407,2,0,L|52:50,2,61.7499983510972,2|2|2,3:2|0:2|3:2,0:0:0:0:
97,191,132798,2,0,P|61:202|27:193,2,61.7499983510972,2|10|2,0:2|0:2|0:2,0:0:0:0:
179,162,133189,6,0,B|215:146|248:168|231:187|268:203|307:181,1,123.499996702194,2|0,3:2|3:2,0:0:0:0:
425,95,133711,1,10,0:2:0:0:
425,95,133842,1,2,0:2:0:0:
486,145,133972,2,0,L|476:213,1,61.7499983510972,2|2,3:2|0:2,0:0:0:0:
401,233,134233,2,0,L|411:301,1,61.7499983510972,2|2,3:2|0:2,0:0:0:0:
429,372,134494,1,10,0:2:0:0:
272,333,134755,6,0,B|211:318|211:318|199:334|180:344,1,92.6249975266457,2|0,3:2|0:0,0:0:0:0:
151,353,135016,2,0,P|126:315|139:268,1,92.6249975266457,2|0,3:2|0:0,0:0:0:0:
162,241,135276,2,0,L|153:179,1,61.7499983510972,10|2,0:2|0:2,0:0:0:0:
76,153,135537,2,0,B|63:170|39:186|39:186|55:263,2,123.499996702194,2|2|10,3:2|3:2|0:2,0:0:0:0:
204,55,136320,6,0,L|272:49,1,61.7499983510972,2|2,3:2|0:2,0:0:0:0:
351,63,136581,2,0,B|344:86|328:106|328:106|343:123|354:151,1,92.6249975266457,6|0,3:2|0:0,0:0:0:0:
377,180,136842,1,10,0:2:0:0:
377,180,136972,1,2,3:2:0:0:
410,264,137102,6,0,B|372:269|372:269|357:284|357:284|317:292,1,97.5,6|0,3:2|0:0,0:0:0:0:
275,293,137364,2,0,B|237:288|237:288|222:273|222:273|182:265,1,92.6249975266457,10|0,0:2|0:0,0:0:0:0:
147,255,137624,1,14,3:2:0:0:
167,170,137755,1,10,0:2:0:0:
184,81,137885,6,0,B|157:69|132:85|145:99|117:111|88:95,1,97.5,6|0,3:2|0:0,0:0:0:0:
53,91,138146,2,0,L|63:168,1,65,2|0,3:2|0:0,0:0:0:0:
21,230,138407,1,10,0:2:0:0:
120,366,138668,2,0,B|155:375|155:375|191:360,1,65,2|2,3:2|0:2,0:0:0:0:
262,338,138929,2,0,L|252:274,1,65,2|2,3:2|0:2,0:0:0:0:
231,192,139189,2,0,P|264:184|298:198,1,65,14|2,0:2|3:2,0:0:0:0:
376,230,139450,6,0,B|396:167|396:167|383:157|374:140,1,97.5,6|0,3:2|0:0,0:0:0:0:
341,117,139711,2,0,L|347:53,1,65,2|0,3:2|0:0,0:0:0:0:
280,0,139972,1,10,0:2:0:0:
133,84,140233,2,0,P|101:90|66:74,1,65,2|2,3:2|0:2,0:0:0:0:
10,19,140494,2,0,L|22:93,1,65,2|2,3:2|0:2,0:0:0:0:
51,162,140755,2,0,L|39:236,1,65,14|2,0:2|3:2,0:0:0:0:
12,312,141015,6,0,B|-5:352|14:372|14:372|15:356|27:342,1,97.5,6|0,3:2|0:0,0:0:0:0:
68,331,141276,2,0,P|105:320|130:328,1,65,2|0,3:2|0:0,0:0:0:0:
210,352,141537,2,0,L|203:280,1,65,10|0,0:2|0:0,0:0:0:0:
196,202,141798,2,0,B|246:208|246:208|266:228|266:228|319:239,1,130,6|2,3:2|3:2,0:0:0:0:
482,270,142320,2,0,P|501:239|502:211,1,65,14|2,0:2|3:2,0:0:0:0:
506,119,142581,6,0,B|450:115|425:101|425:101|411:122|385:140,1,130,6|0,3:2|3:2,0:0:0:0:
328,190,142972,1,2,0:2:0:0:
273,125,143102,2,0,B|246:113|221:129|234:143|206:155|176:139,1,97.5,10|0,0:2|0:0,0:0:0:0:
143,126,143363,2,0,L|151:200,1,65,6|2,3:2|0:2,0:0:0:0:
207,253,143624,2,0,L|199:327,1,65,2|2,3:2|0:2,0:0:0:0:
135,373,143885,2,0,P|101:382|64:363,1,65,10|2,0:2|3:2,0:0:0:0:
4,312,144146,5,6,3:2:0:0:
256,192,144211,12,0,147016,0:0:0:0:
256,192,147276,6,0,P|204:208|168:184,2,97.50000371933,2|2|2,0:2|0:2|0:2,0:0:0:0:
342,85,148059,1,2,0:2:0:0:
442,177,148320,2,0,B|429:199|413:211|413:211|434:271,1,97.50000371933,2|0,0:2|0:0,0:0:0:0:
452,367,148842,6,0,B|362:423|263:347|328:245|220:182|142:232,1,389.999988098145,4|0,0:1|0:0,0:0:0:0:
33,315,150407,5,2,0:2:0:0:
168,369,150668,1,2,0:2:0:0:
300,306,150929,1,2,0:2:0:0:
293,160,151189,1,2,0:2:0:0:
161,96,151450,1,2,0:2:0:0:
256,192,151516,12,6,153537,0:2:0:0:
