osu file format v14

[General]
AudioFilename: audio.mp3
AudioLeadIn: 0
PreviewTime: 57294
Countdown: 0
SampleSet: Soft
StackLeniency: 1
Mode: 0
LetterboxInBreaks: 0
WidescreenStoryboard: 1

[Editor]
Bookmarks: 21294,28678,36063,43448,50832,72986,85909
DistanceSpacing: 1
BeatDivisor: 4
GridSize: 32
TimelineZoom: 1.8

[Metadata]
Title:Hajimari no Oto
TitleUnicode:はじまりの音
Artist:Shikata Akiko
ArtistUnicode:志方あきこ
Creator:GlaZe
Version:night's Insane
Source:
Tags:noAno folk garden C96 Comiket 96 other nightlys night maid conlang
BeatmapID:3714562
BeatmapSetID:1763148

[Difficulty]
HPDrainRate:5
CircleSize:4.5
OverallDifficulty:7
ApproachRate:8
SliderMultiplier:1.4
SliderTickRate:1

[Events]
//Background and Video events
0,0,"282706.jpg",0,0
//Break Periods
2,79856,85137
//Storyboard Layer 0 (Background)
//Storyboard Layer 1 (Fail)
//Storyboard Layer 2 (Pass)
//Storyboard Layer 3 (Foreground)
//Storyboard Layer 4 (Overlay)
//Storyboard Sound Samples

[TimingPoints]
6503,461.538461538462,4,2,1,35,1,0
21272,-83.3333333333333,4,2,1,40,0,0
24964,-100,4,2,1,40,0,0
36041,-83.3333333333333,4,2,1,50,0,0
43426,-200,4,2,1,30,0,0
44233,-83.3333333333333,4,2,1,5,0,0
44349,-133.333333333333,4,2,1,35,0,0
45156,-76.9230769230769,4,2,1,5,0,0
45272,-100,4,2,1,40,0,0
46079,-83.3333333333333,4,2,1,5,0,0
46195,-71.4285714285714,4,2,1,50,0,0
47003,-71.4285714285714,4,2,1,5,0,0
47118,-71.4285714285714,4,2,1,50,0,0
50810,-200,4,2,1,40,0,0
51156,-83.3333333333333,4,2,1,5,0,0
51272,-71.4285714285714,4,2,1,45,0,0
51618,-71.4285714285714,4,2,1,5,0,0
51733,-200,4,2,1,50,0,0
52079,-200,4,2,1,5,0,0
52195,-71.4285714285714,4,2,1,55,0,0
52541,-71.4285714285714,4,2,1,5,0,0
52656,-71.4285714285714,4,2,1,55,0,0
53003,-71.4285714285714,4,2,1,5,0,0
53118,-71.4285714285714,4,2,1,55,0,0
53464,-71.4285714285714,4,2,1,5,0,0
53579,-62.5,4,2,1,55,0,0
53926,-62.5,4,2,1,5,0,0
54041,-55.5555555555556,4,2,1,55,0,0
54387,-55.5555555555556,4,2,1,5,0,0
54503,-55.5555555555556,4,2,1,55,0,0
57272,-55.5555555555556,4,2,1,10,0,0
57301,-55.5555555555556,4,2,1,20,0,0
57329,-55.5555555555556,4,2,1,30,0,0
57358,-55.5555555555556,4,2,1,40,0,0
57387,-55.5555555555556,4,2,1,50,0,0
57416,-55.5555555555556,4,2,1,60,0,0
57445,-55.5555555555556,4,2,1,70,0,0
57474,-55.5555555555556,4,2,1,75,0,0
57503,-55.5555555555556,4,2,1,80,0,0
57531,-55.5555555555556,4,2,1,85,0,0
57560,-55.5555555555556,4,2,1,90,0,0
57589,-55.5555555555556,4,2,1,95,0,0
57618,-55.5555555555556,4,2,1,100,0,0
58079,-55.5555555555556,4,2,1,5,0,0
58195,-100,4,2,1,70,0,0
64195,-100,4,2,1,75,0,0
64656,-100,4,2,1,80,0,0
65118,-100,4,2,1,85,0,0
69733,-100,4,2,1,90,0,0
85887,-100,4,2,1,35,0,0
86810,461.538461538462,6,2,1,35,1,0
86810,-133.333333333333,6,2,1,35,0,0
110232,-133.333333333333,6,2,1,5,0,0
110348,-133.333333333333,6,2,1,35,0,0
111617,-133.333333333333,6,2,1,5,0,0
111733,-133.333333333333,6,2,1,35,0,0
111963,-133.333333333333,6,2,1,35,0,0
113002,-133.333333333333,6,2,1,5,0,0
113117,-133.333333333333,6,2,1,35,0,0
115425,-133.333333333333,6,2,1,5,0,0

[Colours]
Combo1 : 255,194,166
Combo2 : 255,168,168
Combo3 : 255,255,196
Combo4 : 242,162,72

[HitObjects]
398,310,6503,5,10,0:0:0:0:
398,310,7195,2,0,L|412:235,1,70,2|0,0:0|0:0,0:0:0:0:
410,241,7656,2,0,L|396:166,1,70,2|0,0:0|0:0,0:0:0:0:
335,110,8118,1,2,0:0:0:0:
430,55,8349,5,10,0:0:0:0:
278,8,8810,1,2,0:0:0:0:
286,23,9272,1,10,0:0:0:0:
296,36,9733,1,2,0:0:0:0:
82,55,10195,5,10,0:0:0:0:
82,55,10887,2,0,L|68:130,1,70,2|0,0:0|0:0,0:0:0:0:
69,123,11348,2,0,L|137:135,1,70,2|0,0:0|0:0,0:0:0:0:
191,203,11810,1,2,0:0:0:0:
222,292,12041,6,0,L|273:281,3,35,2|0|0|0,0:0|0:0|0:0|0:0,0:0:0:0:
191,327,12503,2,0,L|140:338,3,35,2|0|0|0,0:0|0:0|0:0|0:0,0:0:0:0:
235,355,12964,6,0,L|381:378,1,140,2|2,0:0|0:0,0:0:0:0:
485,187,13887,5,14,0:0:0:0:
485,187,14579,2,0,L|497:255,1,70,2|0,0:0|0:0,0:0:0:0:
485,187,15041,2,0,L|472:118,1,70,2|0,0:0|0:0,0:0:0:0:
401,74,15503,1,0,0:0:0:0:
294,131,15733,5,10,0:0:0:0:
231,10,16195,1,2,0:0:0:0:
239,25,16657,1,10,0:0:0:0:
249,38,17118,1,2,0:0:0:0:
256,193,17579,5,10,0:0:0:0:
256,193,18272,2,0,L|268:261,1,70,2|0,0:0|0:0,0:0:0:0:
268,261,18733,2,0,L|255:329,1,70,2|0,0:0|0:0,0:0:0:0:
342,372,19195,1,2,0:0:0:0:
455,301,19426,5,2,0:0:0:0:
468,317,19772,2,0,L|480:270,3,35,0|2|0|0,0:0|0:0|0:0|0:0,0:0:0:0:
413,216,20349,5,2,0:0:0:0:
400,232,20810,1,0,0:0:0:0:
72,241,21272,5,14,1:0:0:0:
89,329,21503,1,2,0:0:0:0:
72,241,21733,1,0,0:0:0:0:
89,329,21964,1,2,0:0:0:0:
162,376,22195,6,0,L|174:321,2,41.9999987182618,8|0|2,0:0|0:0|0:0,0:0:0:0:
190,239,22656,1,0,0:0:0:0:
163,374,22887,1,2,0:0:0:0:
257,330,23118,5,8,0:0:0:0:
250,291,23349,1,2,0:0:0:0:
293,256,23579,1,0,0:0:0:0:
305,347,23810,1,2,0:0:0:0:
384,364,24041,5,8,0:0:0:0:
412,300,24272,1,2,0:0:0:0:
441,236,24503,1,0,0:0:0:0:
510,271,24733,1,2,0:0:0:0:
369,201,24964,6,0,L|298:220,1,70,14|0,1:0|0:0,0:0:0:0:
233,163,25426,2,0,L|214:92,1,70,0|2,0:0|0:0,0:0:0:0:
65,24,25887,5,8,0:0:0:0:
134,59,26117,1,2,0:0:0:0:
102,125,26348,1,0,0:0:0:0:
74,189,26579,1,2,0:0:0:0:
143,227,26810,6,0,L|124:294,1,70,8|2,0:0|0:0,0:0:0:0:
143,227,27272,1,0,0:0:0:0:
152,363,27503,1,2,0:0:0:0:
200,301,27733,5,8,0:0:0:0:
245,245,27964,1,2,0:0:0:0:
300,295,28195,1,0,0:0:0:0:
284,330,28426,1,2,0:0:0:0:
365,345,28656,5,14,1:0:0:0:
408,278,28887,1,2,0:0:0:0:
364,210,29118,1,0,0:0:0:0:
407,143,29349,1,2,0:0:0:0:
348,92,29579,6,0,L|251:120,1,70,10|0,0:0|0:0,0:0:0:0:
280,111,30041,2,0,L|308:14,1,70,2|0,0:0|0:0,0:0:0:0:
459,0,30503,5,10,0:0:0:0:
492,157,30964,1,2,0:0:0:0:
325,181,31426,1,10,0:0:0:0:
251,194,31657,1,2,0:0:0:0:
264,273,31887,1,2,0:0:0:0:
343,260,32118,1,2,0:0:0:0:
402,368,32349,6,0,L|194:339,1,210,14|2,1:0|0:0,0:0:0:0:
44,263,33272,1,10,0:0:0:0:
50,279,33733,1,2,0:0:0:0:
59,298,34195,6,0,L|78:227,1,70,10|0,0:0|0:0,0:0:0:0:
77,230,34656,2,0,L|58:159,1,70,2|0,0:0|0:0,0:0:0:0:
111,105,35118,5,10,0:0:0:0:
159,44,35349,1,2,0:0:0:0:
91,2,35579,1,2,0:0:0:0:
111,105,35810,1,2,0:0:0:0:
253,124,36041,5,10,0:0:0:0:
185,236,36272,2,0,L|193:182,2,41.9999987182618,0|0|2,0:0|0:0|0:0,0:0:0:0:
216,263,36733,2,0,L|224:317,2,41.9999987182618,0|0|10,0:0|0:0|0:0,0:0:0:0:
302,211,37195,5,2,0:0:0:0:
302,211,37310,1,2,0:0:0:0:
302,211,37426,1,2,0:0:0:0:
368,251,37656,1,2,0:0:0:0:
363,264,37771,1,2,0:0:0:0:
358,276,37887,5,10,0:0:0:0:
428,209,38118,1,0,0:0:0:0:
408,130,38349,1,2,0:0:0:0:
463,70,38579,1,2,0:0:0:0:
497,254,38810,5,10,0:0:0:0:
463,70,39041,1,0,0:0:0:0:
385,9,39272,5,2,0:0:0:0:
463,70,39503,1,2,0:0:0:0:
305,94,39733,5,10,0:0:0:0:
289,75,39964,1,2,0:0:0:0:
289,75,40079,1,2,0:0:0:0:
289,75,40195,2,0,L|279:128,1,41.9999987182618,2|0,0:0|0:0,0:0:0:0:
326,225,40426,2,0,L|319:184,1,41.9999987182618
162,180,40656,5,10,0:0:0:0:
217,34,40887,1,2,0:0:0:0:
217,34,41002,1,2,0:0:0:0:
217,34,41118,2,0,L|207:87,1,41.9999987182618,2|0,0:0|0:0,0:0:0:0:
262,275,41349,2,0,L|254:233,1,41.9999987182618
79,158,41579,5,10,0:0:0:0:
57,238,41810,1,0,0:0:0:0:
195,329,42041,5,2,0:0:0:0:
115,307,42272,1,2,0:0:0:0:
41,251,42503,5,10,0:0:0:0:
202,195,42734,1,0,0:0:0:0:
260,384,42964,1,2,0:0:0:0:
260,384,43195,1,2,0:0:0:0:
471,367,43426,6,0,B|454:311|454:311|422:303|403:348,1,122.5,2|0,0:0|0:0,0:0:0:0:
405,344,44349,6,0,B|379:365|336:363|324:319|324:319|358:241,1,183.750007009506,2|0,0:0|0:0,0:0:0:0:
356,245,45272,6,0,B|322:133|322:133|267:95|218:133|209:181,1,245,2|0,0:0|0:0,0:0:0:0:
215,161,46195,6,0,B|169:311|169:311|96:362|29:311|17:247,1,342.999989532471,2|0,0:0|0:0,0:0:0:0:
21,261,47118,6,0,L|36:201,1,48.9999985046387,2|0,0:0|0:0,0:0:0:0:
79,274,47349,2,0,L|64:213,1,48.9999985046387
142,141,47579,2,0,L|127:201,1,48.9999985046387,2|0,0:0|0:0,0:0:0:0:
84,128,47810,2,0,L|98:188,1,48.9999985046387
244,288,48041,2,0,L|229:227,1,48.9999985046387,2|0,0:0|0:0,0:0:0:0:
186,301,48272,2,0,L|200:240,1,48.9999985046387
232,87,48503,2,0,L|246:147,1,48.9999985046387,2|0,0:0|0:0,0:0:0:0:
290,74,48734,2,0,L|275:134,1,48.9999985046387
322,309,48964,5,2,0:0:0:0:
329,282,49079,1,0,0:0:0:0:
379,268,49195,1,2,0:0:0:0:
378,326,49310,1,0,0:0:0:0:
423,363,49426,6,0,L|464:328,3,48.9999985046387,2|0|2|0,0:0|0:0|0:0|0:0,0:0:0:0:
447,200,49887,2,0,L|456:253,3,48.9999985046387,2|2|2|2,0:0|0:0|0:0|0:0,0:0:0:0:
512,303,50349,2,0,L|461:284,3,48.9999985046387,2|2|2|2,0:0|0:0|0:0|0:0,0:0:0:0:
447,200,50810,6,0,L|432:137,1,52.5,2|0,0:0|0:0,0:0:0:0:
434,148,51272,2,0,P|387:102|417:25,1,146.999995513916,2|0,0:0|0:0,0:0:0:0:
335,188,51733,6,0,L|320:251,1,52.5,2|0,0:0|0:0,0:0:0:0:
297,355,52195,2,0,P|344:309|314:232,1,146.999995513916,2|0,0:0|0:0,0:0:0:0:
348,121,52656,2,0,P|301:167|331:244,1,146.999995513916,2|0,0:0|0:0,0:0:0:0:
205,384,53118,6,0,P|182:317|230:267,1,146.999995513916,2|0,0:0|0:0,0:0:0:0:
190,66,53579,2,0,P|218:154|170:204,1,168,2|0,0:0|0:0,0:0:0:0:
53,366,54041,6,0,P|24:277|100:201,1,188.999994232178,2|0,0:0|0:0,0:0:0:0:
262,155,54503,1,2,0:1:0:0:
256,192,57272,12,0,58079,0:0:0:0:
60,157,58195,5,14,1:0:0:0:
161,341,58426,1,2,0:3:0:0:
174,303,58541,1,2,0:0:0:0:
149,262,58656,2,0,L|125:208,1,35,10|2,1:2|0:0,0:0:0:0:
155,197,58887,2,0,L|169:165,1,35,2|2,0:3|0:0,0:0:0:0:
218,70,59118,2,0,L|242:152,1,70,2|2,1:2|0:3,0:0:0:0:
237,137,59464,1,0,0:0:0:0:
282,267,59579,2,0,L|306:185,1,70,10|2,1:2|0:3,0:0:0:0:
315,48,60041,6,0,L|334:102,1,35,2|0,1:2|0:0,0:0:0:0:
370,165,60272,2,0,L|424:146,1,35,2|0,0:3|0:0,0:0:0:0:
487,320,60503,1,10,1:2:0:0:
448,304,60618,1,2,0:0:0:0:
408,289,60733,1,2,0:3:0:0:
368,274,60849,1,2,0:0:0:0:
342,317,60964,6,0,L|361:371,1,35,2|2,1:2|0:0,0:0:0:0:
270,300,61195,2,0,L|289:246,1,35,2|2,0:3|0:0,0:0:0:0:
194,317,61426,6,0,L|213:371,1,35,10|0,1:2|0:0,0:0:0:0:
160,297,61657,2,0,L|179:243,1,35,2|0,0:3|0:0,0:0:0:0:
139,310,61887,6,0,L|-5:326,1,140,2|10,1:2|1:2,0:0:0:0:
60,244,62579,2,0,L|79:190,1,35,2|2,0:3|0:0,0:0:0:0:
104,45,62810,1,2,1:2:0:0:
67,50,62925,1,0,0:0:0:0:
40,72,63041,1,2,0:3:0:0:
27,107,63156,1,2,0:0:0:0:
31,142,63272,2,0,L|83:128,1,35,10|0,1:2|0:0,0:0:0:0:
165,175,63503,2,0,L|113:161,1,35,2|0,0:3|0:0,0:0:0:0:
252,20,63733,6,0,L|231:105,1,70,2|2,1:2|0:3,0:0:0:0:
235,87,64079,1,2,0:0:0:0:
359,166,64195,6,0,L|291:149,1,70,10|2,1:2|0:3,0:0:0:0:
291,149,64541,1,2,0:0:0:0:
225,237,64656,6,0,L|239:182,1,35,2|2,1:2|0:0,0:0:0:0:
311,270,64887,2,0,L|297:215,1,35,2|2,0:3|0:0,0:0:0:0:
232,346,65118,6,0,L|240:312,1,35,10|0,1:2|0:0,0:0:0:0:
285,335,65349,1,2,0:3:0:0:
307,367,65464,1,2,0:0:0:0:
355,344,65579,6,0,L|415:339,3,35,10|2|2|2,1:0|0:0|0:3|0:0,0:0:0:0:
415,374,66041,2,0,L|449:363,3,35,10|2|2|2,1:2|0:0|0:3|0:0,0:0:0:0:
490,362,66503,6,0,L|497:326,1,35,8|2,1:0|0:0,0:0:0:0:
492,164,66733,1,2,0:3:0:0:
492,164,66848,1,2,0:0:0:0:
492,164,66964,2,0,L|480:219,1,35,10|2,1:2|0:0,0:0:0:0:
329,188,67195,1,2,0:3:0:0:
307,229,67310,1,2,0:0:0:0:
266,206,67426,6,0,L|211:194,1,35,10|2,1:0|0:0,0:0:0:0:
111,141,67656,1,2,0:3:0:0:
111,141,67771,1,2,0:0:0:0:
111,141,67887,2,0,L|123:196,1,35,10|2,1:2|0:0,0:0:0:0:
195,301,68118,1,2,0:3:0:0:
217,342,68233,1,2,0:0:0:0:
258,319,68349,6,0,L|313:307,1,35,8|2,1:0|0:0,0:0:0:0:
414,138,68579,1,2,0:3:0:0:
414,138,68694,1,2,0:0:0:0:
414,138,68810,2,0,L|402:193,1,35,10|2,1:2|0:0,0:0:0:0:
471,343,69041,1,2,0:3:0:0:
449,384,69156,1,2,0:0:0:0:
408,361,69272,6,0,L|353:349,1,35,10|2,1:0|0:0,0:0:0:0:
273,298,69503,2,0,L|328:286,1,35,2|2,0:3|0:0,0:0:0:0:
477,251,69733,2,0,L|422:239,1,35,10|2,1:2|0:0,0:0:0:0:
234,196,69964,2,0,L|289:184,1,35,2|2,0:3|0:0,0:0:0:0:
512,73,70195,6,0,L|477:80,3,35,8|2|2|2,1:0|0:0|0:3|0:0,0:0:0:0:
426,0,70656,2,0,L|415:33,3,35,10|2|2|2,1:2|0:0|0:3|0:0,0:0:0:0:
340,100,71118,2,0,L|374:92,3,35,10|2|2|2,1:0|0:0|0:3|0:0,0:0:0:0:
426,173,71579,2,0,L|436:139,3,35,10|2|2|2,1:2|0:0|0:3|0:0,0:0:0:0:
450,94,72041,6,0,L|417:83,1,35,8|2,1:0|0:0,0:0:0:0:
286,47,72272,1,2,0:3:0:0:
259,50,72387,1,2,0:0:0:0:
234,64,72503,1,10,1:2:0:0:
216,89,72618,1,2,0:0:0:0:
202,119,72733,1,2,0:3:0:0:
201,156,72849,1,2,0:0:0:0:
212,194,72964,5,14,1:0:0:0:
329,204,76426,5,14,0:1:0:0:
383,307,79656,5,14,0:1:0:0:
374,294,85887,5,2,0:0:0:0:
374,294,86349,1,2,0:0:0:0:
307,337,86810,6,0,L|246:325,1,52.5000020027161,6|0,0:1|0:0,0:0:0:0:
255,326,87271,2,0,L|203:336,1,52.5000020027161
203,335,87733,2,0,L|193:283,1,52.5000020027161,2|0,0:0|0:0,0:0:0:0:
128,216,88194,2,0,L|90:369,1,157.500006008148,2|0,0:0|0:0,0:0:0:0:
90,369,89117,2,0,L|38:379,1,52.5000020027161,2|0,0:0|0:0,0:0:0:0:
0,260,89579,6,0,L|10:208,3,52.5000020027161,6|0|0|0,0:1|0:0|0:0|0:0,0:0:0:0:
73,138,90502,2,0,L|83:190,1,52.5000020027161,2|0,0:0|0:0,0:0:0:0:
2,100,90963,2,0,L|12:48,1,52.5000020027161,2|0,0:0|0:0,0:0:0:0:
11,48,91425,5,2,0:0:0:0:
214,60,91886,2,0,L|226:5,1,52.5000020027161,2|0,0:0|0:0,0:0:0:0:
240,133,92348,6,0,L|265:291,1,157.500006008148,6|0,0:1|0:0,0:0:0:0:
280,369,93271,1,2,0:0:0:0:
381,212,93733,2,0,L|405:56,1,157.500006008148,2|0,0:0|0:0,0:0:0:0:
405,56,94656,1,2,0:0:0:0:
336,25,94886,1,0,0:0:0:0:
283,84,95117,6,0,L|222:76,1,52.5000020027161,6|0,0:1|0:0,0:0:0:0:
159,103,95579,2,0,L|211:96,1,52.5000020027161,2|0,0:0|0:0,0:0:0:0:
324,165,96040,1,2,0:0:0:0:
271,158,96271,1,0,0:0:0:0:
121,241,96502,6,0,L|238:221,1,105.000004005432,2|2,0:0|0:0,0:0:0:0:
443,186,97425,1,2,0:0:0:0:
433,194,97886,6,0,P|400:229|431:344,1,157.500006008148,6|0,0:1|0:0,0:0:0:0:
486,371,98810,2,0,L|501:311,1,52.5000020027161,2|0,0:0|0:0,0:0:0:0:
367,260,99271,2,0,L|250:280,1,105.000004005432,2|2,0:0|0:0,0:0:0:0:
209,333,99963,1,0,0:0:0:0:
134,303,100194,1,2,0:0:0:0:
81,356,100425,1,0,0:0:0:0:
6,326,100656,2,0,L|15:260,1,52.5000020027161,6|0,0:1|0:0,0:0:0:0:
86,108,101117,6,0,L|77:174,1,52.5000020027161,2|0,0:0|0:0,0:0:0:0:
85,369,101579,1,2,0:0:0:0:
180,140,102040,1,6,0:1:0:0:
206,344,102502,6,0,L|258:336,1,52.5000020027161,2|0,0:0|0:0,0:0:0:0:
258,336,102963,2,0,L|265:283,1,52.5000020027161,2|0,0:0|0:0,0:0:0:0:
328,215,103425,1,2,0:1:0:0:
328,215,103656,1,0,0:0:0:0:
496,203,103886,6,0,L|487:244,1,26.2500010013581,2|0,0:0|0:0,0:0:0:0:
484,187,104348,1,2,0:0:0:0:
408,380,104810,2,0,P|465:378|496:327,2,105.000004005432,2|2|2,0:0|0:0|0:0,0:0:0:0:
351,325,105963,1,0,0:0:0:0:
299,263,106194,6,0,P|212:248|131:333,1,210.000008010865,2|2,0:1|0:0,0:0:0:0:
132,328,107579,2,0,P|147:241|62:160,1,210.000008010865,2|2,0:0|0:0,0:0:0:0:
19,101,108733,1,0,0:0:0:0:
51,27,108963,1,2,0:1:0:0:
256,192,109194,12,0,111733,0:0:0:0:
256,192,111963,12,0,115425,0:0:0:0:
