osu file format v14

[General]
AudioFilename: audio.mp3
AudioLeadIn: 0
PreviewTime: 57294
Countdown: 0
SampleSet: Soft
StackLeniency: 0.7
Mode: 0
LetterboxInBreaks: 0
WidescreenStoryboard: 1

[Editor]
Bookmarks: 21294,28678,36063,43448,50832,72986,85909
DistanceSpacing: 0.7
BeatDivisor: 4
GridSize: 32
TimelineZoom: 1.8

[Metadata]
Title:Hajimari no Oto
TitleUnicode:はじまりの音
Artist:Shikata Akiko
ArtistUnicode:志方あきこ
Creator:GlaZe
Version:Normal
Source:
Tags:noAno folk garden C96 Comiket 96 other nightlys night maid conlang
BeatmapID:3635760
BeatmapSetID:1763148

[Difficulty]
HPDrainRate:4
CircleSize:3.8
OverallDifficulty:4
ApproachRate:5
SliderMultiplier:1.4
SliderTickRate:1

[Events]
//Background and Video events
0,0,"282706.jpg",0,0
//Break Periods
2,54241,56995
2,79856,84687
//Storyboard Layer 0 (Background)
//Storyboard Layer 1 (Fail)
//Storyboard Layer 2 (Pass)
//Storyboard Layer 3 (Foreground)
//Storyboard Layer 4 (Overlay)
//Storyboard Sound Samples

[TimingPoints]
6503,461.538461538462,4,2,1,35,1,0
6503,-153.846153846153,4,2,1,35,0,0
21272,-153.846153846153,4,2,1,40,0,0
36041,-153.846153846153,4,2,1,50,0,0
43426,-153.846153846153,4,2,1,30,0,0
44349,-153.846153846153,4,2,1,35,0,0
45272,-153.846153846153,4,2,1,40,0,0
46195,-153.846153846153,4,2,1,50,0,0
50810,-153.846153846153,4,2,1,40,0,0
51272,-153.846153846153,4,2,1,45,0,0
51733,-153.846153846153,4,2,1,50,0,0
52195,-153.846153846153,4,2,1,55,0,0
58195,-133.333333333333,4,2,1,70,0,0
64195,-133.333333333333,4,2,1,75,0,0
64656,-133.333333333333,4,2,1,80,0,0
65118,-133.333333333333,4,2,1,85,0,0
69733,-133.333333333333,4,2,1,90,0,0
85887,-153.846153846153,4,2,1,35,0,0
86810,461.538461538462,6,2,1,35,1,0
86810,-153.846153846154,6,2,1,35,0,0
115426,-153.846153846154,6,2,1,5,0,0

[Colours]
Combo1 : 255,194,166
Combo2 : 255,168,168
Combo3 : 255,255,196
Combo4 : 242,162,72

[HitObjects]
238,24,6503,5,10,0:0:0:0:
238,24,7195,2,0,P|240:69|241:114,1,90.9999958343508,2|2,0:0|0:0,0:0:0:0:
120,226,8349,6,0,P|70:209|26:188,1,90.9999958343508,10|2,0:0|0:0,0:0:0:0:
23,320,9272,1,10,0:0:0:0:
185,382,10195,6,0,P|204:253|207:232,1,136.499993751526,10|2,0:0|0:0,0:0:0:0:
176,181,11118,2,0,L|166:124,1,45.4999979171754,2|0,0:0|0:0,0:0:0:0:
359,215,12041,6,0,P|409:198|464:206,2,90.9999958343508,2|2|2,0:0|0:0|0:0,0:0:0:0:
359,215,13887,6,0,P|312:300|190:284,1,227.499989585877,14|2,0:0|0:0,0:0:0:0:
72,198,15733,6,0,P|86:147|105:102,1,90.9999958343508,10|2,0:0|0:0,0:0:0:0:
159,119,16426,1,0,0:0:0:0:
217,119,16656,2,0,P|230:75|248:33,1,90.9999958343508,10|2,0:0|0:0,0:0:0:0:
368,0,17579,6,0,P|380:124|360:245,1,227.499989585877,10|2,0:0|0:0,0:0:0:0:
311,379,19426,6,0,P|269:360|226:345,2,90.9999958343508,2|2|2,0:0|0:0|0:0,0:0:0:0:
512,266,21272,6,0,P|495:229|476:161,1,90.9999958343508,14|0,1:0|0:0,0:0:0:0:
496,107,21964,1,2,0:0:0:0:
496,107,22195,2,0,P|507:62|512:17,1,90.9999958343508,8|0,0:0|0:0,0:0:0:0:
377,48,23118,2,0,P|332:54|279:50,1,90.9999958343508,8|0,0:0|0:0,0:0:0:0:
160,44,24041,2,0,L|145:-17,2,45.4999979171754,8|2|0,0:0|0:0|0:0,0:0:0:0:
109,104,24733,1,2,0:0:0:0:
109,104,24964,6,0,P|57:91|16:122,1,90.9999958343508,14|0,1:0|0:0,0:0:0:0:
89,217,25887,2,0,P|133:215|192:221,1,90.9999958343508,8|0,0:0|0:0,0:0:0:0:
235,328,26810,2,0,L|245:372,2,45.4999979171754,8|2|0,0:0|0:0|0:0,0:0:0:0:
277,262,27503,1,2,0:0:0:0:
277,262,27733,2,0,L|292:201,2,45.4999979171754,8|2|0,0:0|0:0|0:0,0:0:0:0:
331,318,28426,1,2,0:0:0:0:
331,318,28656,6,0,L|435:307,1,90.9999958343508,14|0,1:0|0:0,0:0:0:0:
490,205,29579,1,10,0:0:0:0:
403,121,30041,1,2,0:0:0:0:
281,142,30503,1,10,0:0:0:0:
177,212,30964,1,2,0:0:0:0:
95,127,31426,2,0,L|106:69,1,45.4999979171754,10|2,0:0|0:0,0:0:0:0:
118,9,31887,1,2,0:0:0:0:
243,34,32349,6,0,P|287:18|347:23,1,90.9999958343508,14|0,1:0|0:0,0:0:0:0:
461,19,33272,1,10,0:0:0:0:
366,99,33734,1,2,0:0:0:0:
389,233,34196,1,10,0:0:0:0:
512,258,34657,1,2,0:0:0:0:
451,357,35119,2,0,P|406:365|362:377,1,90.9999958343508,10|2,0:0|0:0,0:0:0:0:
285,353,35810,1,2,0:0:0:0:
285,353,36041,6,0,L|243:315,1,45.4999979171754,10|0,0:0|0:0,0:0:0:0:
182,290,36503,2,0,L|180:244,1,45.4999979171754,2|0,0:0|0:0,0:0:0:0:
125,188,36964,2,0,P|88:195|34:182,2,90.9999958343508,10|2|10,0:0|0:0|0:0,0:0:0:0:
213,99,38349,1,2,0:0:0:0:
119,18,38810,2,0,L|75:-2,1,45.4999979171754,10|0,0:0|0:0,0:0:0:0:
0,18,39272,1,2,0:0:0:0:
0,148,39734,6,0,P|22:161|43:165,1,45.4999979171754,10|0,0:0|0:0,0:0:0:0:
89,225,40196,2,0,P|110:217|132:213,1,45.4999979171754,2|0,0:0|0:0,0:0:0:0:
193,266,40657,2,0,P|167:303|159:348,2,90.9999958343508,10|2|10,0:0|0:0|0:0,0:0:0:0:
284,188,42042,1,2,0:0:0:0:
352,290,42503,2,0,P|365:340|377:397,1,90.9999958343508,10|2,0:0|0:0,0:0:0:0:
451,361,43195,1,2,0:0:0:0:
450,361,43426,6,0,P|502:278|460:192,1,181.999991668702,2|2,0:0|0:0,0:0:0:0:
263,160,45272,2,0,P|211:76|253:-9,1,181.999991668702,2|2,0:0|0:0,0:0:0:0:
238,5,47118,6,0,L|343:15,1,90.9999958343508,2|2,0:0|0:0,0:0:0:0:
409,42,47810,1,0,0:0:0:0:
409,42,48041,2,0,L|430:-17,2,45.4999979171754,2|0|2,0:0|0:0|0:0,0:0:0:0:
441,120,48733,1,0,0:0:0:0:
441,120,48964,2,0,L|503:118,2,45.4999979171754,2|0|2,0:0|0:0|0:0,0:0:0:0:
383,175,49656,1,0,0:0:0:0:
383,175,49887,2,0,L|408:212,1,45.4999979171754,2|2,0:0|0:0,0:0:0:0:
434,286,50349,2,0,L|421:329,1,45.4999979171754,2|2,0:0|0:0,0:0:0:0:
256,192,50810,12,2,54041,0:0:0:0:
512,323,58195,6,0,P|466:347|417:332,1,105.000004005432,14|10,1:0|1:2,0:0:0:0:
369,271,58887,1,2,0:3:0:0:
369,271,59118,2,0,P|323:247|274:262,1,105.000004005432,2|10,1:2|1:2,0:0:0:0:
200,158,60041,2,0,P|217:117|233:59,1,105.000004005432,2|10,1:2|1:2,0:0:0:0:
293,8,60733,1,2,0:3:0:0:
293,8,60964,2,0,P|344:8|403:-1,1,105.000004005432,2|10,1:2|1:2,0:0:0:0:
498,77,61887,6,0,P|504:101|508:128,1,52.5000020027161,2|2,1:2|0:3,0:0:0:0:
438,171,62349,2,0,L|333:178,2,105.000004005432,10|2|10,1:2|1:2|1:2,0:0:0:0:
510,207,63503,1,0,0:0:0:0:
505,291,63733,6,0,P|498:316|494:342,1,52.5000020027161,2|2,1:2|0:3,0:0:0:0:
425,381,64195,2,0,L|361:367,1,52.5000020027161,10|2,1:2|0:3,0:0:0:0:
327,306,64656,1,2,1:2:0:0:
206,370,65118,1,10,1:2:0:0:
73,329,65579,6,0,B|55:270|81:293|62:222,1,105.000004005432,10|10,1:0|1:2,0:0:0:0:
0,177,66272,1,2,0:3:0:0:
0,177,66503,2,0,P|14:150|21:123,1,52.5000020027161,8|2,1:0|0:3,0:0:0:0:
85,81,66964,2,0,P|69:63|60:34,1,52.5000020027161,10|2,1:2|0:3,0:0:0:0:
138,18,67426,1,10,1:0:0:0:
213,135,67887,1,0,1:2:0:0:
281,95,68118,1,2,0:3:0:0:
334,158,68349,6,0,P|381:179|432:171,1,105.000004005432,8|10,1:0|1:2,0:0:0:0:
512,187,69041,1,2,0:3:0:0:
512,187,69272,2,0,L|500:239,1,52.5000020027161,10|2,1:0|0:3,0:0:0:0:
436,286,69733,2,0,P|410:289|384:296,1,52.5000020027161,10|2,1:2|0:3,0:0:0:0:
309,268,70195,1,8,1:0:0:0:
314,141,70656,1,10,1:2:0:0:
254,88,70887,1,2,0:3:0:0:
171,87,71118,6,0,L|152:193,1,105.000004005432,10|10,1:0|1:2,0:0:0:0:
157,274,71810,1,2,0:3:0:0:
157,274,72041,2,0,L|106:289,1,52.5000020027161,8|2,1:0|0:3,0:0:0:0:
36,326,72503,1,10,1:2:0:0:
0,259,72733,1,2,0:3:0:0:
24,184,72964,5,14,1:0:0:0:
299,153,76426,1,14,0:1:0:0:
4,222,79656,1,14,0:1:0:0:
0,349,85887,6,0,P|44:338|89:343,1,90.9999958343508,2|2,0:0|0:0,0:0:0:0:
174,259,86810,2,0,L|181:149,2,90.9999958343508,6|0|2,0:1|0:0|0:0,0:0:0:0:
105,355,88195,2,0,P|35:357|-1:292,1,136.499993751526,2|0,0:0|0:0,0:0:0:0:
0,231,89118,2,0,P|24:192|84:180,1,90.9999958343508,2|6,0:0|0:1,0:0:0:0:
235,82,91426,6,0,P|211:38|197:-8,1,90.9999958343508,2|2,0:0|0:0,0:0:0:0:
99,71,92349,2,0,B|72:106|102:176|124:147|161:190|138:250,1,181.999991668702,6|2,0:1|0:0,0:0:0:0:
155,353,93733,2,0,P|222:337|293:329,1,136.499993751526,2|0,0:0|0:0,0:0:0:0:
341,273,94656,2,0,L|344:225,1,45.4999979171754,2|0,0:0|0:0,0:0:0:0:
409,184,95118,2,0,P|488:245|441:295,1,181.999991668702,6|2,0:1|0:0,0:0:0:0:
367,378,96503,1,2,0:0:0:0:
269,305,96963,1,2,0:0:0:0:
297,179,97425,1,2,0:0:0:0:
190,124,97887,6,0,P|150:142|116:181,1,90.9999958343508,6|0,0:1|0:0,0:0:0:0:
16,253,98810,2,0,L|-7:191,1,45.4999979171754,2|0,0:0|0:0,0:0:0:0:
4,133,99272,2,0,P|19:81|32:-7,1,136.499993751526,2|0,0:0|0:0,0:0:0:0:
107,21,100195,2,0,L|167:34,1,45.4999979171754,2|0,0:0|0:0,0:0:0:0:
203,93,100656,2,0,L|306:73,2,90.9999958343508,6|2|2,0:1|0:0|0:0,0:0:0:0:
81,123,102041,1,6,0:1:0:0:
81,244,102503,6,0,P|113:278|172:271,1,90.9999958343508,2|2,0:0|0:0,0:0:0:0:
262,212,103426,2,0,P|270:256|278:302,2,90.9999958343508,2|0|2,0:1|0:0|0:0,0:0:0:0:
321,108,104810,1,2,0:0:0:0:
446,99,105272,6,0,L|502:113,1,45.4999979171754,2|2,0:0|0:0,0:0:0:0:
512,186,105733,2,0,P|503:208|492:247,1,45.4999979171754,2|0,0:0|0:0,0:0:0:0:
504,307,106195,2,0,P|478:336|414:325,2,90.9999958343508,2|2|2,0:1|0:0|0:0,0:0:0:0:
429,205,107579,1,2,0:0:0:0:
494,101,108040,1,2,0:0:0:0:
390,31,108503,2,0,P|367:25|346:17,1,45.4999979171754,2|0,0:0|0:0,0:0:0:0:
256,192,108964,12,0,115426,0:0:0:0:
