osu file format v14

[General]
AudioFilename: Ec Tisia.mp3
AudioLeadIn: 0
PreviewTime: 248701
Countdown: 0
SampleSet: Soft
StackLeniency: 0.2
Mode: 0
LetterboxInBreaks: 0
WidescreenStoryboard: 0

[Editor]
Bookmarks: 19516,79679
DistanceSpacing: 1.5
BeatDivisor: 4
GridSize: 4
TimelineZoom: 1.100001

[Metadata]
Title:Ec Tisia
TitleUnicode:Ec Tisia
Artist:Shikata Akiko
ArtistUnicode:志方あきこ
Creator:GoldenWolf
Version:Trio of Elemia
Source:アルトネリコ3 ~世界終焉の引鉄は少女の詩が弾く~
Tags:Ar Tonelico III ~Sekai Shuuen no Hikigane wa Shoujo no Uta ga Hiku~ The Girl's Song that Pulls the Trigger of World's Demise AT3 ATIII gust jrpg bestgame Tyria ティリア Frelia フレリア Shurelia シュレリア VN Visual Novel Hymn Ending ed woof
BeatmapID:987764
BeatmapSetID:461184

[Difficulty]
HPDrainRate:6
CircleSize:4.5
OverallDifficulty:7.5
ApproachRate:8.7
SliderMultiplier:1.4
SliderTickRate:1

[Events]
//Background and Video events
0,0,"orz147.jpg",0,0
//Break Periods
2,289615,290912
2,296043,297770
2,303329,304627
2,309758,312341
2,391830,393756
2,475182,476252
//Storyboard Layer 0 (Background)
//Storyboard Layer 1 (Fail)
//Storyboard Layer 2 (Pass)
//Storyboard Layer 3 (Foreground)
//Storyboard Sound Samples

[TimingPoints]
2446,517.241379310345,4,2,1,10,1,0
3642,566.037735849057,4,2,1,10,1,0
4208,545.454545454546,4,2,1,10,1,0
4753,475.059382422803,4,2,1,10,1,0
6178,555.555555555556,4,2,1,10,1,0
6594,576.923076923077,4,2,1,10,1,0
7461,628.272251308901,4,2,1,10,1,0
8089,500,4,2,1,10,1,0
9089,571.428571428571,4,2,1,10,1,0
9946,517.241379310345,4,2,1,10,1,0
10461,535.714285714286,4,2,1,10,1,0
10728,465.116279069767,4,2,1,10,1,0
11192,540.540540540541,4,2,1,10,1,0
11732,452.830188679245,4,2,1,10,1,0
12411,555.555555555556,4,2,1,10,1,0
13244,545.454545454546,4,2,1,10,1,0
13789,545.454545454546,4,2,1,10,1,0
14880,-500,4,2,1,10,0,0
20198,-200,4,2,1,10,0,0
21153,-100,4,2,1,10,0,0
23607,540.540540540541,4,2,1,10,1,0
23607,-500,4,2,1,10,0,0
24688,540.540540540541,4,2,1,10,1,0
28471,545.454545454546,4,2,2,20,1,0
28743,-100,4,2,2,30,0,0
29016,545.454545454546,4,2,3,45,1,0
29016,-151.515151515152,4,2,3,45,0,0
29152,-151.515151515152,4,2,2,30,0,0
31197,-151.515151515152,4,2,3,45,0,0
31470,-151.515151515152,4,2,2,30,0,0
33106,-151.515151515152,4,2,1,30,0,0
33379,-151.515151515152,4,2,3,45,0,0
33516,-151.515151515152,4,2,2,30,0,0
35288,-151.515151515152,4,2,1,30,0,0
35561,-151.515151515152,4,2,3,45,0,0
35697,-151.515151515152,4,2,2,30,0,0
36106,-151.515151515152,4,2,2,10,0,0
36379,-151.515151515152,4,2,2,30,0,0
36925,-151.515151515152,4,2,2,10,0,0
37197,-151.515151515152,4,2,2,30,0,0
37744,568.720379146919,3,2,1,30,1,0
37879,-100,3,2,1,5,0,0
44568,697.674418604651,4,2,1,10,1,0
44742,-100,4,2,1,15,0,0
44916,-100,4,2,1,20,0,0
45265,-100,4,2,1,25,0,0
46312,-100,4,2,1,15,0,0
47009,697.269029633934,7,2,1,10,1,0
47009,-500,4,2,1,10,0,0
47183,-500,4,2,1,5,0,0
51889,-500,4,2,1,10,0,0
52064,-500,4,2,1,5,0,0
56770,545.454545454546,4,2,1,25,1,0
74224,-142.857142857143,4,2,1,15,0,0
74360,-142.857142857143,4,2,1,5,0,0
74770,-142.857142857143,4,2,1,15,0,0
74906,-142.857142857143,4,2,1,5,0,0
75315,-142.857142857143,4,2,1,15,0,0
75451,-142.857142857143,4,2,1,5,0,0
75860,-142.857142857143,4,2,1,15,0,0
75997,-142.857142857143,4,2,1,5,0,0
76406,-142.857142857143,4,2,1,15,0,0
76542,-142.857142857143,4,2,1,5,0,0
77224,-166.666666666667,4,2,1,15,0,0
77497,-200,4,2,1,15,0,0
77633,-200,4,2,1,5,0,0
80770,-142.857142857143,4,2,2,35,0,0
97133,-142.857142857143,4,2,2,45,0,0
98224,-111.111111111111,4,2,3,55,0,0
98497,-111.111111111111,4,2,2,45,0,0
115133,-111.111111111111,4,2,2,55,0,0
115679,-86.9565217391304,4,2,3,85,0,1
115951,-86.9565217391304,4,2,2,60,0,1
120042,-86.9565217391304,4,2,1,60,0,1
120315,-86.9565217391304,4,2,2,60,0,1
124406,-86.9565217391304,4,2,3,75,0,1
124542,-86.9565217391304,4,2,2,60,0,1
130406,-86.9565217391304,4,2,2,75,0,1
130815,-86.9565217391304,4,2,2,85,0,1
130951,-86.9565217391304,4,2,3,75,0,1
131224,-86.9565217391304,4,2,2,60,0,1
139679,-86.9565217391304,4,2,1,75,0,1
139951,-86.9565217391304,4,2,2,60,0,1
144042,-86.9565217391304,4,2,1,75,0,1
144315,-86.9565217391304,4,2,2,60,0,1
146224,-100,4,2,3,100,0,0
146360,-100,4,2,1,5,0,0
150588,-125,4,2,1,50,0,0
154951,-200,4,2,1,50,0,0
155497,-200,4,2,1,5,0,0
155770,-200,4,2,2,35,0,0
156588,-200,4,2,2,25,0,0
157133,-200,4,2,2,15,0,0
189860,-200,4,2,2,30,0,0
190133,-200,4,2,2,15,0,0
198588,-125,4,2,2,45,0,0
216042,-125,4,2,3,70,0,0
217133,-125,4,2,1,70,0,0
217679,-125,4,2,2,70,0,0
220406,-125,4,2,3,70,0,0
220679,-125,4,2,2,70,0,0
221497,-125,4,2,1,70,0,0
222042,-125,4,2,2,70,0,0
224770,-125,4,2,3,70,0,0
225042,-125,4,2,1,70,0,0
226406,-125,4,2,2,70,0,0
229133,-125,4,2,1,70,0,0
229406,-125,4,2,2,70,0,0
231315,-125,4,2,2,45,0,0
231588,-125,4,2,2,50,0,0
231860,-111.111111111111,4,2,2,55,0,0
232133,-111.111111111111,4,2,2,60,0,0
232406,-100,4,2,2,65,0,0
232679,-100,4,2,2,70,0,0
232951,-90.9090909090909,4,2,2,75,0,0
233224,-90.9090909090909,4,2,2,80,0,0
233497,-90.9090909090909,4,2,3,70,0,0
233770,-90.9090909090909,4,2,2,55,0,0
235679,-90.9090909090909,4,2,1,55,0,0
235951,-90.9090909090909,4,2,2,55,0,0
237860,-90.9090909090909,4,2,1,55,0,0
238133,-90.9090909090909,4,2,2,55,0,0
240042,-90.9090909090909,4,2,1,55,0,0
240315,-90.9090909090909,4,2,2,55,0,0
242224,-90.9090909090909,4,2,3,70,0,0
242497,-90.9090909090909,4,2,2,55,0,0
246588,-90.9090909090909,4,2,1,55,0,0
246860,-90.9090909090909,4,2,2,55,0,0
248224,-90.9090909090909,4,2,2,60,0,0
248360,-90.9090909090909,4,2,2,65,0,0
248497,-90.9090909090909,4,2,2,70,0,0
248633,-90.9090909090909,4,2,2,75,0,0
248770,-80,4,2,3,85,0,1
249042,-80,4,2,2,50,0,1
253133,-80,4,2,1,65,0,1
253406,-80,4,2,2,50,0,1
257497,-80,4,2,1,65,0,1
257770,-80,4,2,2,50,0,1
260770,-80,4,2,1,50,0,1
261042,-80,4,2,2,50,0,1
261860,-80,4,2,3,65,0,1
262133,-80,4,2,2,50,0,1
263497,-80,4,2,2,65,0,1
263633,-80,4,2,2,70,0,1
263770,-80,4,2,2,75,0,1
263906,-80,4,2,2,80,0,1
264042,-80,4,2,1,85,0,1
264315,-80,4,2,2,50,0,1
266224,-80,4,2,1,65,0,1
266497,-80,4,2,2,50,0,1
267860,-80,4,2,3,50,0,1
268406,-80,4,2,1,50,0,1
268679,-80,4,2,2,50,0,1
270588,-80,4,2,3,65,0,1
270860,-80,4,2,2,50,0,1
274542,-80,4,2,2,55,0,1
274679,-80,4,2,2,60,0,1
274815,-80,4,2,2,65,0,1
274951,-80,4,2,3,70,0,1
275224,-80,4,2,2,50,0,1
276724,-80,4,2,2,55,0,1
276860,-80,4,2,2,60,0,1
276997,-80,4,2,2,65,0,1
277133,-80,4,2,1,70,0,1
277406,-80,4,2,2,50,0,1
278633,-80,4,2,2,60,0,1
279042,-80,4,2,2,70,0,1
279179,-80,4,2,2,80,0,1
279315,-100,4,2,3,100,0,0
279451,-100,4,2,3,5,0,0
284129,571.428571428571,4,2,1,35,1,0
284415,571.428571428571,4,2,1,35,1,0
284415,-117.647058823529,4,2,1,35,0,0
285557,-200,4,2,1,35,0,0
285700,-200,4,2,1,5,0,0
288129,-117.647058823529,4,2,1,35,0,0
292415,-200,4,2,1,35,0,0
292557,-200,4,2,1,5,0,0
294415,-117.647058823529,4,2,1,35,0,0
299272,-200,4,2,1,35,0,0
299415,-200,4,2,1,5,0,0
301272,-117.647058823529,4,2,1,35,0,0
306129,-200,4,2,1,35,0,0
306272,-200,4,2,1,5,0,0
308129,-117.647058823529,4,2,1,35,0,0
309558,571.428571428571,3,2,1,35,1,0
312986,-100,3,2,2,40,0,0
332415,-100,3,2,2,15,0,0
332510,-100,3,2,2,20,0,0
332605,-100,3,2,2,25,0,0
332700,-100,3,2,2,30,0,0
332796,-100,3,2,2,35,0,0
332891,-100,3,2,2,40,0,0
332986,-100,3,2,2,45,0,0
333081,-100,3,2,2,50,0,0
333177,-100,3,2,2,55,0,0
333272,-100,3,2,2,60,0,0
333367,-100,3,2,2,65,0,0
333462,-100,3,2,2,70,0,0
333558,-66.6666666666667,3,2,3,100,0,1
333700,-66.6666666666667,3,2,2,70,0,1
340129,-66.6666666666667,3,2,2,85,0,1
340415,-66.6666666666667,3,2,3,85,0,1
340558,-66.6666666666667,3,2,2,70,0,1
346415,-55.5555555555556,3,2,2,85,0,1
346558,-55.5555555555556,3,2,2,45,0,1
346700,-100,3,2,3,100,0,0
347259,571.428571428571,3,2,2,60,1,0
347401,-100,3,2,2,35,0,0
350687,-125,3,2,2,35,0,0
363544,-125,3,2,2,70,0,0
363830,-125,3,2,2,45,0,0
364116,-125,3,2,2,60,0,0
364401,-100,3,2,3,85,0,0
364687,-100,3,2,2,60,0,0
370973,-100,3,2,2,45,0,0
371259,-100,3,2,1,85,0,0
371544,-100,3,2,2,60,0,0
376973,-100,3,2,2,75,0,0
377544,-100,3,2,2,85,0,0
378116,-100,3,2,3,85,0,0
378401,-100,3,2,2,60,0,0
394401,589.68058968059,3,2,2,55,1,0
401477,586.682311528307,11,2,1,55,1,0
404703,586.682311528307,11,2,1,55,1,0
407930,586.682311528307,11,2,1,55,1,0
411156,586.682311528307,11,2,1,55,1,0
412893,614.754098360656,11,2,1,55,1,0
413200,648.648648648649,11,2,1,55,1,0
413524,582.52427184466,11,2,1,55,1,0
413814,571.428571428571,11,2,1,55,1,0
414099,634.920634920635,11,2,1,65,1,0
414416,585.9375,11,2,1,65,1,0
414416,-90.9090909090909,11,2,1,65,0,0
414708,-90.9090909090909,11,2,2,65,0,0
417638,585.9375,11,2,2,65,1,0
417638,-90.9090909090909,11,2,2,65,0,0
420860,585.9375,11,2,3,65,1,0
420860,-90.9090909090909,11,2,3,65,0,0
421154,-90.9090909090909,11,2,2,65,0,0
424082,585.9375,11,2,2,65,1,0
424082,-90.9090909090909,11,2,2,65,0,0
426134,612.244897959184,11,2,1,55,1,0
426746,-76.9230769230769,11,2,1,55,0,0
427359,586.510263929619,11,2,1,65,1,0
427652,-100,11,2,2,55,0,0
430584,586.510263929619,11,2,2,55,1,0
433809,586.510263929619,11,2,2,55,1,0
437034,586.510263929619,11,2,2,55,1,0
438502,592.592592592593,11,2,1,55,1,0
438798,-100,11,2,2,55,0,0
439687,-100,11,2,2,80,0,0
440279,1048.95104895105,5,2,1,100,1,0
441328,589.101620029455,4,2,2,10,1,0
444862,-100,4,2,2,30,0,0
444960,-100,4,2,2,35,0,0
445058,-100,4,2,2,40,0,0
445157,-100,4,2,2,45,0,0
445255,-100,4,2,2,50,0,0
445353,-100,4,2,2,55,0,0
445451,-100,4,2,2,60,0,0
445549,-100,4,2,2,65,0,0
445648,-100,4,2,2,70,0,0
445746,-100,4,2,2,75,0,0
445844,-100,4,2,2,80,0,0
445942,-100,4,2,2,85,0,0
446040,571.428571428571,3,2,3,100,1,1
446040,-66.6666666666667,3,2,3,100,0,1
446325,-66.6666666666667,3,2,2,70,0,1
449468,-66.6666666666667,3,2,1,70,0,1
449754,-66.6666666666667,3,2,2,70,0,1
452897,-66.6666666666667,3,2,1,70,0,1
453182,-66.6666666666667,3,2,2,70,0,1
456325,-66.6666666666667,3,2,1,70,0,1
456611,-66.6666666666667,3,2,2,70,0,1
459754,-66.6666666666667,3,2,2,70,0,1
460611,-66.6666666666667,3,2,2,75,0,1
461468,-66.6666666666667,3,2,2,80,0,1
462325,-66.6666666666667,3,2,2,85,0,1
463182,-66.6666666666667,3,2,3,70,0,1
463468,-66.6666666666667,3,2,2,70,0,1
466611,-66.6666666666667,3,2,1,70,0,1
466897,-66.6666666666667,3,2,2,70,0,1
470040,-66.6666666666667,3,2,1,70,0,1
470325,-66.6666666666667,3,2,2,70,0,1
475182,-100,3,2,1,100,0,0
476897,588.235294117647,3,2,1,55,1,0
478367,750,3,2,1,55,1,0
478744,483.870967741935,3,2,1,55,1,0
479227,521.739130434783,3,2,1,55,1,0
479618,564.971751412429,3,2,1,55,1,0
480465,588.235294117647,3,2,1,55,1,0
483994,606.060606060606,3,2,1,55,1,0
485812,641.025641025641,3,2,1,55,1,0
486773,687.285223367698,3,2,1,55,1,0
487632,857.142857142857,3,2,1,45,1,0
487846,675.006750067501,3,2,1,45,1,0
488521,718.562874251497,3,2,1,45,1,0
488880,956.937799043062,3,2,1,45,1,0
489358,645.161290322581,3,2,1,45,1,0
489680,740.740740740741,3,2,1,45,1,0
490420,909.090909090909,3,2,1,45,1,0
490874,-100,3,2,1,5,0,0
495875,1061.94690265487,7,2,1,5,1,0

[Colours]
Combo1 : 242,211,119
Combo2 : 119,150,242
Combo3 : 119,242,150
Combo4 : 242,119,211

[HitObjects]
224,316,2446,6,0,P|220:280|220:244,1,70,2|0,0:0|0:0,0:0:0:0:
224,168,2833,1,2,0:0:0:0:
224,168,3642,2,0,L|222:148,4,17.5,0|0|0|0|2,0:0|0:0|0:0|0:0|0:0,0:0:0:0:
224,168,4208,6,0,B|256:176|272:200|272:200|304:180|352:176,1,140,2|2,0:0|0:0,0:0:0:0:
348,176,6178,2,0,P|352:147|360:116,2,52.5,2|2|2,0:0|0:0|0:0,0:0:0:0:
288,92,7461,2,0,P|284:57|276:23,2,70,2|2|2,0:0|0:0|0:0,0:0:0:0:
256,164,9089,6,0,P|224:176|188:164,1,70,2|0,0:0|0:0,0:0:0:0:
116,144,9517,2,0,P|84:148|64:152,2,52.5,2|0|2,0:0|0:0|0:0,0:0:0:0:
228,232,10461,6,0,P|228:256|224:272,1,35,2|0,0:0|0:0,0:0:0:0:
220,212,10728,2,0,B|224:164,1,35,2|0,0:0|0:0,0:0:0:0:
244,152,10960,2,0,B|240:200,1,35,2|0,0:0|0:0,0:0:0:0:
320,240,11192,6,0,P|344:204|328:148,1,105,2|0,0:0|0:0,0:0:0:0:
328,148,11732,2,0,B|345:107|345:107|331:49,2,105,2|0|0,0:0|0:0|0:0,0:0:0:0:
145,155,12688,6,0,P|197:159|241:187,1,105,2|0,0:0|0:0,0:0:0:0:
256,204,13244,2,0,P|284:196|328:188,1,70,2|2,0:0|0:0,0:0:0:0:
396,180,13653,1,2,0:0:0:0:
412,168,13789,2,0,P|432:116|372:72,1,140,2|0,0:0|0:0,0:0:0:0:
288,160,14607,5,2,0:0:0:0:
288,160,14880,2,0,B|328:196|380:188|380:188|412:168|412:168|468:164|508:192,1,238,2|0,0:0|0:0,0:0:0:0:
508,192,20198,6,0,P|492:232|504:280,1,87.5
500,274,21153,6,0,P|476:280|464:284,1,35,2|0,0:0|0:0,0:0:0:0:
388,332,21425,2,0,P|340:348|276:296,1,140,2|0,0:0|0:0,0:0:0:0:
312,160,22244,1,2,0:0:0:0:
310,177,22380,1,2,0:0:0:0:
308,194,22516,6,0,B|292:160|312:132|312:132|328:104|312:60,1,140
345,271,23334,5,2,0:0:0:0:
345,271,23607,2,0,B|400:284|420:228|404:184|344:184|344:184|312:204|312:204|288:196|260:196,1,252,4|4,0:0|0:0,0:0:0:0:
196,248,28743,6,0,L|192:276,2,23.3333333333333,8|8|8,0:0|0:0|0:0,0:0:0:0:
196,248,29016,2,0,B|144:228|144:228|112:240|112:240|64:224,2,138.599999577026,4|4|4,0:0|0:0|0:0,0:0:0:0:
264,172,30925,1,4,0:0:0:0:
208,88,31197,6,0,B|184:80|152:80|152:80|132:96|132:96|104:100|72:92,2,138.599999577026,4|4|4,0:0|0:0|0:0,0:0:0:0:
300,144,33106,1,4,0:0:0:0:
376,68,33379,6,0,P|428:44|508:56,2,138.599999577026,4|4|4,0:0|0:0|0:0,0:0:0:0:
332,172,35288,1,4,0:0:0:0:
416,248,35561,6,0,L|424:340,1,92.3999997180176,4|0,0:0|0:0,0:0:0:0:
332,261,36379,2,0,B|320:229|320:229|332:173,1,92.3999997180176,4|0,0:0|0:0,0:0:0:0:
272,336,37197,2,0,L|240:340,2,30.7999999060059,4|4|4,0:3|0:3|0:3,0:0:0:0:
160,276,37744,5,4,0:1:0:0:
256,192,37886,12,0,43928,0:0:0:0:
196,268,44568,6,0,L|232:272,1,35,4|4,0:0|0:0,0:0:0:0:
248,244,44916,2,0,L|180:256,1,70,4|4,0:0|0:0,0:0:0:0:
179,256,46312,1,4,0:0:0:0:
179,256,47009,6,0,B|223:275|261:246|261:246|300:217|353:241,1,182,2|0,0:0|0:0,0:0:0:0:
351,240,51889,6,0,B|288:256|288:256|248:236|248:236|176:257,1,182,4|0,0:0|0:0,0:0:0:0:
52,272,56770,6,0,P|84:280|120:296,1,70,2|0,0:0|0:0,0:0:0:0:
200,348,57315,1,0,0:0:0:0:
292,312,57588,1,2,0:0:0:0:
164,152,57860,2,0,P|132:216|152:280,1,140,2|0,0:0|0:0,0:0:0:0:
150,278,58679,1,0,0:0:0:0:
320,188,58951,6,0,L|304:48,1,140,2|0,0:0|0:0,0:0:0:0:
90,214,59770,1,0,0:0:0:0:
90,214,60042,2,0,P|158:194|218:226,1,140,2|0,0:0|0:0,0:0:0:0:
216,224,60860,1,0,0:0:0:0:
352,308,61133,6,0,B|400:300|400:300|444:308,1,93.3333333333333,4|4,0:0|0:0,0:0:0:0:
109,318,61951,1,2,0:0:0:0:
109,318,62224,2,0,L|93:178,1,140,2|0,0:0|0:0,0:0:0:0:
208,236,63042,1,0,0:0:0:0:
5,242,63315,6,0,P|-15:174|9:110,1,140,2|0,0:0|0:0,0:0:0:0:
208,236,64133,1,0,0:0:0:0:
208,236,64406,2,0,B|256:256|256:256|344:244,1,140,2|0,0:0|0:0,0:0:0:0:
343,244,65224,1,0,0:0:0:0:
208,236,65497,6,0,P|184:300|216:364,1,140,2|0,0:0|0:0,0:0:0:0:
272,296,66315,1,0,0:0:0:0:
144,176,66588,2,0,L|72:180,1,70,2|0,0:0|0:0,0:0:0:0:
213,361,67133,1,0,0:0:0:0:
213,361,67406,1,0,0:0:0:0:
416,256,67679,6,0,L|424:184,1,70,2|0,0:0|0:0,0:0:0:0:
336,328,68224,2,0,P|392:360|464:352,2,140,0|2|0,0:0|0:0|0:0,0:0:0:0:
296,176,69588,1,2,0:0:0:0:
440,36,69860,6,0,B|456:80|456:80|444:124,1,93.3333333333333,4|4,0:0|0:0,0:0:0:0:
152,164,70679,1,0,0:0:0:0:
120,72,70951,1,2,0:0:0:0:
120,72,71497,2,0,L|192:80,1,70
68,8,72042,6,0,P|36:68|128:152,1,210,2|0,0:0|0:0,0:0:0:0:
326,64,73133,2,0,B|258:48|258:48|118:72,1,210,2|0,0:0|0:0,0:0:0:0:
205,251,74224,6,0,P|241:255|273:239,1,73.4999977569581
229,183,74770,2,0,L|153:179,1,73.4999977569581
229,183,75315,2,0,P|237:143|225:111,1,73.4999977569581
177,47,75860,2,0,L|249:35,1,73.4999977569581
313,83,76406,6,0,B|349:87|349:87|373:71|373:71|413:67|458:85,1,146.999995513916
452,96,77315,2,0,L|450:112,1,13.9999995727539
508,185,77497,6,0,B|456:221|398:189|398:189|366:221|366:221|320:185|251:198,1,280
254,198,80770,6,0,P|204:184|156:176,1,97.9999970092774,2|0,0:0|0:0,0:0:0:0:
72,248,81588,1,0,0:0:0:0:
140,336,81860,2,0,L|188:332,1,48.9999985046387
72,248,82406,2,0,L|24:244,1,48.9999985046387
158,176,82951,6,0,P|178:220|162:264,1,97.9999970092774
4,132,83770,1,0,0:0:0:0:
4,132,84042,2,0,L|104:124,1,97.9999970092774,2|0,0:0|0:0,0:0:0:0:
251,167,84860,1,0,0:0:0:0:
251,167,85133,6,0,P|203:183|155:175,1,97.9999970092774,4|0,0:0|0:0,0:0:0:0:
196,76,85951,1,0,0:0:0:0:
196,76,86224,1,0,0:0:0:0:
196,76,87042,5,0,0:0:0:0:
251,167,87315,2,0,L|300:164,1,48.9999985046387,0|0,0:0|0:3,0:0:0:0:
408,112,87860,2,0,L|412:88,2,24.4999992523194
251,167,88406,6,0,L|203:163,1,48.9999985046387,2|0,0:0|0:0,0:0:0:0:
207,167,88815,1,0,0:0:0:0:
211,171,88951,2,0,L|207:219,1,48.9999985046387
204,224,89360,1,0,0:0:0:0:
201,228,89497,6,0,P|249:220|297:228,1,97.9999970092774
488,264,90315,1,0,0:0:0:0:
488,264,90588,2,0,P|440:272|392:264,1,97.9999970092774
201,228,91406,1,0,0:0:0:0:
201,228,91679,6,0,L|252:224,1,48.9999985046387
488,264,92224,2,0,L|437:260,1,48.9999985046387
201,228,92770,2,0,L|150:232,1,48.9999985046387,2|0,0:0|0:0,0:0:0:0:
128,336,93315,2,0,L|77:332,1,48.9999985046387
75,329,93724,1,0,0:0:0:0:
71,326,93860,6,0,L|79:278,1,48.9999985046387
201,228,94406,2,0,L|193:180,1,48.9999985046387
80,88,94951,1,0,0:0:0:0:
80,88,95497,6,0,B|104:92|104:92|128:88,1,48.9999985046387
272,68,96042,2,0,B|248:64|248:64|224:68,1,48.9999985046387
216,72,96451,1,0,0:0:0:0:
208,76,96588,2,0,L|216:128,1,48.9999985046387
236,248,97133,5,2,0:0:0:0:
236,248,97679,1,2,0:0:0:0:
124,284,97951,1,4,0:0:0:0:
32,103,98224,6,0,P|7:160|24:220,1,125.999996154785,6|4,0:0|0:0,0:0:0:0:
124,284,99042,1,0,0:0:0:0:
236,248,99315,2,0,L|300:252,1,62.9999980773926,4|0,0:0|0:0,0:0:0:0:
392,124,99860,1,8,0:0:0:0:
280,140,100133,1,4,0:0:0:0:
464,176,100406,6,0,P|480:116|452:60,1,125.999996154785,4|4,0:0|0:0,0:0:0:0:
280,140,101224,1,0,0:0:0:0:
280,140,101497,2,0,L|152:152,1,125.999996154785,4|10,0:0|0:0,0:0:0:0:
276,56,102315,1,4,0:0:0:0:
344,212,102588,6,0,P|284:232|224:216,1,125.999996154785,6|4,0:0|0:0,0:0:0:0:
356,128,103406,1,0,0:0:0:0:
328,304,103679,1,4,0:0:0:0:
328,304,104224,1,8,0:0:0:0:
200,320,104497,1,4,0:0:0:0:
132,208,104770,6,0,P|180:192|224:192,1,94.499997116089,4|0,0:0|0:0,0:0:0:0:
223,191,105315,2,0,L|236:128,1,62.9999980773926,4|0,0:0|0:0,0:0:0:0:
20,116,105860,2,0,P|80:132|136:104,1,125.999996154785,4|10,0:0|0:0,0:0:0:0:
72,44,106679,1,4,0:0:0:0:
48,196,106951,6,0,B|52:240|52:240|80:264|80:264|84:312,1,125.999996154785,6|4,0:0|0:0,0:0:0:0:
308,200,108042,2,0,B|304:156|304:156|276:132|276:132|272:84,1,125.999996154785,4|8,0:0|0:0,0:0:0:0:
436,84,108860,1,4,0:0:0:0:
436,84,109133,6,0,L|372:92,1,62.9999980773926,6|0,0:0|0:0,0:0:0:0:
160,200,109679,2,0,L|224:192,1,62.9999980773926,4|0,0:0|0:0,0:0:0:0:
260,24,110224,2,0,B|240:20|240:20|224:28|224:28|188:8|136:16,1,125.999996154785,4|8,0:0|0:0,0:0:0:0:
168,124,111042,1,4,0:0:0:0:
168,124,111315,6,0,L|232:120,2,62.9999980773926,6|0|4,0:0|0:0|0:0,0:0:0:0:
36,80,112133,1,4,0:0:0:0:
36,80,112406,2,0,L|40:148,1,62.9999980773926,4|0,0:0|0:0,0:0:0:0:
192,296,112951,5,8,0:0:0:0:
216,204,113224,1,4,0:0:0:0:
124,228,113497,1,6,0:0:0:0:
120,224,113633,1,0,0:0:0:0:
116,220,113770,2,0,B|120:188|120:188|108:160|108:160|116:96,1,125.999996154785,0|8,0:0|0:0,0:0:0:0:
120,100,114451,1,0,0:0:0:0:
124,104,114588,2,0,L|156:108,2,31.4999990386963,6|0|8,0:0|0:0|0:0,0:0:0:0:
360,20,115133,5,8,0:0:0:0:
384,84,115270,1,8,0:0:0:0:
360,148,115406,1,8,0:0:0:0:
384,212,115543,1,8,0:0:0:0:
360,276,115679,6,0,B|304:280|304:280|260:264|260:264|200:268,1,161.000003070831,6|8,0:0|0:0,0:0:0:0:
52,276,116497,1,4,0:0:0:0:
284,352,116770,2,0,P|296:312|288:272,1,80.5000015354157,6|0,0:0|0:0,0:0:0:0:
144,144,117315,2,0,P|132:184|140:224,1,80.5000015354157,8|0,0:0|0:0,0:0:0:0:
384,212,117860,6,0,L|392:92,1,120.750002303124,6|2,0:0|0:0,0:0:0:0:
392,91,118406,2,0,L|312:99,1,80.5000015354157,8|2,0:0|0:0,0:0:0:0:
104,24,118951,2,0,P|144:16|184:24,1,80.5000015354157,6|4,0:0|0:0,0:0:0:0:
192,28,119360,1,2,0:0:0:0:
201,33,119497,2,0,L|193:113,1,80.5000015354157,8|6,0:0|0:0,0:0:0:0:
415,230,120042,6,0,P|435:150|391:90,1,161.000003070831,6|8,0:0|0:0,0:0:0:0:
260,184,120860,1,0,0:0:0:0:
260,184,121133,2,0,L|340:172,1,80.5000015354157,6|0,0:0|0:0,0:0:0:0:
240,320,121679,2,0,L|160:332,1,80.5000015354157,8|0,0:0|0:0,0:0:0:0:
160,64,122224,6,0,P|192:112|180:172,1,120.750002303124,6|2,0:0|0:0,0:0:0:0:
180,170,122770,2,0,L|196:252,1,80.5000015354157,8|2,0:0|0:0,0:0:0:0:
36,276,123315,2,0,P|20:240|24:200,1,80.5000015354157,6|0,0:0|0:0,0:0:0:0:
28,192,123724,1,2,0:0:0:0:
32,184,123860,2,0,L|16:104,1,80.5000015354157,8|2,0:0|0:0,0:0:0:0:
156,244,124406,6,0,B|192:256|232:228|232:228|272:216|312:236,1,161.000003070831,6|8,0:0|0:0,0:0:0:0:
424,336,125224,1,0,0:0:0:0:
424,336,125497,2,0,B|368:344|368:344|323:328|323:328|264:334,1,161.000003070831,6|8,0:0|0:0,0:0:0:0:
88,344,126315,1,0,0:0:0:0:
156,244,126588,2,0,P|168:184|144:128,1,120.750002303124,6|2,0:0|0:0,0:0:0:0:
128,120,127133,5,8,0:0:0:0:
284,164,127406,1,2,0:0:0:0:
72,196,127679,2,0,P|64:160|48:120,1,80.5000015354157,6|0,0:0|0:0,0:0:0:0:
244,240,128224,2,0,P|252:276|268:316,1,80.5000015354157,8|0,0:0|0:0,0:0:0:0:
504,260,128770,2,0,P|520:180|464:108,1,161.000003070831,6|8,0:0|0:0,0:0:0:0:
344,88,129588,1,0,0:0:0:0:
224,156,129860,6,0,P|184:160|148:144,1,80.5000015354157,8|4,0:0|0:0,0:0:0:0:
140,136,130270,1,4,0:0:0:0:
132,128,130406,1,8,0:0:0:0:
168,296,130679,1,6,0:0:0:0:
240,320,130815,1,8,0:0:0:0:
312,296,130951,6,0,B|352:280|388:296|388:296|424:312|468:296,1,161.000003070831,6|8,0:0|0:0,0:0:0:0:
408,120,131770,1,0,0:0:0:0:
408,120,132042,2,0,P|368:116|328:128,1,80.5000015354157,6|0,0:0|0:0,0:0:0:0:
352,360,132588,2,0,P|392:364|432:352,1,80.5000015354157,8|0,0:0|0:0,0:0:0:0:
228,220,133133,6,0,L|108:204,1,120.750002303124,6|2,0:0|0:0,0:0:0:0:
108,204,133679,2,0,P|120:240|128:284,1,80.5000015354157,8|2,0:0|0:0,0:0:0:0:
292,260,134224,2,0,P|304:204|268:156,1,120.750002303124,6|2,0:0|0:0,0:0:0:0:
268,156,134770,2,0,L|348:144,1,80.5000015354157,8|2,0:0|0:0,0:0:0:0:
360,336,135315,6,0,B|312:360|312:360|204:344,1,161.000003070831,6|8,0:0|0:0,0:0:0:0:
268,156,136133,1,0,0:0:0:0:
268,156,136406,2,0,P|308:148|348:152,1,80.5000015354157,6|0,0:0|0:0,0:0:0:0:
192,276,136951,2,0,P|152:284|112:280,1,80.5000015354157,8|0,0:0|0:0,0:0:0:0:
144,68,137497,6,0,B|140:112|140:112|156:140|156:140|152:184,1,120.750002303124,6|2,0:0|0:0,0:0:0:0:
151,184,138042,2,0,L|232:176,1,80.5000015354157,8|2,0:0|0:0,0:0:0:0:
412,224,138588,2,0,P|376:232|332:224,1,80.5000015354157,6|0,0:0|0:0,0:0:0:0:
324,220,138997,1,2,0:0:0:0:
316,216,139133,2,0,L|328:296,1,80.5000015354157,8|2,0:0|0:0,0:0:0:0:
244,332,139542,1,8,0:0:0:0:
244,332,139679,6,0,P|204:260|232:192,1,161.000003070831,6|8,0:0|0:0,0:0:0:0:
231,192,140770,2,0,B|192:208|152:192|152:192|112:176|72:196,1,161.000003070831,6|8,0:0|0:0,0:0:0:0:
116,280,141588,1,4,0:0:0:0:
316,224,141860,6,0,B|324:180|324:180|292:112,1,120.750002303124,6|2,0:0|0:0,0:0:0:0:
280,92,142406,1,8,0:0:0:0:
376,284,142679,1,2,0:0:0:0:
160,180,142951,2,0,P|168:136|184:104,1,80.5000015354157,6|4,0:0|0:0,0:0:0:0:
376,284,143497,2,0,P|368:328|352:360,1,80.5000015354157,10|4,0:0|0:0,0:0:0:0:
64,288,144042,6,0,B|52:256|52:256|68:228|68:228|48:180|68:132,1,161.000003070831,6|8,0:0|0:0,0:0:0:0:
66,135,145133,2,0,P|104:140|140:120,1,80.5000015354157,6|0,0:0|0:0,0:0:0:0:
148,112,145542,1,2,0:0:0:0:
156,104,145679,2,0,L|196:108,1,40.2500007677078,8|8,0:0|0:0,0:0:0:0:
284,120,145951,1,10,0:0:0:0:
92,60,146224,5,4,0:0:0:0:
256,192,146360,12,0,150315,0:0:0:0:
200,264,150588,6,0,L|204:208,1,56
312,120,151133,2,0,L|328:116,3,14
312,120,151406,2,0,P|352:132|416:104,1,112
420,100,152088,1,0,0:0:0:0:
426,94,152224,2,0,L|418:178,1,84
417,188,152770,5,2,0:0:0:0:
320,120,153588,2,0,L|348:124,2,28
216,164,154133,2,0,L|160:168,2,56
64,92,154951,6,0,P|112:100|160:72,1,105
100,20,156042,1,0,0:0:0:0:
100,20,156588,6,0,B|136:28|136:28|168:20,2,70,0|4|0,0:0|0:0|0:0,0:0:0:0:
240,52,158224,2,0,P|256:84|268:120,1,70,4|0,0:0|0:0,0:0:0:0:
144,184,159315,2,0,P|120:120|144:56,2,140,4|4|4,0:0|0:0|0:0,0:0:0:0:
144,184,162588,6,0,B|176:172|176:172|248:180,1,105,4|0,0:0|0:0,0:0:0:0:
308,236,163679,2,0,P|328:188|288:108,1,140,4|4,0:0|0:0,0:0:0:0:
293,111,165315,2,0,L|332:116,1,35
216,100,165860,1,4,0:0:0:0:
68,228,166133,5,0,0:0:0:0:
152,244,166406,1,0,0:0:0:0:
124,164,166679,1,0,0:0:0:0:
48,244,166951,6,0,B|84:248|84:248|116:240|116:240|152:244,1,105,4|0,0:0|0:0,0:0:0:0:
212,296,168042,2,0,P|260:312|308:288,1,105,4|0,0:0|0:0,0:0:0:0:
188,160,169133,5,4,0:0:0:0:
102,166,169406,1,0,0:0:0:0:
150,236,169679,2,0,P|168:232|192:228,1,35
220,308,170224,2,0,P|156:336|92:316,1,140,4|4,0:0|0:0,0:0:0:0:
272,148,171860,5,0,0:0:0:0:
272,148,172406,2,0,L|268:188,1,35,6|0,0:0|0:0,0:0:0:0:
340,188,172951,2,0,P|352:156|344:120,1,70,0|4,0:0|0:0,0:0:0:0:
204,108,173770,2,0,P|192:140|200:176,1,70
320,268,174588,6,0,L|388:256,1,70,4|0,0:0|0:0,0:0:0:0:
233,178,175406,1,0,0:0:0:0:
233,178,175679,2,0,L|197:174,2,35,4|0|0,0:0|0:0|0:0,0:0:0:0:
233,178,176770,6,0,B|207:184|183:199|183:199|159:185|135:180,1,105,6|0,0:0|0:0,0:0:0:0:
154,268,177860,2,0,P|190:276|222:264,1,70,2|0,0:0|0:0,0:0:0:0:
152,100,178951,6,0,B|172:104|188:112|188:112|220:100|260:92,1,105,4|0,0:0|0:0,0:0:0:0:
312,184,180042,2,0,P|276:176|240:172,1,70,4|0,0:0|0:0,0:0:0:0:
356,244,181133,6,0,P|388:184|356:124,1,140,4|4,0:0|0:0,0:0:0:0:
276,180,182770,2,0,B|311:182|311:182|305:197,1,52.5,0|4,0:0|0:0,0:0:0:0:
292,228,183315,6,0,B|256:232|256:232|224:224|224:224|188:228,1,105,2|0,0:0|0:0,0:0:0:0:
100,236,184406,2,0,P|108:184|84:140,1,105,4|0,0:0|0:0,0:0:0:0:
0,104,185497,1,6,0:0:0:0:
128,72,185770,2,0,L|148:68,2,17.5
320,212,186588,5,4,0:0:0:0:
320,212,187133,2,0,L|324:176,1,35
320,212,187679,2,0,B|340:220|340:220|356:216|356:216|368:224|368:224|384:216|420:212,1,105,4|0,0:0|0:0,0:0:0:0:
424,216,188633,1,0,0:0:0:0:
428,220,188770,2,0,L|421:295,1,70,4|0,0:0|0:0,0:0:0:0:
312,336,189588,1,4,0:0:0:0:
212,272,189860,5,2,0:0:0:0:
212,272,190406,2,0,P|180:264|144:268,1,70
312,336,191406,2,0,L|319:338,2,5.83333333333333
360,204,191974,2,0,L|352:208,2,8.75,0|6|0,0:0|0:0|0:0,0:0:0:0:
260,136,192315,5,0,0:0:0:0:
164,180,192588,2,0,P|152:176|128:172,1,35
152,252,193133,2,0,P|184:252|216:232,1,70
80,140,193951,1,4,0:0:0:0:
80,140,194224,6,0,L|84:212,2,70,6|0|0,0:0|0:0|0:0,0:0:0:0:
80,140,195860,2,0,L|116:144,1,35
232,96,196406,1,6,0:0:0:0:
212,224,196679,1,2,0:0:0:0:
192,352,196951,2,0,B|168:356|168:356|140:352,1,52.5,2|2,0:0|0:0,0:0:0:0:
140,352,197497,6,0,L|132:312,1,35,6|2,0:0|0:0,0:0:0:0:
116,204,198042,1,6,0:0:0:0:
288,240,198315,1,6,0:0:0:0:
124,120,198588,6,0,P|68:132|36:176,1,112,6|8,0:0|0:0,0:0:0:0:
152,288,199406,1,4,0:0:0:0:
212,228,199679,2,0,P|216:196|208:172,1,56,6|0,0:0|0:0,0:0:0:0:
288,132,200088,1,2,0:0:0:0:
288,132,200224,2,0,P|284:164|292:188,1,56,8|2,0:0|0:0,0:0:0:0:
468,224,200770,6,0,B|428:228|428:228|400:244|400:244|360:248,1,112,6|8,0:0|0:0,0:0:0:0:
212,228,201588,1,4,0:0:0:0:
152,288,201860,2,0,P|144:316|140:344,1,56,2|4,0:0|0:0,0:0:0:0:
276,168,202406,2,0,P|271:140|264:113,1,56,10|4,0:0|0:0,0:0:0:0:
212,228,202951,6,0,P|260:252|320:244,1,112,6|8,0:0|0:0,0:0:0:0:
276,80,203770,1,0,0:0:0:0:
276,80,204042,2,0,L|220:84,1,56,6|0,0:0|0:0,0:0:0:0:
276,168,204588,1,8,0:0:0:0:
360,56,204860,1,0,0:0:0:0:
144,88,205133,6,0,L|136:200,1,112,6|8,0:0|0:0,0:0:0:0:
292,292,205951,1,0,0:0:0:0:
224,144,206224,1,2,0:0:0:0:
128,276,206497,1,4,0:0:0:0:
292,292,206770,1,10,0:0:0:0:
224,144,207042,1,4,0:0:0:0:
112,292,207315,6,0,P|164:320|216:312,1,112,6|8,0:0|0:0,0:0:0:0:
416,212,208406,2,0,P|364:184|312:192,1,112,6|8,0:0|0:0,0:0:0:0:
112,292,209497,6,0,L|168:284,1,56,6|0,0:0|0:0,0:0:0:0:
416,212,210042,2,0,L|360:220,1,56,10|0,0:0|0:0,0:0:0:0:
100,276,210588,2,0,L|156:268,1,56,6|0,0:0|0:0,0:0:0:0:
428,228,211133,2,0,L|372:236,1,56,10|0,0:0|0:0,0:0:0:0:
176,128,211679,6,0,P|216:120|260:128,1,84,6|0,0:0|0:0,0:0:0:0:
258,127,212224,2,0,L|248:212|248:212,1,84,8|0,0:0|0:0,0:0:0:0:
248,210,212770,2,0,B|208:212|208:212|176:200|176:200|128:204,1,112,4|10,0:0|0:0,0:0:0:0:
164,280,213588,1,0,0:0:0:0:
232,108,213860,6,0,P|176:92|124:100,1,112,6|10,0:0|0:0,0:0:0:0:
172,200,214679,1,4,0:0:0:0:
292,32,214951,1,6,0:0:0:0:
84,12,215224,1,10,0:0:0:0:
303,211,215497,1,4,0:0:0:0:
32,185,215770,1,8,0:0:0:0:
156,348,216042,5,6,0:0:0:0:
336,116,216451,1,2,0:0:0:0:
44,76,216860,1,2,0:0:0:0:
156,348,217133,1,6,0:0:0:0:
156,348,217679,5,0,0:0:0:0:
200,152,217951,1,0,0:0:0:0:
348,288,218224,2,0,P|396:276|460:264,1,112,6|8,0:0|0:0,0:0:0:0:
424,360,219042,1,8,0:0:0:0:
360,208,219315,2,0,L|436:192,1,56,8|8,0:0|0:0,0:0:0:0:
300,164,219724,1,8,0:0:0:0:
300,164,219860,2,0,L|224:180,1,56,8|8,0:0|0:0,0:0:0:0:
160,252,220406,5,6,0:0:0:0:
336,2,220815,1,6,0:0:0:0:
466,278,221224,1,6,0:0:0:0:
160,252,221497,1,6,0:0:0:0:
160,252,222042,5,0,0:0:0:0:
352,312,222315,1,0,0:0:0:0:
308,116,222588,2,0,P|316:68|324:4,1,112,6|8,0:0|0:0,0:0:0:0:
228,144,223406,1,8,0:0:0:0:
376,196,223679,2,0,L|432:188,1,56,8|8,0:0|0:0,0:0:0:0:
344,260,224088,1,8,0:0:0:0:
344,260,224224,2,0,L|288:268,1,56,8|8,0:0|0:0,0:0:0:0:
212,336,224770,5,6,0:0:0:0:
152,40,225179,1,2,0:0:0:0:
440,136,225588,1,2,0:0:0:0:
212,336,225860,1,6,0:0:0:0:
212,336,226406,5,0,0:0:0:0:
184,188,226679,1,0,0:0:0:0:
152,40,226951,2,0,P|188:32|240:24,1,84,6|2,0:0|0:0,0:0:0:0:
234,24,227497,2,0,P|232:40|228:80,1,56,0|2,0:0|0:0,0:0:0:0:
292,180,228042,1,6,0:0:0:0:
400,0,228451,1,2,0:0:0:0:
152,40,228860,1,2,0:0:0:0:
156,48,228951,1,2,0:0:0:0:
160,56,229042,1,2,0:0:0:0:
164,64,229133,6,0,B|192:76|220:64|220:64|256:60|292:76,1,112,6|0,0:0|0:0,0:0:0:0:
236,152,229951,1,0,0:0:0:0:
88,104,230224,2,0,P|64:48|88:4,1,112,10|0,0:0|0:0,0:0:0:0:
217,47,231042,1,0,0:0:0:0:
152,196,231315,6,0,L|148:232,5,18.6666666666667
228,240,231860,6,0,L|224:280,5,20.9999993591309
304,284,232406,6,0,L|300:328,5,23.3333333333333
380,328,232951,6,0,L|376:376,4,25.6666674499512
464,176,233497,5,6,0:0:0:0:
360,148,233770,1,2,0:0:0:0:
388,252,234042,1,10,0:0:0:0:
424,104,234315,1,2,0:0:0:0:
268,104,234588,1,14,0:0:0:0:
280,212,234860,1,2,0:0:0:0:
172,72,235133,1,10,0:0:0:0:
160,180,235405,1,2,0:0:0:0:
0,224,235679,5,6,0:0:0:0:
108,236,235951,1,2,0:0:0:0:
20,344,236224,1,10,0:0:0:0:
128,332,236496,1,2,0:0:0:0:
180,208,236770,1,14,0:0:0:0:
288,196,237042,1,2,0:0:0:0:
200,88,237315,1,10,0:0:0:0:
308,100,237587,1,2,0:0:0:0:
352,256,237860,5,6,0:0:0:0:
352,256,238133,1,2,0:0:0:0:
184,280,238406,1,10,0:0:0:0:
184,280,238679,1,2,0:0:0:0:
120,124,238951,1,14,0:0:0:0:
228,136,239224,1,2,0:0:0:0:
112,260,239497,1,10,0:0:0:0:
4,248,239770,1,2,0:0:0:0:
104,84,240042,5,6,0:0:0:0:
92,192,240315,1,2,0:0:0:0:
212,60,240588,1,10,0:0:0:0:
224,168,240861,1,2,0:0:0:0:
332,108,241133,1,14,0:0:0:0:
320,216,241406,1,2,0:0:0:0:
440,84,241679,1,10,0:0:0:0:
452,192,241952,1,2,0:0:0:0:
308,300,242224,5,6,0:0:0:0:
308,300,242497,1,2,0:0:0:0:
332,108,242770,1,10,0:0:0:0:
332,108,243043,1,2,0:0:0:0:
140,240,243315,1,14,0:0:0:0:
128,132,243588,1,2,0:0:0:0:
228,172,243860,1,10,0:0:0:0:
60,196,244133,1,2,0:0:0:0:
288,260,244406,5,14,0:0:0:0:
300,152,244679,1,2,0:0:0:0:
420,248,244951,1,10,0:0:0:0:
408,140,245224,1,2,0:0:0:0:
248,92,245497,1,14,0:0:0:0:
236,200,245770,1,2,0:0:0:0:
116,104,246042,1,10,0:0:0:0:
128,212,246315,1,2,0:0:0:0:
300,152,246588,5,6,0:0:0:0:
60,168,246860,1,10,0:0:0:0:
324,228,247133,1,10,0:0:0:0:
80,92,247405,1,10,0:0:0:0:
248,312,247679,2,0,P|256:272|244:236,1,77.0000023498536,14|14,0:0|0:0,0:0:0:0:
184,276,248088,1,0,0:0:0:0:
184,276,248224,1,10,0:0:0:0:
248,312,248360,1,8,0:0:0:0:
320,300,248497,1,10,0:0:0:0:
368,244,248633,1,8,0:0:0:0:
364,172,248770,6,0,B|356:128|356:128|368:92|368:92|360:44,1,131.25,6|8,0:0|0:0,0:0:0:0:
356,24,249315,1,8,0:0:0:0:
232,116,249588,1,8,0:0:0:0:
332,236,249860,2,0,P|375:243|416:224,1,87.5,6|0,0:0|0:0,0:0:0:0:
453,55,250406,2,0,P|409:47|369:67,1,87.5,10|0,0:0|0:0,0:0:0:0:
256,196,250951,6,0,L|124:180,1,131.25,6|8,0:0|0:0,0:0:0:0:
125,180,251497,2,0,P|140:224|148:264,1,87.5,8|8,0:0|0:0,0:0:0:0:
316,132,252042,2,0,P|301:88|293:48,1,87.5,6|0,0:0|0:0,0:0:0:0:
292,40,252451,1,0,0:0:0:0:
292,32,252588,2,0,P|246:40|206:32,1,87.5,10|0,0:0|0:0,0:0:0:0:
328,204,253133,6,0,P|264:224|200:212,1,131.25,6|8,0:0|0:0,0:0:0:0:
180,197,253679,1,8,0:0:0:0:
316,132,253951,1,8,0:0:0:0:
216,292,254224,2,0,P|176:284|128:280,1,87.5,6|0,0:0|0:0,0:0:0:0:
148,112,254770,2,0,P|188:120|236:124,1,87.5,10|0,0:0|0:0,0:0:0:0:
420,228,255315,6,0,P|360:244|304:208,1,131.25,6|8,0:0|0:0,0:0:0:0:
304,208,255860,2,0,P|312:164|312:120,1,87.5,8|8,0:0|0:0,0:0:0:0:
124,184,256406,2,0,P|124:227|131:270,1,87.5,4|0,0:0|0:0,0:0:0:0:
136,275,256815,1,0,0:0:0:0:
140,279,256951,2,0,P|176:272|232:264,1,87.5,10|4,0:0|0:0,0:0:0:0:
292,308,257360,1,8,0:0:0:0:
292,308,257497,6,0,P|348:316|404:264,1,131.25,6|8,0:0|0:0,0:0:0:0:
406,253,258042,1,8,0:0:0:0:
268,192,258315,1,8,0:0:0:0:
344,64,258588,2,0,P|372:56|432:48,1,87.5,6|0,0:0|0:0,0:0:0:0:
442,49,258997,1,0,0:0:0:0:
454,52,259133,1,10,0:0:0:0:
422,95,259269,1,8,0:0:0:0:
419,149,259406,1,4,0:0:0:0:
444,197,259542,1,8,0:0:0:0:
492,224,259679,6,0,B|432:252|432:252|368:248,1,131.25,6|8,0:0|0:0,0:0:0:0:
344,244,260224,1,8,0:0:0:0:
512,212,260497,1,8,0:0:0:0:
272,272,260770,2,0,P|236:264|184:256,1,87.5,6|4,0:0|0:0,0:0:0:0:
173,256,261179,1,0,0:0:0:0:
160,256,261315,1,10,0:0:0:0:
209,216,261451,1,8,0:0:0:0:
213,152,261587,1,4,0:0:0:0:
171,105,261724,1,8,0:0:0:0:
106,96,261860,6,0,B|186:132|202:68|282:96,1,175,6|8,0:0|0:0,0:0:0:0:
209,279,262679,1,12,0:0:0:0:
209,279,262815,1,8,0:0:0:0:
209,279,262951,2,0,P|193:239|205:195,1,87.5,6|4,0:0|0:0,0:0:0:0:
265,235,263360,1,8,0:0:0:0:
265,235,263497,1,10,0:0:0:0:
209,279,263633,1,8,0:0:0:0:
141,263,263769,1,8,0:0:0:0:
113,199,263906,1,8,0:0:0:0:
141,135,264042,6,0,B|184:128|184:128|224:136|224:136|272:128,1,131.25,4|8,0:1|0:0,0:0:0:0:
292,124,264588,1,8,0:0:0:0:
84,96,264860,1,10,0:0:0:0:
328,188,265133,2,0,L|416:172,1,87.5,6|0,0:0|0:0,0:0:0:0:
232,40,265679,2,0,L|144:56,1,87.5,10|0,0:0|0:0,0:0:0:0:
120,316,266224,6,0,P|176:340|244:328,1,131.25,6|8,0:0|0:0,0:0:0:0:
243,328,266770,2,0,P|247:287|259:239,1,87.5,8|10,0:0|0:0,0:0:0:0:
84,96,267315,2,0,P|79:136|67:184,1,87.5,6|2,0:0|0:0,0:0:0:0:
360,196,267860,2,0,P|364:152|348:112,1,87.5,6|0,0:0|0:0,0:0:0:0:
176,336,268406,6,0,L|308:348,1,131.25,6|8,0:0|0:0,0:0:0:0:
333,350,268951,1,10,0:0:0:0:
228,168,269224,1,8,0:0:0:0:
56,288,269497,2,0,P|44:332|36:376,1,87.5,6|0,0:0|0:0,0:0:0:0:
228,168,270042,2,0,P|219:125|208:82,1,87.5,10|0,0:0|0:0,0:0:0:0:
456,112,270588,6,0,P|476:164|444:228,1,131.25,6|8,0:0|0:0,0:0:0:0:
443,228,271133,2,0,P|404:216|356:208,1,87.5,10|8,0:0|0:0,0:0:0:0:
208,328,271679,2,0,P|252:328|288:304,1,87.5,6|0,0:0|0:0,0:0:0:0:
292,296,272088,1,0,0:0:0:0:
296,288,272224,2,0,P|292:232|288:200,1,87.5,10|0,0:0|0:0,0:0:0:0:
28,224,272770,6,0,P|72:252|148:240,1,131.25,6|8,0:0|0:0,0:0:0:0:
168,224,273315,1,10,0:0:0:0:
44,112,273588,1,8,0:0:0:0:
196,24,273860,2,0,P|240:28|284:40,1,87.5,6|8,0:0|0:0,0:0:0:0:
328,96,274270,1,8,0:0:0:0:
328,96,274406,1,10,0:0:0:0:
316,164,274542,1,8,0:0:0:0:
256,204,274679,1,8,0:0:0:0:
188,192,274815,1,8,0:0:0:0:
148,136,274951,6,0,B|208:92|240:172|316:112,1,175,6|10,0:0|0:0,0:0:0:0:
132,64,275770,1,6,0:0:0:0:
276,236,276042,2,0,P|320:228|356:204,1,87.5,6|8,0:0|0:0,0:0:0:0:
284,148,276451,1,8,0:0:0:0:
284,148,276588,1,10,0:0:0:0:
216,144,276724,1,8,0:0:0:0:
148,136,276860,1,8,0:0:0:0:
80,128,276997,1,8,0:0:0:0:
12,120,277133,6,0,B|20:164|20:164|52:188|52:188|64:236,1,131.25,6|8,0:0|0:0,0:0:0:0:
63,233,277679,2,0,P|107:242|147:254,1,87.5,10|4,0:0|0:0,0:0:0:0:
312,340,278224,2,0,P|268:348|228:336,1,87.5,10|4,0:0|0:0,0:0:0:0:
272,260,278633,1,8,0:0:0:0:
272,260,278770,1,10,0:0:0:0:
492,200,279042,1,8,0:0:0:0:
484,276,279179,1,8,0:0:0:0:
476,352,279315,5,6,0:0:0:0:
256,192,279451,12,0,283406,0:0:0:0:
176,156,284224,6,0,L|180:136,3,11.6666666666667
176,156,284415,2,0,P|204:168|232:164,1,59.5000011348725
396,132,284986,2,0,P|368:120|340:124,1,59.5000011348725
260,248,285557,6,0,P|328:324|336:232,1,245
337,233,288129,2,0,P|308:228|268:224,2,59.5000011348725
448,276,288986,5,6,0:0:0:0:
40,176,289415,1,6,0:0:0:0:
40,176,291557,6,0,P|84:168|116:140,1,89.2500017023087
44,80,292415,2,0,B|36:148|36:148|80:204|80:204|72:280,1,210
192,232,294415,2,0,P|224:224|252:220,1,59.5000011348725
408,316,294986,2,0,P|376:308|348:304,1,59.5000011348725
200,328,295557,2,0,L|168:324,1,29.7500005674362
88,312,295843,5,2,0:0:0:0:
88,312,298415,6,0,L|176:324,1,89.2500017023087
288,212,299272,2,0,P|188:244|124:176,1,210
208,96,301272,2,0,P|212:124|216:164,1,59.5000011348725
408,348,301843,2,0,P|404:320|400:280,1,59.5000011348725
484,64,302415,2,0,L|480:96,1,29.7500005674362
464,200,302700,5,6,0:0:0:0:
36,56,303129,1,6,0:0:0:0:
36,56,305272,6,0,P|72:68|124:64,1,89.2500017023087
36,56,306129,2,0,P|4:112|68:228,1,210
164,124,308129,2,0,P|128:128|104:132,1,59.5000011348725
252,280,308700,2,0,P|288:276|312:272,1,59.5000011348725
436,112,309272,2,0,L|404:116,1,29.7500005674362
336,124,309558,5,2,0:0:0:0:
336,124,312986,6,0,B|348:164|348:164|336:228,2,105,4|4|4,0:0|0:0|0:0,0:0:0:0:
200,172,314129,2,0,B|236:180|236:180|268:172,1,70,4|4,0:0|0:0,0:0:0:0:
144,80,314700,6,0,L|40:64,2,105,4|4|4,0:0|0:0|0:0,0:0:0:0:
272,24,315843,1,4,0:0:0:0:
272,24,316129,1,4,0:0:0:0:
200,172,316415,6,0,P|252:192|300:188,2,105,6|4|6,0:0|0:0|0:0,0:0:0:0:
272,24,317558,1,4,0:0:0:0:
260,112,317843,1,4,0:0:0:0:
72,120,318129,6,0,B|68:80|68:80|76:56|76:56|72:16,2,105,6|4|6,0:0|0:0|0:0,0:0:0:0:
184,204,319272,1,4,0:0:0:0:
76,292,319558,1,6,0:0:0:0:
192,368,319843,5,6,0:0:0:0:
300,280,320129,2,0,L|406:268,1,105
439,264,320700,1,6,0:0:0:0:
237,319,320986,2,0,P|225:283|233:247,1,70
420,216,321558,6,0,B|440:264|440:264|432:316,2,105,6|4|6,0:0|0:0|0:0,0:0:0:0:
300,120,322700,2,0,B|292:85|292:85|300:52,1,70,4|6,0:0|0:0,0:0:0:0:
400,88,323272,5,6,0:0:0:0:
304,216,323558,2,0,P|257:230|209:206,1,105
192,176,324129,1,6,0:0:0:0:
356,164,324415,1,0,0:0:0:0:
284,312,324700,1,0,0:0:0:0:
140,228,324986,6,0,L|148:124,2,105,6|4|6,0:0|0:0|0:0,0:0:0:0:
188,56,326129,2,0,B|152:48|152:48|116:52,1,70,4|6,0:0|0:0,0:0:0:0:
148,123,326700,5,6,0:0:0:0:
268,196,326986,2,0,B|304:192|304:192|331:174|331:174|367:171,1,105
402,170,327558,1,6,0:0:0:0:
404,336,327843,2,0,P|368:340|336:332,1,70
372,256,328415,5,6,0:0:0:0:
236,332,328700,2,0,L|132:320,1,105
131,319,329272,2,0,P|124:284|112:252,1,70,6|0,0:0|0:0,0:0:0:0:
208,160,329843,1,6,0:0:0:0:
208,160,330129,5,6,0:0:0:0:
248,304,330415,2,0,P|196:316|148:300,1,105
148,300,330986,2,0,L|76:304,2,70,6|0|0,0:0|0:0|0:0,0:0:0:0:
256,232,331843,6,0,P|260:212|260:196,1,35,6|0,0:0|0:0,0:0:0:0:
164,120,332129,2,0,P|160:100|160:84,1,35,6|0,0:0|0:0,0:0:0:0:
304,56,332415,5,6,0:0:0:0:
308,60,332510,1,0,0:0:0:0:
312,64,332605,1,0,0:0:0:0:
325,82,332700,1,14,0:0:0:0:
333,106,332796,1,8,0:0:0:0:
335,133,332891,1,8,0:0:0:0:
325,161,332986,1,14,0:0:0:0:
306,187,333081,1,8,0:0:0:0:
276,205,333177,1,8,0:0:0:0:
239,209,333272,1,10,0:0:0:0:
201,196,333367,1,8,0:0:0:0:
171,165,333462,1,8,0:0:0:0:
164,120,333558,6,0,B|172:68|172:68|156:16,1,105.000004005432,6|4,0:0|0:0,0:0:0:0:
8,220,334129,2,0,P|4:236|0:272,1,52.5000020027161,10|0,0:0|0:0,0:0:0:0:
108,224,334415,2,0,P|105:197|100:172,1,52.5000020027161,4|0,0:0|0:0,0:0:0:0:
40,340,334700,1,10,0:0:0:0:
112,348,334843,1,0,0:0:0:0:
184,356,334986,1,6,0:0:0:0:
408,336,335272,6,0,P|352:384|276:368,1,157.500006008148,10|4,0:0|0:0,0:0:0:0:
331,304,335843,1,10,0:0:0:0:
331,304,336129,2,0,P|284:296|224:288,1,105.000004005432,4|10,0:0|0:0,0:0:0:0:
156,280,336558,1,6,0:0:0:0:
104,116,336843,1,6,0:0:0:0:
104,116,336986,6,0,L|108:84,4,26.2500010013581,10|0|0|0|4,0:0|0:0|0:0|0:0|0:0,0:0:0:0:
240,304,337558,1,10,0:0:0:0:
416,208,337843,2,0,P|424:164|400:108,1,105.000004005432,4|10,0:0|0:0,0:0:0:0:
225,13,338415,1,6,0:0:0:0:
132,232,338700,6,0,B|184:240|184:240|232:224|232:224|288:232,1,157.500006008148,10|4,0:0|0:0,0:0:0:0:
240,304,339272,1,10,0:0:0:0:
240,304,339558,2,0,P|208:268|204:200,1,105.000004005432,4|10,0:0|0:0,0:0:0:0:
285,231,339986,1,6,0:0:0:0:
240,304,340129,1,8,0:0:0:0:
156,320,340272,1,8,0:0:0:0:
80,280,340415,5,6,0:0:0:0:
278,145,340700,1,4,0:0:0:0:
4,200,340986,1,10,0:0:0:0:
348,316,341272,2,0,P|388:308|452:300,1,105.000004005432,4|10,0:0|0:0,0:0:0:0:
144,348,341843,1,6,0:0:0:0:
336,64,342129,5,10,0:0:0:0:
360,208,342415,1,4,0:0:0:0:
216,232,342700,1,10,0:0:0:0:
192,88,342986,1,4,0:0:0:0:
360,208,343272,1,10,0:0:0:0:
352,280,343415,1,6,0:0:0:0:
344,352,343558,2,0,P|316:356|288:364,1,52.5000020027161,0|6,0:0|0:0,0:0:0:0:
116,384,343843,6,0,L|88:380,4,26.2500010013581,10|0|0|0|6,0:0|0:0|0:0|0:0|0:0,0:0:0:0:
24,148,344415,1,8,0:3:0:0:
96,156,344558,1,4,0:3:0:0:
168,164,344700,1,6,0:0:0:0:
408,128,344986,1,10,0:0:0:0:
152,4,345272,1,6,0:0:0:0:
224,364,345558,5,10,0:0:0:0:
408,128,345843,1,6,0:0:0:0:
336,96,345985,1,8,0:3:0:0:
258,94,346128,1,10,0:0:0:0:
184,122,346271,1,4,0:3:0:0:
128,176,346415,6,0,P|120:204|116:240,1,62.9999980773926,6|0,0:0|0:0,0:0:0:0:
492,108,346700,5,6,0:0:0:0:
492,108,347259,6,0,P|456:116|424:108,1,70,6|8,0:0|0:0,0:0:0:0:
312,48,347830,2,0,L|288:44,3,23.3333333333333,4|4|4|4,0:0|0:0|0:0|0:3,0:0:0:0:
392,164,348401,1,4,0:0:0:0:
394,170,348497,1,4,0:0:0:0:
396,176,348592,1,4,0:0:0:0:
398,182,348687,6,0,P|392:200|388:224,1,35,8|4,0:0|0:0,0:0:0:0:
316,256,348973,2,0,P|310:238|306:214,2,35,8|4|8,0:3|0:0|0:0,0:0:0:0:
256,324,349401,2,0,B|220:332|220:332|152:316,1,105,14|4,0:0|0:3,0:0:0:0:
316,152,350116,1,8,0:3:0:0:
448,296,350401,5,2,0:0:0:0:
444,292,350544,1,2,0:0:0:0:
440,288,350687,2,0,P|428:232|452:184,1,112,6|2,0:0|0:0,0:0:0:0:
492,352,351544,2,0,B|436:364|436:364|384:348,1,112,2|2,0:0|0:0,0:0:0:0:
376,188,352401,2,0,P|428:168|484:176,1,112,6|2,0:0|0:0,0:0:0:0:
312,272,353259,2,0,L|200:256,1,112,2|2,0:0|0:0,0:0:0:0:
148,372,354116,6,0,P|204:376|244:340,1,112,6|2,0:0|0:0,0:0:0:0:
172,220,354973,2,0,L|180:304,1,84,2|2,0:0|0:0,0:0:0:0:
181,311,355544,1,2,0:0:0:0:
204,152,355830,2,0,P|148:148|108:184,1,112,6|2,0:0|0:0,0:0:0:0:
272,180,356687,2,0,B|276:152|276:152|272:124,1,56,2|0,0:0|0:0,0:0:0:0:
56,108,357259,5,2,0:0:0:0:
60,112,357401,1,2,0:0:0:0:
64,116,357544,2,0,B|128:128|112:104|176:108,1,112,6|2,0:0|0:0,0:0:0:0:
200,280,358401,2,0,P|148:296|96:276,1,112,2|2,0:0|0:0,0:0:0:0:
152,200,359259,2,0,L|264:212,1,112,6|2,0:0|0:0,0:0:0:0:
248,116,360116,2,0,P|220:112|192:112,1,56,2|0,0:0|0:0,0:0:0:0:
200,280,360687,5,2,0:0:0:0:
204,284,360830,1,2,0:0:0:0:
208,288,360973,2,0,P|220:248|208:208,1,84,6|2,0:0|0:0,0:0:0:0:
200,196,361544,1,2,0:0:0:0:
316,252,361830,2,0,L|372:248,1,56,2|2,0:0|0:0,0:0:0:0:
430,142,362401,1,2,0:0:0:0:
433,131,362544,1,2,0:0:0:0:
436,120,362687,6,0,P|384:140|300:80,1,168,2|6,0:0|0:0,0:0:0:0:
380,44,363830,2,0,L|382:61,3,14,6|6|6|6,0:0|0:0|0:0|0:0,0:0:0:0:
300,80,364116,1,4,0:3:0:0:
264,84,364211,1,4,0:3:0:0:
228,88,364306,1,4,0:3:0:0:
192,92,364401,6,0,P|137:81|53:69,1,140,6|10,0:0|0:0,0:0:0:0:
64,200,365259,2,0,P|96:212|132:212,1,70,4|10,0:0|0:0,0:0:0:0:
192,172,365687,1,8,0:0:0:0:
196,164,365830,2,0,L|232:160,1,35,4|0,0:0|0:0,0:0:0:0:
348,260,366116,6,0,P|280:276|232:232,1,140,4|10,0:0|0:0,0:0:0:0:
320,132,366973,2,0,P|312:164|304:200,1,70,4|10,0:0|0:0,0:0:0:0:
456,180,367544,1,8,0:3:0:0:
472,176,367687,1,4,0:3:0:0:
488,172,367830,6,0,P|508:116|472:44,1,140,4|10,0:0|0:0,0:0:0:0:
320,132,368687,2,0,B|340:132|360:136|360:136|388:124|424:116,1,105,4|2,0:0|0:0,0:0:0:0:
424,200,369259,1,10,0:0:0:0:
420,208,369401,1,8,0:0:0:0:
416,216,369544,6,0,P|384:208|344:204,1,70,4|10,0:0|0:0,0:0:0:0:
276,224,369973,1,8,0:0:0:0:
204,200,370116,1,8,0:3:0:0:
472,120,370401,1,4,0:3:0:0:
320,356,370687,2,0,P|304:352|280:348,1,35,6|6,0:0|0:0,0:0:0:0:
184,340,370973,5,4,0:3:0:0:
180,344,371068,1,4,0:3:0:0:
176,348,371163,1,4,0:3:0:0:
172,352,371259,6,0,B|156:360|144:376|144:376|124:332|76:300,1,140,6|10,0:0|0:0,0:0:0:0:
203,267,372116,2,0,P|211:231|203:199,1,70,4|10,0:0|0:0,0:0:0:0:
40,108,372687,1,4,0:0:0:0:
48,116,372830,1,4,0:0:0:0:
56,124,372973,6,0,P|124:136|176:92,1,140,6|8,0:0|0:0,0:0:0:0:
68,56,373830,2,0,L|104:60,1,35,6|0,0:0|0:0,0:0:0:0:
268,156,374116,2,0,L|232:152,1,35,10|0,0:0|0:0,0:0:0:0:
220,64,374401,5,8,0:0:0:0:
270,51,374543,1,4,0:0:0:0:
320,64,374686,1,4,0:3:0:0:
357,100,374829,1,4,0:0:0:0:
371,150,374973,2,0,L|368:188,1,35,10|0,0:0|0:0,0:0:0:0:
160,164,375259,2,0,L|163:126,1,35,10|0,0:0|0:0,0:0:0:0:
376,264,375544,5,4,0:0:0:0:
380,276,375687,1,4,0:0:0:0:
384,288,375830,2,0,P|348:280|316:276,1,70,10|10,0:0|0:0,0:0:0:0:
236,260,376259,1,0,0:0:0:0:
224,264,376401,6,0,P|208:256|184:248,1,35,4|0,0:0|0:0,0:0:0:0:
60,272,376687,2,0,L|56:292,2,17.5,4|4|8,0:0|0:0|0:0,0:0:0:0:
120,212,376973,1,8,0:0:0:0:
124,128,377116,1,6,0:0:0:0:
80,56,377259,2,0,L|116:52,1,35,8|4,0:3|0:3,0:0:0:0:
292,44,377544,5,4,0:0:0:0:
290,57,377639,1,4,0:0:0:0:
288,70,377735,1,8,0:3:0:0:
286,83,377830,1,8,0:3:0:0:
284,96,377925,1,4,0:3:0:0:
282,109,378020,1,4,0:3:0:0:
280,122,378116,6,0,B|244:136|212:116|212:116|180:108|144:120,1,140,6|8,0:0|0:0,0:0:0:0:
168,268,378973,2,0,P|204:268|236:256,1,70,4|8,0:0|0:0,0:0:0:0:
188,188,379401,1,0,0:0:0:0:
184,184,379544,2,0,L|144:180,1,35,4|4,0:0|0:0,0:0:0:0:
136,340,379830,6,0,B|204:352|204:352|272:332,1,140,10|8,0:0|0:0,0:0:0:0:
368,216,380687,2,0,L|360:144,1,70,4|8,0:0|0:0,0:0:0:0:
511,71,381259,1,8,0:3:0:0:
503,139,381401,1,4,0:3:0:0:
491,207,381544,6,0,P|427:239|367:215,1,140,10|8,0:0|0:0,0:0:0:0:
432,80,382401,2,0,L|428:152,1,70,4|8,0:0|0:0,0:0:0:0:
424,228,382830,1,0,0:0:0:0:
420,232,382973,2,0,P|404:236|388:244,1,35,8|8,0:0|0:0,0:0:0:0:
324,300,383259,6,0,L|252:292,1,70,6|8,0:0|0:3,0:0:0:0:
180,320,383687,1,8,0:3:0:0:
123,309,383829,1,12,0:3:0:0:
90,263,383972,1,4,0:3:0:0:
96,207,384115,1,4,0:0:0:0:
286,68,384401,1,8,0:3:0:0:
278,124,384544,1,8,0:3:0:0:
270,180,384687,1,4,0:3:0:0:
262,236,384830,1,4,0:3:0:0:
254,292,384973,6,0,L|260:316,3,23.3333333333333,6|0|0|0,0:0|0:0|0:0|0:0,0:0:0:0:
448,156,385544,2,0,L|452:120,2,35,8|4|4,0:3|0:3|0:0,0:0:0:0:
332,280,386116,1,8,0:0:0:0:
276,272,386259,1,8,0:0:0:0:
220,264,386401,1,4,0:0:0:0:
164,256,386544,1,4,0:0:0:0:
108,248,386687,6,0,P|76:236|40:228,1,70,6|4,0:0|0:3,0:0:0:0:
256,72,387259,2,0,P|288:84|324:92,1,70,8|4,0:3|0:3,0:0:0:0:
276,356,387830,1,8,0:3:0:0:
259,360,387925,1,8,0:3:0:0:
241,360,388020,1,4,0:3:0:0:
224,357,388115,1,4,0:3:0:0:
208,350,388210,1,4,0:0:0:0:
194,340,388306,1,4,0:0:0:0:
182,327,388401,6,0,B|168:296|168:296|180:224,1,105,10|4,0:0|0:0,0:0:0:0:
248,168,388973,2,0,P|252:132|240:100,1,70,8|4,0:3|0:3,0:0:0:0:
56,120,389544,2,0,P|52:156|64:188,1,70,8|4,0:3|0:3,0:0:0:0:
182,327,390116,5,8,0:3:0:0:
152,140,390401,1,4,0:3:0:0:
156,148,390544,1,4,0:3:0:0:
160,156,390687,1,8,0:3:0:0:
200,196,390829,1,8,0:3:0:0:
256,206,390972,1,4,0:3:0:0:
308,181,391115,1,4,0:3:0:0:
336,131,391258,1,8,0:3:0:0:
329,74,391401,1,8,0:3:0:0:
290,32,391544,1,8,0:3:0:0:
136,268,394401,6,0,P|172:272|204:260,1,70,2|0,0:0|0:0,0:0:0:0:
160,196,394843,2,0,L|124:192,2,35
236,196,395285,2,0,P|264:188|308:180,1,70,2|0,0:0|0:0,0:0:0:0:
380,168,395727,2,0,L|384:132,2,35
372,248,396170,6,0,L|364:320,1,70,2|0,0:0|0:0,0:0:0:0:
300,360,396612,2,0,L|264:364,2,35
192,344,397054,2,0,L|156:336,1,35,2|2,0:0|0:0,0:0:0:0:
80,316,397349,1,0,0:0:0:0:
76,304,397496,1,0,0:0:0:0:
72,292,397644,1,0,0:0:0:0:
68,280,397791,1,0,0:0:0:0:
64,268,397939,6,0,P|64:232|76:200,1,70,2|0,0:0|0:0,0:0:0:0:
148,252,398381,2,0,L|144:288,2,35
224,160,398823,2,0,P|224:124|212:92,1,70,2|0,0:0|0:0,0:0:0:0:
140,144,399265,2,0,L|144:180,2,35
68,48,399708,5,2,0:0:0:0:
4,180,400002,2,0,L|8:216,1,35,2|2,0:0|0:0,0:0:0:0:
16,288,400297,1,2,0:0:0:0:
140,144,400592,1,2,0:0:0:0:
204,320,400887,2,0,P|224:324|248:332,1,35,2|2,0:0|0:0,0:0:0:0:
304,360,401182,1,0,0:0:0:0:
316,368,401329,1,0,0:0:0:0:
324,376,401477,6,0,P|388:356|460:340,1,140,4|0,0:0|0:0,0:0:0:0:
204,320,402357,1,2,0:0:0:0:
424,244,402650,1,0,0:0:0:0:
172,244,402943,1,2,0:0:0:0:
502,307,403237,6,0,P|526:243|502:175,1,140
354,251,404117,2,0,P|378:247|426:243,1,70,2|0,0:0|0:0,0:0:0:0:
406,327,404557,1,0,0:0:0:0:
406,327,404703,6,0,P|346:351|286:315,1,140,2|0,0:0|0:0,0:0:0:0:
334,184,405583,2,0,P|346:216|354:252,2,70,0|2|0,0:0|0:0|0:0,0:0:0:0:
116,236,406463,2,0,B|164:240|164:240|208:228|208:228|256:232,1,140,2|0,0:0|0:0,0:0:0:0:
220,312,407343,1,0,0:0:0:0:
152,152,407637,1,2,0:0:0:0:
156,132,407783,1,2,0:0:0:0:
160,112,407930,6,0,P|192:104|232:100,1,70,4|0,0:0|0:0,0:0:0:0:
296,140,408370,1,2,0:0:0:0:
309,146,408517,2,0,P|345:155|381:155,1,70,0|2,0:0|0:0,0:0:0:0:
424,36,409103,1,0,0:0:0:0:
420,60,409250,1,0,0:0:0:0:
424,84,409397,1,2,0:0:0:0:
328,212,409690,2,0,B|308:220|308:220|288:204|288:204|256:216|228:204,1,105,0|2,0:0|0:0,0:0:0:0:
220,200,410277,2,0,L|149:203,1,70,0|2,0:0|0:0,0:0:0:0:
256,36,410863,5,0,0:0:0:0:
260,64,411010,1,0,0:0:0:0:
256,92,411157,1,2,0:0:0:0:
150,203,411450,1,2,0:0:0:0:
108,24,411743,1,2,0:0:0:0:
152,216,412037,1,2,0:0:0:0:
256,92,412330,1,2,0:0:0:0:
156,228,412623,1,2,0:0:0:0:
284,324,412893,6,0,B|316:304|352:308|352:308|320:272|320:272|336:228|316:184,1,210,4|0,0:0|0:0,0:0:0:0:
104,304,414099,1,8,0:3:0:0:
104,304,414257,1,4,0:3:0:0:
104,304,414416,6,0,B|80:272|80:272|88:196,1,115.50000352478,4|2,0:0|0:0,0:0:0:0:
92,172,415001,1,0,0:0:0:0:
216,248,415294,1,10,0:0:0:0:
312,140,415587,2,0,L|309:125,6,12.8333337249756
444,200,416173,2,0,P|468:268|428:336,1,154.000004699707,4|0,0:3|0:0,0:0:0:0:
288,248,417052,1,10,0:0:0:0:
352,60,417345,1,0,0:0:0:0:
336,64,417492,1,0,0:0:0:0:
320,68,417638,6,0,P|244:52|168:40,1,154.000004699707,10|0,0:0|0:0,0:0:0:0:
172,224,418517,1,10,0:0:0:0:
276,156,418810,1,0,0:0:0:0:
72,140,419103,1,10,0:0:0:0:
276,156,419396,2,0,B|328:160|328:160|376:144|376:144|428:148,1,154.000004699707
392,232,420275,1,10,0:0:0:0:
304,80,420568,1,8,0:3:0:0:
272,60,420714,1,4,0:3:0:0:
236,52,420861,6,0,B|200:64|200:64|156:44|84:32,1,154.000004699707,6|0,0:0|0:0,0:0:0:0:
152,196,421738,1,10,0:0:0:0:
312,128,422031,1,4,0:3:0:0:
320,96,422178,1,4,0:3:0:0:
312,64,422324,5,10,0:0:0:0:
224,224,422618,2,0,B|256:232|280:248|280:248|292:236|312:232,1,77.0000023498536
384,184,423057,2,0,P|365:187|344:192,1,38.5000011749268,2|2,0:0|0:0,0:0:0:0:
220,144,423350,2,0,P|240:147|260:152,1,38.5000011749268,2|10,0:0|0:0,0:0:0:0:
308,32,423790,1,0,0:0:0:0:
276,24,423936,1,0,0:0:0:0:
244,32,424083,5,10,0:0:0:0:
144,196,424374,1,2,0:0:0:0:
52,28,424667,1,0,0:0:0:0:
244,32,424960,1,10,0:0:0:0:
128,220,425253,1,0,0:0:0:0:
256,8,425546,1,10,0:0:0:0:
364,232,425839,6,0,P|328:240|288:228,1,77.0000023498536,2|8,0:0|0:3,0:0:0:0:
285,225,426210,1,8,0:3:0:0:
280,220,426287,2,0,P|272:176|264:152,1,70,6|2,0:3|0:0,0:0:0:0:
124,244,426746,2,0,P|168:248|208:224,1,90.9999958343508,2|2,0:0|0:0,0:0:0:0:
148,152,427205,1,0,0:0:0:0:
148,152,427359,6,0,L|44:160,1,105,4|0,0:0|0:0,0:0:0:0:
43,160,427945,2,0,P|52:184|60:228,1,70,0|10,0:0|0:0,0:0:0:0:
224,112,428532,2,0,P|215:88|207:44,1,70,0|10,0:0|0:0,0:0:0:0:
384,144,429118,1,0,0:0:0:0:
276,284,429411,2,0,P|208:296|168:244,1,140,0|10,0:0|0:0,0:0:0:0:
244,196,430291,1,0,0:0:0:0:
240,212,430438,1,0,0:0:0:0:
236,228,430584,6,0,P|304:212|376:204,1,140,10|0,0:0|0:0,0:0:0:0:
376,356,431464,2,0,P|340:368|308:368,1,70,10|0,0:0|0:0,0:0:0:0:
236,228,432051,1,10,0:0:0:0:
232,212,432197,1,0,0:0:0:0:
228,196,432344,5,0,0:0:0:0:
184,300,432637,2,0,P|256:316|304:276,1,140,0|10,0:0|0:0,0:0:0:0:
120,212,433517,1,10,0:0:0:0:
340,220,433810,5,4,0:0:0:0:
220,384,434103,1,0,0:0:0:0:
220,384,434396,1,0,0:0:0:0:
120,212,434689,2,0,B|108:180|108:180|120:144|120:144|104:116|108:76,1,140,10|10,0:0|0:0,0:0:0:0:
220,384,435862,5,0,0:0:0:0:
220,384,436155,1,0,0:0:0:0:
340,220,436448,2,0,B|352:188|352:188|340:152|340:152|356:124|352:84,1,140,10|10,0:0|0:0,0:0:0:0:
52,172,437327,6,0,P|44:204|48:240,1,70,10|0,0:0|0:0,0:0:0:0:
416,260,437913,2,0,P|424:228|420:192,1,70,10|0,0:0|0:0,0:0:0:0:
220,384,438502,5,4,0:0:0:0:
304,200,438798,1,4,0:0:0:0:
308,188,439094,1,4,0:0:0:0:
144,264,439390,1,8,0:0:0:0:
112,104,439687,1,8,0:0:0:0:
376,220,439983,1,2,0:0:0:0:
144,264,441328,6,0,P|128:232|136:188,1,70
200,220,441769,1,0,0:0:0:0:
88,308,441917,6,0,B|60:268|40:200|88:140|88:140|136:124|136:124|184:148|184:148|224:116|276:128|276:128|304:104|304:104|352:132|408:108,1,525
360,24,444273,1,0,0:0:0:0:
284,28,444420,2,0,P|268:32|240:48,2,35
196,108,444862,5,8,0:0:0:0:
184,125,444960,1,8,0:0:0:0:
177,144,445058,1,8,0:0:0:0:
176,165,445156,1,8,0:0:0:0:
181,186,445254,1,8,0:0:0:0:
192,204,445352,1,8,0:0:0:0:
224,224,445451,5,8,0:0:0:0:
253,258,445549,1,8,0:0:0:0:
257,304,445647,1,8,0:0:0:0:
232,342,445745,1,8,0:0:0:0:
189,358,445843,1,8,0:0:0:0:
145,345,445941,1,8,0:0:0:0:
118,308,446040,5,4,0:0:0:0:
368,232,446325,1,0,0:0:0:0:
56,196,446611,1,0,0:0:0:0:
404,312,446897,5,12,0:0:0:0:
154,235,447182,1,0,0:0:0:0:
466,199,447468,1,0,0:0:0:0:
184,340,447754,5,12,0:0:0:0:
120,84,448040,1,0,0:0:0:0:
324,248,448325,1,0,0:0:0:0:
188,24,448611,5,12,0:0:0:0:
124,280,448897,1,0,0:0:0:0:
328,116,449182,1,12,0:0:0:0:
248,108,449325,1,8,0:0:0:0:
168,100,449468,5,4,0:0:0:0:
324,248,449754,1,0,0:0:0:0:
468,88,450040,1,0,0:0:0:0:
148,0,450325,2,0,P|72:68|92:168,1,210.000008010865,12|0,0:0|0:0,0:0:0:0:
440,236,451182,6,0,B|476:168|476:168|468:88,1,157.500006008148,12|0,0:0|0:0,0:0:0:0:
380,148,451754,1,2,0:0:0:0:
380,148,452040,2,0,P|328:132|276:124,1,105.000004005432,12|0,0:0|0:0,0:0:0:0:
68,256,452611,1,12,0:0:0:0:
144,280,452754,1,8,0:0:0:0:
212,240,452897,5,4,0:0:0:0:
124,52,453182,1,0,0:0:0:0:
220,252,453468,1,0,0:0:0:0:
408,160,453754,1,12,0:0:0:0:
124,52,454040,2,0,P|76:40|20:32,1,105.000004005432,0|8,0:0|0:0,0:0:0:0:
52,136,454468,1,8,0:0:0:0:
124,52,454611,5,12,0:0:0:0:
408,160,454897,1,0,0:0:0:0:
124,268,455182,1,0,0:0:0:0:
408,376,455468,2,0,B|472:336|472:336|496:204,1,210.000008010865,12|12,0:0|0:0,0:0:0:0:
408,160,456182,1,12,0:0:0:0:
319,118,456325,6,0,B|268:112|268:112|232:140|232:140|172:148|124:112,1,210.000008010865,4|0,0:0|0:0,0:0:0:0:
156,40,457182,2,0,P|200:136|124:192,1,210.000008010865,12|0,0:0|0:0,0:0:0:0:
8,108,458040,6,0,L|4:80,4,26.2500010013581,12|0|0|0|8,0:0|0:0|0:0|0:0|0:0,0:0:0:0:
20,192,458468,1,8,0:0:0:0:
20,192,458611,1,8,0:0:0:0:
20,192,458897,2,0,P|72:196|120:172,1,105.000004005432,12|0,0:0|0:0,0:0:0:0:
44,32,459468,1,12,0:0:0:0:
32,272,459754,5,12,0:0:0:0:
108,288,459897,1,8,0:0:0:0:
184,304,460040,1,8,0:0:0:0:
328,180,460325,1,8,0:0:0:0:
216,28,460611,5,12,0:0:0:0:
132,44,460754,1,8,0:0:0:0:
48,60,460897,1,8,0:0:0:0:
184,304,461182,1,8,0:0:0:0:
444,200,461468,5,12,0:0:0:0:
452,104,461611,1,8,0:0:0:0:
460,8,461754,1,8,0:0:0:0:
284,276,462040,1,8,0:0:0:0:
48,60,462325,5,12,0:0:0:0:
152,68,462468,1,8,0:0:0:0:
256,76,462611,1,8,0:0:0:0:
388,268,462897,1,12,0:0:0:0:
284,276,463040,1,8,0:0:0:0:
180,284,463182,6,0,B|136:248|136:248|120:168|164:100,1,210.000008010865,4|0,0:0|0:0,0:0:0:0:
328,196,464040,1,12,0:0:0:0:
88,300,464325,1,0,0:0:0:0:
0,52,464611,1,0,0:0:0:0:
172,132,464897,6,0,B|292:168|248:88|376:112,1,210.000008010865,12|0,0:0|0:0,0:0:0:0:
340,360,465754,2,0,P|248:384|160:320,1,210.000008010865,12|12,0:0|0:0,0:0:0:0:
444,88,466611,6,0,B|456:140|456:140|440:192,1,105.000004005432,4|8,0:0|0:0,0:0:0:0:
372,136,467040,1,8,0:0:0:0:
366,50,467182,1,8,0:0:0:0:
508,240,467468,1,12,0:0:0:0:
288,328,467754,1,8,0:0:0:0:
146,138,468040,1,8,0:0:0:0:
366,50,468326,5,12,0:0:0:0:
340,142,468468,1,12,0:0:0:0:
314,235,468611,2,0,P|286:243|256:256,1,52.5000020027161,12|8,0:0|0:0,0:0:0:0:
180,300,468897,5,8,0:0:0:0:
436,352,469182,1,12,0:0:0:0:
496,96,469468,2,0,B|468:104|468:104|444:108,1,52.5000020027161,4|4,0:0|0:0,0:0:0:0:
314,61,469754,2,0,B|342:53|342:53|366:49,1,52.5000020027161,8|8,0:0|0:0,0:0:0:0:
340,142,470040,6,0,P|248:112|248:8,1,210.000008010865,4|0,0:0|0:0,0:0:0:0:
440,56,470897,2,0,B|488:148|392:160|460:264,1,210.000008010865,12|0,0:0|0:0,0:0:0:0:
184,224,471754,6,0,B|136:132|232:120|164:16,1,210.000008010865,12|0,0:0|0:0,0:0:0:0:
80,256,472611,2,0,P|160:328|252:304,1,210.000008010865,12|12,0:0|0:0,0:0:0:0:
184,224,473325,1,12,0:0:0:0:
184,224,473468,6,0,B|176:152|176:152|196:96|196:96|188:16,1,210.000008010865,12|0,0:0|0:0,0:0:0:0:
280,176,474325,2,0,P|372:176|412:76,1,210.000008010865,12|12,0:0|0:0,0:0:0:0:
412,78,476897,6,0,P|368:96|312:88,1,105,2|2,0:0|0:0,0:0:0:0:
192,20,477632,1,0,0:0:0:0:
192,20,477779,2,0,P|208:52|220:96,2,70,2|0|0,0:0|0:0|0:0,0:0:0:0:
179,153,478744,6,0,P|243:161|295:109,1,140,2|2,0:0|0:0,0:0:0:0:
100,128,479487,1,0,0:0:0:0:
100,128,479618,2,0,L|28:140,2,70
180,152,480465,6,0,P|204:200|188:248,1,105,2|2,0:0|0:0,0:0:0:0:
40,292,481200,1,0,0:0:0:0:
40,292,481347,2,0,P|72:280|108:272,2,70,2|0|0,0:0|0:0|0:0,0:0:0:0:
180,304,482230,6,0,P|188:272|180:236,1,70,2|0,0:0|0:0,0:0:0:0:
236,184,482671,2,0,P|259:206|294:218,1,70,2|0,0:0|0:0,0:0:0:0:
311,292,483112,2,0,P|279:301|252:326,2,70,2|0|0,0:0|0:0|0:0,0:0:0:0:
488,360,483994,6,0,P|436:368|392:340,1,105,2|2,0:0|0:0,0:0:0:0:
464,220,484751,1,0,0:0:0:0:
464,220,484903,2,0,P|456:256|452:288,2,70,2|0|0,0:0|0:0|0:0,0:0:0:0:
512,128,485812,6,0,P|520:84|488:36,1,105,2|2,0:0|0:0,0:0:0:0:
384,176,486613,1,0,0:0:0:0:
384,176,486773,2,0,B|348:180|348:180|316:168,1,70
204,48,487461,5,2,0:0:0:0:
204,48,487632,2,0,P|212:64|216:80,1,35,2|2,0:0|0:0,0:0:0:0:
116,116,488183,6,0,P|100:84|104:48,1,70,2|2,0:0|0:0,0:0:0:0:
268,132,488880,6,0,P|240:152|204:152,1,70,2|2,0:0|0:0,0:0:0:0:
216,80,489680,6,0,P|264:60|336:100,1,140,2|2,0:0|0:0,0:0:0:0:
284,244,490647,6,0,P|192:232|272:172,1,245,2|0,0:0|0:0,0:0:0:0:
