osu file format v14

[General]
AudioFilename: audio.mp3
AudioLeadIn: 0
PreviewTime: 53235
Countdown: 0
SampleSet: Soft
StackLeniency: 0.5
Mode: 0
LetterboxInBreaks: 0
WidescreenStoryboard: 0

[Editor]
Bookmarks: 5443,53378,68987,88499,115817,131426,147036,162646,182158,201670,217280,225085,232890,264109,265573,302808,310938,346060,377280
DistanceSpacing: 1.7
BeatDivisor: 3
GridSize: 4
TimelineZoom: 2.550004

[Metadata]
Title:EXEC_over.METHOD_SUBLIMATION/.~omness chs ciel sos infel
TitleUnicode:EXEC_over.METHOD_SUBLIMATION/.~omness chs ciel sos infel
Artist:Shikata Akiko
ArtistUnicode:志方あきこ
Creator:Shurelia
Version:Infel Phira
Source:アルトネリコ2 ~世界に響く少女たちの創造詩~
Tags:Mir Ar Tonelico II Sekai ni Hibiku Shoujo-tachi no Metafalica Melody of Cloche Leythal Pastalia Hymn Visual Novel Gust NIS RPG Daisuke Achiwa best game
BeatmapID:1267204
BeatmapSetID:599613

[Difficulty]
HPDrainRate:6
CircleSize:4
OverallDifficulty:7.5
ApproachRate:8.7
SliderMultiplier:1.6
SliderTickRate:1

[Events]
//Background and Video events
0,0,"2010-10-24-337602.jpg",0,0
//Break Periods
2,225166,232326
//Storyboard Layer 0 (Background)
//Storyboard Layer 1 (Fail)
//Storyboard Layer 2 (Pass)
//Storyboard Layer 3 (Foreground)
//Storyboard Sound Samples

[TimingPoints]
724,600,4,2,1,15,1,0
5524,-100,4,2,1,15,0,0
5824,-142.857142857143,4,2,1,15,0,0
15724,-100,4,2,1,15,0,0
16024,-142.857142857143,4,2,1,15,0,0
41524,-125,4,2,1,17,0,0
43924,-111.111111111111,4,2,1,19,0,0
47524,581,4,2,1,23,1,0
48106,547,4,2,1,25,1,0
48654,600,4,2,1,27,1,0
48654,-95.2380952380952,4,2,1,27,0,0
49854,-100,4,2,1,27,0,0
51054,595.10487804878,4,2,1,30,1,0
51647,651.10487804878,4,2,1,32,1,0
52302,627.50487804878,4,2,1,43,1,0
52931,609.80487804878,4,2,1,45,1,0
53459,487.80487804878,4,2,1,50,1,1
68580,-100,4,2,1,50,0,0
69068,-100,4,2,1,50,0,1
84190,-100,4,2,1,50,0,0
84678,-133.333333333333,4,2,1,50,0,1
92483,-125,4,2,1,30,0,0
131507,-111.111111111111,4,2,1,35,0,0
147117,-90.9090909090909,4,2,1,50,0,1
162239,-90.9090909090909,4,2,1,50,0,0
162727,-90.9090909090909,4,2,1,50,0,1
177849,-90.9090909090909,4,2,1,50,0,0
178337,-90.9090909090909,4,2,1,50,0,1
180166,-90.9090909090909,4,2,1,50,0,0
180288,-90.9090909090909,4,2,1,50,0,1
182239,-100,4,2,1,30,0,0
186141,-111.111111111111,4,2,1,35,0,0
191995,-90.9090909090909,4,2,1,35,0,0
192483,-111.111111111111,4,2,1,35,0,0
199800,-90.9090909090908,4,2,1,35,0,0
200288,-111.111111111111,4,2,1,35,0,0
201751,-100,4,2,1,40,0,0
217361,-111.111111111111,4,2,1,35,0,0
223215,-90.9090909090909,4,2,1,35,0,0
225166,-100,4,2,1,25,0,0
232971,-125,4,2,1,28,0,0
240776,-125,4,2,1,30,0,0
248580,-111.111111111111,4,2,1,25,0,0
264190,-100,4,2,1,28,0,0
275898,-100,4,2,1,32,0,0
278824,444.444444444444,4,2,1,32,1,0
279120,348.837209302326,4,2,1,32,1,0
279352,476.190476190476,4,2,1,32,1,0
279669,779.220779220779,4,2,1,32,1,0
279798,487.80487804878,4,2,1,50,1,1
279798,-83.3333333333333,4,2,1,50,0,1
287603,-83.3333333333333,4,2,1,53,0,1
295245,-83.3333333333333,4,2,1,53,0,0
295407,-76.9230769230769,4,2,1,53,0,1
310854,-83.3333333333333,4,2,1,53,0,0
311017,-83.3333333333333,4,2,1,55,0,1
326505,-83.3333333333333,4,2,1,55,0,0
326627,-83.3333333333333,4,2,1,55,0,1
342115,-83.3333333333333,4,2,1,55,0,0
342237,-83.3333333333333,4,2,1,55,0,1
344066,-83.3333333333333,4,2,1,55,0,0
344188,-83.3333333333333,4,2,1,55,0,1
346139,-166.666666666667,4,2,1,30,0,0
377359,-300,4,2,1,15,0,0
381261,-250,4,2,1,15,0,0
383213,-100,4,2,1,25,0,0
389066,-100,4,2,1,15,0,0

[Colours]
Combo1 : 192,192,192
Combo2 : 0,102,0
Combo3 : 237,208,3
Combo4 : 255,128,128

[HitObjects]
308,260,5524,6,0,P|312:299|308:339,1,80,2|0,0:2|0:2,0:2:0:0:
208,300,6124,1,0,0:2:0:0:
224,196,6424,1,0,0:2:0:0:
180,100,6724,2,0,B|254:67|306:131|306:131|370:123|370:123|410:183|483:168,1,335.999989746094,2|0,0:2|0:2,0:2:0:0:
290,301,9124,5,0,0:2:0:0:
180,100,9724,1,0,0:2:0:0:
78,276,10324,6,0,B|168:264|200:324|200:324|248:296|248:296|284:336|328:332|328:332|300:324|285:309,1,335.999989746094,2|0,0:2|0:2,0:2:0:0:
143,158,12724,2,0,B|121:125|73:109|73:109|153:113|185:61|185:61|212:120|282:119,1,335.999989746094,2|0,0:2|0:2,0:2:0:0:
508,124,15124,5,2,0:2:0:0:
404,84,15424,1,0,0:2:0:0:
424,192,15724,2,0,P|427:231|424:271,1,80,0|0,0:2|0:2,0:2:0:0:
304,308,16324,2,0,B|228:356|160:300|160:300|88:328|32:292|32:292|52:312|56:332,1,335.999989746094,2|0,0:2|0:2,0:2:0:0:
104,152,18724,5,0,0:2:0:0:
304,124,19324,1,0,0:2:0:0:
432,300,19924,6,0,B|433:219|433:219|497:155|464:90,1,223.999993164063,2|0,0:2|0:2,0:2:0:0:
304,124,21724,2,0,L|229:116,1,74.6666643880209,0|0,0:2|0:2,0:2:0:0:
180,36,22324,2,0,B|196:136|172:200|172:200|116:216,1,223.999993164063,2|0,0:2|0:2,0:2:0:0:
272,348,24124,2,0,L|262:364,5,18.6666660970052,0|0|0|0|0|0,0:2|0:2|0:2|0:2|0:2|0:2,0:2:0:0:
351,348,24724,6,0,B|428:304|440:212|440:212|348:252|278:211,1,335.999989746094,2|0,0:2|0:2,0:2:0:0:
72,256,27124,2,0,P|63:221|70:184,1,74.6666643880209,2|0,0:2|0:2,0:2:0:0:
160,144,27723,2,0,P|168:180|160:216,1,74.6666643880209,2|0,0:2|0:2,0:2:0:0:
80,96,28323,5,2,0:2:0:0:
212,44,28723,1,2,0:2:0:0:
316,140,29123,1,2,0:2:0:0:
452,48,29524,6,0,L|443:237,1,186.666660970052,2|0,0:2|0:2,0:2:0:0:
376,312,30724,5,2,0:2:0:0:
314,192,31124,1,2,0:2:0:0:
188,144,31524,1,2,0:2:0:0:
92,312,31924,6,0,P|146:324|200:311,1,111.999996582031,2|0,0:2|0:2,0:2:0:0:
420,312,33124,2,0,P|365:324|311:311,1,111.999996582031,0|0,0:2|0:2,0:2:0:0:
476,132,34324,6,0,B|420:140|368:120|368:120|320:144|256:124,1,223.999993164063,2|0,0:2|0:2,0:2:0:0:
136,124,36124,2,0,L|121:112,5,18.6666660970052
195,167,36724,6,0,P|199:205|193:241,1,74.6666643880209,2|0,0:2|0:2,0:2:0:0:
136,288,37324,2,0,L|248:288,1,111.999996582031,2|0,0:2|0:2,0:2:0:0:
396,276,38324,5,2,0:2:0:0:
304,160,38724,1,2,0:2:0:0:
476,344,39124,6,0,P|483:289|483:233,1,111.999996582031,2|0,0:2|0:2,0:2:0:0:
340,76,40324,2,0,P|316:165|331:256,1,186.666660970052,0|0,0:2|0:2,0:2:0:0:
210,335,41524,6,0,B|156:296|88:340|88:340|96:272|32:237,1,256,2|0,0:2|0:2,0:2:0:0:
260,60,43924,6,0,L|403:71,1,143.999995605469,2|0,0:2|0:2,0:2:0:0:
220,216,45124,2,0,L|124:228,1,95.9999970703126,2|0,0:2|0:2,0:2:0:0:
232,324,45724,2,0,L|326:339,1,95.9999970703126,2|0,0:2|0:2,0:2:0:0:
128,320,46324,2,0,B|28:312|28:196|28:196|28:135,1,239.999992675781,2|0,0:2|0:2,0:2:0:0:
52,40,47524,6,0,L|158:40,1,106.666666666667,2|0,0:2|0:2,0:2:0:0:
228,160,48106,2,0,L|121:160,1,106.666666666667,2|0,0:2|0:2,0:2:0:0:
272,48,48654,6,0,P|332:104|344:185,1,167.999994873047,2|0,0:2|0:2,0:2:0:0:
87,319,49854,2,0,P|139:332|189:316,1,106.666666666667,2|0,0:2|0:2,0:2:0:0:
36,252,50454,2,0,P|86:236|137:248,1,106.666666666667,2|0,0:2|0:2,0:2:0:0:
12,171,51054,2,0,P|88:151|164:170,1,159.5,2|0,0:2|0:2,0:2:0:0:
376,240,52302,6,0,P|399:165|371:92,1,160,2|0,0:0|0:0,0:0:0:0:
122,40,53459,6,0,P|113:91|127:142,1,106.666666666667,2|0,3:2|0:2,0:2:0:0:
168,244,53946,2,0,P|150:263|139:288,2,53.3333333333333,0|0|8,0:2|0:2|0:2,0:2:0:0:
276,227,54434,2,0,P|329:218|379:234,1,106.666666666667,8|0,0:2|0:2,0:2:0:0:
440,320,54922,2,0,P|473:278|478:225,1,106.666666666667,0|0,0:2|0:2,0:2:0:0:
388,132,55410,6,0,B|316:116|316:116|231:131,1,160,2|0,3:2|0:2,0:2:0:0:
156,192,56060,1,0,0:2:0:0:
80,132,56223,1,8,0:2:0:0:
48,292,56385,2,0,P|100:300|152:291,1,106.666666666667,10|0,0:2|0:2,0:2:0:0:
240,232,56873,2,0,P|292:223|344:232,1,106.666666666667,2|0,0:2|0:2,0:2:0:0:
444,308,57361,6,0,B|454:332|490:360|490:360|436:352|402:361,1,160,2|0,3:2|0:2,0:2:0:0:
212,364,58093,1,0,0:2:0:0:
180,340,58215,1,0,0:0:0:0:
160,304,58337,2,0,P|146:252|158:201,1,106.666666666667,10|0,0:2|0:2,0:2:0:0:
208,214,58824,2,0,P|172:252|160:304,1,106.666666666667,2|0,0:2|0:2,0:2:0:0:
299,248,59312,6,0,P|220:253|159:303,1,160,2|0,3:2|0:2,0:2:0:0:
240,356,59963,1,0,0:2:0:0:
332,336,60125,1,8,0:2:0:0:
396,264,60288,2,0,P|416:215|414:162,1,106.666666666667,10|0,3:2|0:2,0:2:0:0:
312,100,60776,2,0,L|206:83,1,106.666666666667,6|0,3:2|0:2,0:2:0:0:
60,164,61263,6,0,B|156:180|156:180|201:222,1,160,6|0,3:2|0:2,0:2:0:0:
300,320,61914,1,0,0:2:0:0:
204,320,62076,1,8,0:2:0:0:
308,220,62239,2,0,P|360:214|412:224,1,106.666666666667,10|0,0:2|0:2,0:2:0:0:
414,126,62727,2,0,P|362:119|309:125,1,106.666666666667,2|0,0:2|0:2,0:2:0:0:
512,56,63215,6,0,P|528:133|512:211,1,160,2|0,3:2|0:2,0:2:0:0:
476,304,63865,1,0,0:2:0:0:
416,226,64028,1,8,0:2:0:0:
400,360,64190,2,0,P|347:366|294:360,1,106.666666666667,10|0,0:2|0:2,0:2:0:0:
220,300,64678,2,0,P|167:293|114:300,1,106.666666666667,2|0,0:2|0:2,0:2:0:0:
312,260,65166,6,0,B|304:228|304:228|344:188|324:128|324:128|337:114,1,160,2|0,3:2|0:2,0:2:0:0:
252,164,65816,1,0,0:2:0:0:
336,114,65979,1,8,0:2:0:0:
187,96,66141,2,0,P|136:107|83:106,1,106.666666666667,10|0,0:2|0:2,0:2:0:0:
101,157,66629,2,0,P|148:132|187:96,1,106.666666666667,2|0,0:2|0:2,0:2:0:0:
88,278,67117,6,0,P|156:197|186:95,1,213.333333333333,2|0,3:2|0:2,0:2:0:0:
280,88,67930,1,8,0:2:0:0:
392,188,68093,2,0,P|400:136|391:83,1,106.666666666667,10|0,3:2|0:2,0:2:0:0:
284,192,68580,2,0,P|336:184|389:192,1,106.666666666667,4|0,3:2|0:2,0:2:0:0:
208,272,69068,6,0,P|169:203|189:128,1,160,6|0,3:2|0:2,0:2:0:0:
390,30,69881,1,8,0:2:0:0:
295,45,70044,2,0,P|246:52|181:25,1,106.666666666667,10|0,0:2|0:2,0:2:0:0:
109,72,70532,2,0,P|56:65|7:84,1,106.666666666667,0|0,0:2|0:2,0:2:0:0:
72,232,71019,6,0,L|71:130,1,53.3333333333333,2|0,3:2|0:2,0:2:0:0:
126,95,71345,1,0,0:2:0:0:
157,187,71507,2,0,L|224:179,2,53.3333333333333,0|0|8,0:2|0:2|0:2,0:2:0:0:
264,272,71995,2,0,P|303:232|312:159,1,106.666666666667,10|0,0:2|0:2,0:2:0:0:
203,5,72483,2,0,P|209:57|244:96,1,106.666666666667,2|0,0:2|0:2,0:2:0:0:
456,20,72971,6,0,L|278:23,1,160,2|0,3:2|0:2,0:2:0:0:
352,172,73702,1,0,0:2:0:0:
388,186,73824,1,0,0:2:0:0:
416,216,73946,2,0,P|422:279|391:322,1,106.666666666667,10|0,0:2|0:2,0:2:0:0:
231,249,74434,2,0,P|289:238|358:267,1,106.666666666667,2|0,0:2|0:2,0:2:0:0:
200,348,74922,6,0,L|70:349,1,106.666666666667,2|0,3:2|0:2,0:2:0:0:
37,276,75410,2,0,P|35:240|45:216,1,53.3333333333333,0|0,0:2|0:2,0:2:0:0:
66,135,75735,1,8,0:2:0:0:
237,216,75898,2,0,L|122:206,1,106.666666666667,10|0,0:2|0:2,0:2:0:0:
92,40,76385,2,0,P|141:67|164:137,1,106.666666666667,2|0,0:2|0:2,0:2:0:0:
228,360,76873,6,0,L|387:355,1,160,4|0,3:2|0:2,0:2:0:0:
395,140,77686,1,8,0:0:0:0:
320,194,77849,2,0,P|305:144|318:93,1,106.666666666667,10|0,0:2|0:2,0:2:0:0:
502,149,78337,2,0,L|383:140,1,106.666666666667,2|0,0:2|0:2,0:2:0:0:
265,16,78824,6,0,P|326:1|408:75,1,160,2|0,3:2|0:2,0:2:0:0:
98,117,79637,1,8,0:2:0:0:
140,200,79800,2,0,P|68:206|24:171,1,106.666666666667,10|0,0:2|0:2,0:2:0:0:
106,11,80288,2,0,L|98:125,1,106.666666666667,2|0,0:2|0:2,0:2:0:0:
151,359,80776,6,0,L|137:169,1,160,2|0,3:2|0:2,0:2:0:0:
346,14,81589,1,8,0:0:0:0:
316,104,81751,2,0,P|369:104|413:77,1,106.666666666667,10|0,0:2|0:2,0:2:0:0:
146,19,82239,2,0,P|198:18|243:46,1,106.666666666667,2|0,0:2|0:2,0:2:0:0:
314,263,82727,6,0,L|316:104,1,160,2|0,3:2|0:2,0:2:0:0:
152,144,83540,1,0,0:0:0:0:
56,216,83702,2,8,L|51:269,2,53.3333333333333
33,107,84190,2,8,L|28:53,2,53.3333333333333
245,48,84678,6,0,B|312:25|351:76|432:52|432:52|383:64|357:90|347:135|347:135|383:164|407:207|382:267,1,440.000016784669,6|0,3:2|0:2,0:2:0:0:
231,274,86629,6,0,B|92:275|92:275|177:248,1,200.000007629395,6|0,3:2|0:2,0:2:0:0:
272,192,87605,2,0,L|270:152,2,40.000001525879,0|0|0,0:2|0:2|0:2,0:2:0:0:
327,264,88093,2,0,L|325:303,2,40.000001525879,0|0|0,0:2|0:2|0:2,0:2:0:0:
201,90,88580,6,0,B|243:33|355:42|369:137|362:164|362:164|409:151|409:151|445:172|487:159,1,360.000013732911,6|0,3:2|0:2,0:2:0:0:
176,173,90532,6,0,B|127:156|118:119|118:119|87:103|87:103|102:136|102:136|91:168,1,160.000006103516,2|0,3:2|0:2,0:2:0:0:
95,229,91345,1,0,0:2:0:0:
147,302,91507,2,0,L|143:362,2,40.000001525879,0|0|0,0:2|0:2|0:2,0:2:0:0:
100,141,91995,1,0,0:2:0:0:
74,109,92158,1,0,0:2:0:0:
62,70,92320,1,0,0:2:0:0:
74,28,92483,6,0,P|134:7|193:26,1,128,6|0,3:2|0:2,0:2:0:0:
297,210,93458,2,0,P|237:231|178:212,1,128,2|0,0:2|0:2,0:2:0:0:
324,56,94434,1,0,0:2:0:0:
476,208,94922,1,0,0:2:0:0:
298,329,95410,2,0,P|279:269|295:208,1,128,2|0,0:2|0:2,0:2:0:0:
384,372,96141,1,0,0:2:0:0:
208,356,96385,6,0,P|146:340|84:353,2,128,2|0|0,0:2|0:2|0:2,0:2:0:0:
280,208,97686,2,0,P|291:248|283:290,1,85.3333333333333,0|2,0:2|0:2,0:2:0:0:
217,131,98337,6,0,P|278:115|338:134,1,128,2|0,0:2|0:2,0:2:0:0:
472,272,99312,2,0,L|475:314,2,42.6666666666667,2|0|0,0:2|0:2|0:2,0:2:0:0:
436,152,99800,5,2,0:2:0:0:
374,221,99963,1,0,0:2:0:0:
466,243,100125,1,0,0:2:0:0:
343,135,100288,6,0,P|281:123|218:133,1,128,2|0,0:2|0:2,0:2:0:0:
80,204,101263,2,0,P|64:142|77:80,1,128,2|0,0:2|0:2,0:2:0:0:
152,308,102239,2,0,B|200:276|244:304|244:304|288:288|288:288|340:320|393:289,1,256,2|0,0:2|0:2,0:2:0:0:
340,132,103702,1,0,0:2:0:0:
152,308,104190,6,0,P|135:246|142:183,1,128,2|0,0:2|0:2,0:2:0:0:
288,104,105166,2,0,P|304:165|297:228,1,128,2|0,0:2|0:2,0:2:0:0:
224,28,106141,2,0,B|284:4|352:32|352:32|400:52|472:16,1,256,2|0,0:2|0:2,0:2:0:0:
288,104,107605,1,0,0:2:0:0:
335,340,108093,6,0,P|277:363|216:348,1,128,2|0,0:2|0:2,0:2:0:0:
252,136,109068,2,0,L|266:263,1,128,2|0,0:2|0:2,0:2:0:0:
210,35,110044,2,0,P|174:56|149:90,1,85.3333333333333,2|2,0:2|0:2,0:2:0:0:
220,264,110694,1,2,0:2:0:0:
131,207,111019,2,0,P|69:196|8:211,1,128,2|0,0:2|0:2,0:2:0:0:
260,136,111995,6,0,P|322:147|384:133,1,128,2|0,0:2|0:2,0:2:0:0:
192,192,112971,2,0,P|172:154|172:112,1,85.3333333333333,2|2,0:0|0:0,0:0:0:0:
305,350,113784,1,2,0:2:0:0:
305,350,113946,2,0,P|366:365|427:349,1,128,2|0,0:2|0:2,0:2:0:0:
216,384,114922,5,2,0:2:0:0:
120,300,115247,1,2,0:2:0:0:
164,160,115572,1,2,0:2:0:0:
236,287,115898,6,0,L|352:289,1,85.3333333333333,2|0,0:2|0:2,0:2:0:0:
411,199,116385,2,0,L|295:201,1,85.3333333333333,0|0,0:2|0:2,0:2:0:0:
239,58,116873,2,0,P|206:111|219:160,1,85.3333333333333,2|0,0:2|0:2,0:2:0:0:
311,205,117361,2,0,L|396:203,1,85.3333333333333,0|0,0:2|0:2,0:2:0:0:
508,105,117849,6,0,L|363:100,1,128,2|0,0:2|0:2,0:2:0:0:
132,199,118824,2,0,P|87:175|70:126,1,85.3333333333333,2|0,0:2|0:2,0:2:0:0:
216,234,119312,2,0,P|194:270|155:287,1,85.3333333333333,0|0,0:2|0:2,0:2:0:0:
209,147,119800,6,0,L|319:144,1,85.3333333333333,2|0,0:2|0:2,0:2:0:0:
431,222,120288,2,0,L|321:219,1,85.3333333333333,0|0,0:2|0:2,0:2:0:0:
315,69,120776,2,0,P|360:95|365:162,1,85.3333333333333,2|0,0:2|0:2,0:2:0:0:
324,297,121263,2,0,P|279:271|274:204,1,85.3333333333333,0|0,0:2|0:2,0:2:0:0:
184,26,121751,6,0,B|213:78|202:132|167:122|156:171|186:250,1,213.333333333333,2|0,0:2|0:2,0:2:0:0:
20,296,122727,2,0,P|77:255|123:261,1,85.3333333333333,2|0,0:2|0:2,0:2:0:0:
232,361,123215,2,0,P|191:349|162:318,1,85.3333333333333,0|0,0:2|0:2,0:2:0:0:
34,159,123702,6,0,B|93:135|96:181|156:152|156:152|208:177|275:141,1,213.333333333333,2|0,0:2|0:2,0:2:0:0:
282,0,124678,2,0,P|236:17|248:160,1,213.333333333333,2|0,0:2|0:2,0:2:0:0:
360,123,125654,6,0,P|330:92|279:87,2,85.3333333333333,2|2|2,0:2|0:2|0:2,0:2:0:0:
322,197,126629,2,0,P|371:159|495:227,1,213.333333333333,2|0,0:2|0:2,0:2:0:0:
402,245,127605,6,0,B|339:221|291:227|312:263|254:268|184:240,1,213.333333333333,2|0,0:2|0:2,0:2:0:0:
126,183,128580,2,0,P|119:129|154:76,1,85.3333333333333,2|0,0:2|0:2,0:2:0:0:
214,0,129068,2,0,P|226:40|217:81,1,85.3333333333333,0|0,0:2|0:2,0:2:0:0:
129,101,129556,6,0,P|173:84|264:199,1,213.333333333333,2|0,0:2|0:2,0:2:0:0:
183,169,130532,1,2,0:2:0:0:
173,182,131019,1,0,0:2:0:0:
412,269,131507,6,0,B|353:258|353:258|311:270|311:270|271:247|228:235|160:280,1,239.999992675781,2|0,0:2|0:2,0:2:0:0:
154,364,132483,2,0,P|198:367|253:336,1,95.9999970703126,2|0,0:2|0:2,0:2:0:0:
90,296,132971,2,0,P|47:275|-1:277,1,95.9999970703126,0|0,0:2|0:2,0:2:0:0:
27,153,133458,6,0,B|75:142|75:142|193:142|193:142|152:147|127:193,1,239.999992675781,2|0,0:2|0:2,0:2:0:0:
205,223,134434,2,0,P|273:137|196:59,1,239.999992675781,2|0,0:2|0:2,0:2:0:0:
193,142,135410,6,0,B|215:177|211:239|162:221|170:275|195:331|195:331|196:302|235:269,1,239.999992675781,2|0,0:2|0:2,0:2:0:0:
284,239,136385,2,0,P|343:231|384:244,1,95.9999970703126,2|0,0:2|0:2,0:2:0:0:
398,252,136792,1,0,0:2:0:0:
415,268,136873,2,0,P|474:276|515:263,1,95.9999970703126,0|0,0:2|0:2,0:2:0:0:
445,44,137361,6,0,L|460:205,2,143.999995605469,2|2|2,0:2|0:2|0:2,0:2:0:0:
223,51,138824,1,2,0:0:0:0:
226,143,139068,1,2,0:0:0:0:
144,3,139312,6,0,P|201:48|116:169,1,239.999992675781,2|0,0:2|0:2,0:2:0:0:
27,92,140288,2,0,L|144:86,1,95.9999970703126,2|0,0:2|0:2,0:2:0:0:
227,174,140776,2,0,L|110:168,1,95.9999970703126,0|0,0:2|0:2,0:2:0:0:
227,344,141263,6,0,P|275:317|207:172,1,239.999992675781,2|0,0:2|0:2,0:2:0:0:
123,279,142239,2,0,P|181:277|224:249,1,95.9999970703126,2|0,0:2|0:2,0:2:0:0:
145,187,142727,2,0,P|87:185|44:157,1,95.9999970703126,0|0,0:2|0:2,0:2:0:0:
129,42,143215,6,0,B|181:26|229:51|229:51|272:35|272:35|305:52|391:49,1,239.999992675781,2|0,0:2|0:2,0:2:0:0:
440,128,144190,2,0,P|431:184|368:229,1,95.9999970703126,2|0,0:2|0:2,0:2:0:0:
311,265,144678,2,0,L|196:267,1,95.9999970703126
110,216,145166,6,0,P|98:171|113:126,1,95.9999970703126,2|0,0:0|0:0,0:0:0:0:
192,32,145654,2,0,L|73:30,1,95.9999970703126,0|0,0:2|0:2,0:2:0:0:
18,128,146141,2,0,L|137:126,1,95.9999970703126,2|0,0:2|0:2,0:2:0:0:
204,159,146629,2,0,L|260:155,1,47.9999985351563
350,146,146954,1,0,0:0:0:0:
364,296,147117,6,0,B|323:312|312:360|312:360|260:340|220:359,1,176.000005371094,6|8,3:2|0:2,0:2:0:0:
84,272,147767,1,8,0:2:0:0:
48,352,147930,1,8,0:2:0:0:
172,280,148093,2,0,B|212:176|212:176|244:184|275:169,1,176.000005371094,10|8,0:2|0:2,0:2:0:0:
432,196,148743,1,8,0:2:0:0:
340,240,148906,1,8,0:2:0:0:
228,84,149068,6,0,B|166:70|136:124|136:124|105:109|68:124,1,176.000005371094,10|8,3:2|0:2,0:2:0:0:
64,288,149719,1,8,0:2:0:0:
100,208,149881,1,8,0:2:0:0:
120,356,150044,2,0,P|148:360|178:356,1,58.6666684570313,10|0,0:2|0:2,0:2:0:0:
264,356,150369,1,0,0:2:0:0:
408,356,150532,2,0,P|379:350|350:355,1,58.6666684570313,10|8,0:2|0:2,0:2:0:0:
264,356,150857,1,8,0:2:0:0:
268,204,151019,6,0,B|275:69|275:69|288:88|302:99,1,176.000005371094,2|8,3:2|0:2,0:2:0:0:
424,232,151751,1,0,0:2:0:0:
392,204,151873,1,0,0:2:0:0:
360,176,151995,2,0,L|356:293,1,117.333336914063,10|0,0:2|0:2,0:2:0:0:
297,275,152483,2,0,L|359:176,1,117.333336914063,10|8,0:2|0:2,0:2:0:0:
217,279,152971,6,0,L|360:176,1,176.000005371094,10|8,3:2|0:2,0:2:0:0:
364,88,153621,1,8,0:2:0:0:
288,40,153784,1,8,0:2:0:0:
172,200,153946,2,8,L|183:142,1,58.6666684570313,10|0,3:2|0:2,0:2:0:0:
200,56,154272,1,0,0:2:0:0:
84,184,154434,2,0,L|95:126,1,58.6666684570313,14|8,3:2|0:2,0:2:0:0:
112,40,154759,1,8,0:2:0:0:
272,116,154922,6,0,B|340:144|396:116|396:116|396:163,1,176.000005371094,6|0,3:2|0:2,0:2:0:0:
392,324,155572,1,8,0:2:0:0:
356,244,155735,1,8,0:2:0:0:
316,368,155898,2,0,B|268:328|204:392|146:357,1,176.000005371094,10|8,0:2|0:2,0:2:0:0:
24,268,156548,1,8,0:2:0:0:
20,356,156711,1,8,0:2:0:0:
100,204,156873,6,0,B|116:140|116:140|112:100|136:68|136:68|102:68,1,176.000005371094,10|8,3:2|0:2,0:2:0:0:
204,128,157524,1,8,0:2:0:0:
268,68,157686,1,8,0:2:0:0:
184,220,157849,2,0,L|168:276,1,58.6666684570313,10|0,0:2|0:2,0:2:0:0:
272,192,158174,1,0,0:2:0:0:
360,76,158337,2,0,L|344:132,1,58.6666684570313,10|8,0:2|0:2,0:2:0:0:
376,216,158662,1,8,0:2:0:0:
276,340,158824,6,0,B|188:348|188:348|100:340,1,176.000005371094,14|8,3:2|0:2,0:2:0:0:
76,196,159475,1,8,0:2:0:0:
40,276,159637,1,8,0:2:0:0:
159,195,159800,2,0,P|216:208|273:195,1,117.333336914063,10|0,0:2|0:2,0:2:0:0:
257,138,160288,2,0,P|214:177|159:195,1,117.333336914063,10|8,0:2|0:2,0:2:0:0:
218,38,160776,6,0,P|211:124|160:195,1,176.000005371094,10|8,3:2|0:2,0:2:0:0:
36,120,161426,1,8,0:2:0:0:
56,228,161589,1,8,0:2:0:0:
0,352,161751,2,0,P|-6:323|-6:294,1,58.6666684570313,10|0,3:2|0:2,0:2:0:0:
36,120,162076,1,0,0:2:0:0:
299,75,162239,2,0,P|312:133|300:190,1,117.333336914063,14|8,3:2|0:2,0:2:0:0:
92,304,162727,6,0,P|80:246|93:190,1,117.333336914063,14|0,3:2|0:2,0:2:0:0:
166,124,163215,1,8,0:2:0:0:
187,211,163377,1,8,0:2:0:0:
162,98,163540,1,8,0:2:0:0:
254,141,163702,2,0,P|335:145|372:118,1,117.333336914063,10|0,0:2|0:2,0:2:0:0:
409,24,164190,2,0,P|352:13|299:37,1,117.333336914063,10|8,0:2|0:2,0:2:0:0:
188,45,164678,6,0,B|139:61|81:52|116:24|58:15|-13:48,1,176.000005371094,10|0,3:2|0:2,0:2:0:0:
68,298,165491,1,8,0:2:0:0:
106,222,165654,2,0,P|36:216|-8:254,1,117.333336914063,10|0,0:2|0:2,0:2:0:0:
153,328,166141,2,0,P|223:334|267:296,1,117.333336914063,10|8,0:2|0:2,0:2:0:0:
470,223,166629,6,0,L|269:219,1,176.000005371094,10|0,3:2|0:2,0:2:0:0:
240,103,167361,1,0,0:2:0:0:
272,104,167483,1,0,0:2:0:0:
303,115,167605,2,0,P|317:187|272:230,1,117.333336914063,10|0,0:2|0:2,0:2:0:0:
162,162,168093,1,10,0:2:0:0:
203,274,168255,1,8,0:2:0:0:
125,242,168418,1,8,0:2:0:0:
158,351,168580,6,0,B|205:371|248:364|241:337|289:328|350:353,1,176.000005371094,8|0,3:2|0:2,0:2:0:0:
394,113,169393,1,8,0:2:0:0:
342,193,169556,2,0,P|415:207|470:170,1,117.333336914063,10|0,3:2|0:2,0:2:0:0:
295,111,170044,2,0,P|240:91|185:107,1,117.333336914063,14|8,3:2|0:2,0:2:0:0:
22,246,170532,6,0,L|228:245,1,176.000005371094,14|0,3:2|0:2,0:2:0:0:
415,268,171345,1,8,0:2:0:0:
356,339,171507,2,0,P|281:335|242:303,1,117.333336914063,10|0,0:2|0:2,0:2:0:0:
331,132,171995,2,0,L|319:257,1,117.333336914063,10|8,0:2|0:2,0:2:0:0:
99,63,172483,6,0,P|170:38|262:104,1,176.000005371094,10|0,3:2|0:2,0:2:0:0:
72,311,173296,1,8,0:2:0:0:
108,229,173458,2,0,P|156:275|157:343,1,117.333336914063,10|0,0:2|0:2,0:2:0:0:
244,384,173946,2,0,P|254:327|298:289,1,117.333336914063,10|8,0:2|0:2,0:2:0:0:
511,364,174434,6,0,L|310:369,1,176.000005371094,10|0,3:2|0:2,0:2:0:0:
378,104,175247,1,8,0:2:0:0:
437,172,175410,2,0,P|464:227|445:285,1,117.333336914063,10|0,0:2|0:2,0:2:0:0:
270,298,175898,2,0,P|299:248|354:231,1,117.333336914063,10|8,0:2|0:2,0:2:0:0:
202,372,176385,6,0,L|1:377,1,176.000005371094,14|0,3:2|0:2,0:2:0:0:
154,125,177198,1,0,0:2:0:0:
140,225,177361,6,8,L|133:301,2,58.6666684570313
236,69,177849,1,8,0:0:0:0:
236,182,178011,1,8,0:0:0:0:
323,134,178174,1,8,0:0:0:0:
252,320,178337,6,0,P|333:322|391:265,1,117.333336914063,14|0,3:2|0:2,0:2:0:0:
490,176,178824,1,8,0:0:0:0:
384,216,178987,1,8,0:0:0:0:
406,123,179150,1,8,0:0:0:0:
457,282,179312,1,8,0:2:0:0:
132,157,179800,2,8,L|128:216,2,58.6666684570313,8|8|8,0:2|0:2|0:2,0:2:0:0:
79,309,180288,6,0,L|239:289,1,117.333336914063,14|0,3:2|0:2,0:2:0:0:
337,150,180776,1,8,0:0:0:0:
253,203,180938,1,8,0:0:0:0:
245,103,181101,1,8,0:0:0:0:
305,267,181263,2,8,L|300:325,2,58.6666684570313,8|8|8,0:2|0:2|0:2,0:2:0:0:
337,150,181751,1,8,0:2:0:0:
407,127,181914,1,8,0:2:0:0:
478,146,182076,1,8,0:2:0:0:
410,233,182239,6,0,L|405:93,1,106.666666666667,14|0,3:2|0:2,0:2:0:0:
354,61,182727,2,8,P|376:47|423:43,2,53.3333333333333,8|8|8,0:2|0:2|0:2,0:2:0:0:
291,117,183215,1,8,0:2:0:0:
78,128,183540,1,0,0:2:0:0:
157,217,183702,1,8,0:2:0:0:
163,132,183865,1,8,0:2:0:0:
71,214,184028,1,8,0:2:0:0:
206,293,184190,6,0,P|243:247|240:182,1,106.666666666667,10|0,3:2|0:2,0:2:0:0:
163,132,184678,1,8,0:2:0:0:
248,117,184841,2,0,P|303:136|321:158,1,53.3333333333333,8|0,0:2|0:2,0:2:0:0:
343,208,185166,2,0,P|366:196|393:192,1,53.3333333333333,8|0,0:2|0:2,0:2:0:0:
512,160,185491,1,0,0:2:0:0:
439,265,185654,1,8,0:2:0:0:
432,120,185816,1,8,0:2:0:0:
393,192,185979,1,8,0:2:0:0:
231,50,186141,5,14,3:2:0:0:
231,71,187605,1,0,0:2:0:0:
67,295,188093,6,0,P|39:231|60:163,1,143.999995605469,2|0,0:2|0:2,0:2:0:0:
120,72,188824,1,0,0:2:0:0:
291,122,189068,2,0,P|255:123|220:119,1,71.9999978027344,0|0,0:2|0:2,0:2:0:0:
158,301,189556,2,0,P|212:305|266:302,1,107.999996704102,0|0,0:2|0:2,0:2:0:0:
288,160,190044,6,0,L|266:302,1,143.999995605469,6|0,3:2|0:2,0:2:0:0:
367,111,191019,2,0,P|307:67|236:80,1,143.999995605469,0|0,0:2|0:2,0:2:0:0:
164,152,191751,1,0,0:2:0:0:
408,212,191995,2,0,P|345:220|305:270,1,132.00000402832,0|0,0:2|0:2,0:2:0:0:
304,144,192483,6,0,L|318:37,1,107.999996704102,2|0,0:2|0:2,0:2:0:0:
219,140,192971,2,0,P|166:148|115:132,1,107.999996704102,2|0,0:2|0:2,0:2:0:0:
36,124,193458,2,0,L|51:18,1,107.999996704102,2|0,0:2|0:2,0:2:0:0:
67,195,193946,6,0,P|99:210|135:215,1,71.9999978027344,6|0,3:2|0:2,0:2:0:0:
172,64,194434,1,0,0:2:0:0:
67,195,194678,2,0,P|37:213|2:222,1,71.9999978027344,0|0,0:2|0:2,0:2:0:0:
2,223,195410,2,0,P|-10:171|4:120,1,107.999996704102
256,40,195898,6,0,P|271:90|257:141,1,107.999996704102,2|0,0:2|0:2,0:2:0:0:
96,192,196385,2,0,P|146:176|197:190,1,107.999996704102,2|0,0:2|0:2,0:2:0:0:
256,343,196873,2,0,P|241:292|255:241,1,107.999996704102,2|0,0:2|0:2,0:2:0:0:
416,191,197361,2,0,P|365:207|313:193,1,107.999996704102,2|0,0:2|0:2,0:2:0:0:
256,343,197849,6,0,P|222:354|186:352,1,71.9999978027344,6|0,3:2|0:2,0:2:0:0:
70,321,198337,2,0,P|53:270|67:219,1,107.999996704102,0|0,0:2|0:2,0:2:0:0:
140,176,198824,2,0,B|212:180|212:180|284:176,1,143.999995605469,0|0,0:2|0:2,0:2:0:0:
68,8,199800,6,0,B|68:44|68:44|72:60|72:60|68:76|68:76|72:92|72:92|68:104|68:104|68:137,1,132.00000402832,2|0,0:2|0:2,0:2:0:0:
212,284,200288,2,0,P|198:232|213:181,1,107.999996704102,0|0,0:2|0:2,0:2:0:0:
380,232,200776,2,0,P|330:247|279:233,1,107.999996704102,2|0,0:2|0:2,0:2:0:0:
443,179,201263,2,0,P|459:231|445:282,1,107.999996704102,2|0,0:2|0:2,0:2:0:0:
404,112,201751,6,0,P|387:55|410:1,1,120,6|0,3:2|0:2,0:2:0:0:
488,60,202239,1,0,0:2:0:0:
356,208,202483,1,0,0:2:0:0:
404,112,202727,1,2,0:2:0:0:
440,280,202971,1,0,0:2:0:0:
248,144,203215,1,2,0:2:0:0:
288,312,203458,1,0,0:2:0:0:
306,62,203702,6,0,P|249:48|191:61,1,120,6|0,3:2|0:2,0:2:0:0:
132,0,204190,2,0,L|132:120,1,120,0|0,0:2|0:2,0:2:0:0:
192,208,204678,1,2,0:2:0:0:
232,80,204922,1,0,0:2:0:0:
236,244,205166,1,2,0:2:0:0:
256,160,205410,1,0,0:2:0:0:
169,289,205654,6,0,P|111:304|54:289,1,120,6|0,3:2|0:2,0:2:0:0:
28,212,206141,1,0,0:2:0:0:
169,289,206385,1,0,0:2:0:0:
92,104,206629,1,2,0:2:0:0:
169,210,206873,1,0,0:2:0:0:
276,91,207117,1,2,0:2:0:0:
380,212,207361,1,0,0:2:0:0:
168,288,207605,6,0,P|160:250|169:211,1,80,6|0,3:2|0:2,0:2:0:0:
276,90,208093,2,0,P|331:71|387:91,1,120,0|0,0:2|0:2,0:2:0:0:
328,232,208580,2,0,L|332:152,1,80,2|0,0:2|0:2,0:2:0:0:
200,60,209068,1,2,0:2:0:0:
328,232,209312,1,0,0:2:0:0:
119,311,209556,6,0,P|104:254|119:197,1,120,6|0,3:2|0:2,0:2:0:0:
176,140,210044,1,2,0:2:0:0:
119,311,210288,1,0,0:2:0:0:
192,220,210532,1,2,0:2:0:0:
119,311,210776,1,0,0:2:0:0:
204,300,211019,1,2,0:2:0:0:
119,311,211263,1,0,0:2:0:0:
320,315,211507,6,0,P|328:277|321:237,1,80,6|0,3:2|0:2,0:2:0:0:
190,137,211995,2,0,P|183:177|192:216,1,80,0|0,0:2|0:2,0:2:0:0:
320,315,212483,2,0,L|440:315,1,120,2|0,0:2|0:2,0:2:0:0:
488,247,212971,2,0,P|496:188|484:130,1,120,2|0,0:2|0:2,0:2:0:0:
404,244,213458,6,0,L|244:244,1,160,6|0,3:2|0:2,0:2:0:0:
60,108,214434,2,0,L|220:108,1,160,0|0,0:2|0:2,0:2:0:0:
380,212,215410,6,0,L|220:212,1,160,6|0,3:2|0:2,0:2:0:0:
28,376,216385,1,0,0:2:0:0:
264,336,216873,1,0,0:2:0:0:
64,120,217361,6,0,B|128:88|128:88|184:114|225:89|225:89|306:126,1,251.999992309571,6|0,3:2|0:2,0:2:0:0:
343,41,218337,2,0,B|340:172|340:172|340:212|340:212|368:232|371:243,1,215.999993408203,0|0,0:2|0:2,0:2:0:0:
208,336,219312,6,0,L|100:328,1,107.999996704102,2|0,0:2|0:2,0:2:0:0:
248,312,219800,2,0,L|140:304,1,107.999996704102,0|0,0:2|0:2,0:2:0:0:
288,288,220288,2,0,L|180:280,1,107.999996704102,0|0,0:2|0:2,0:2:0:0:
328,264,220776,2,0,L|220:256,1,107.999996704102,0|0,0:2|0:2,0:2:0:0:
100,176,221263,6,0,B|208:184|208:184|264:140|264:140|336:147,1,251.999992309571,6|0,3:2|0:2,0:2:0:0:
352,68,222239,2,0,B|240:60|240:60|179:101|179:101|112:96,1,251.999992309571,0|0,0:2|0:2,0:2:0:0:
92,256,223215,6,0,L|443:275,1,352.000010742188
416,48,232971,6,0,P|428:112|413:174,1,128,2|0,0:2|0:2,0:2:0:0:
305,232,233946,2,0,P|291:170|304:108,1,128,0|0,0:2|0:2,0:2:0:0:
428,276,234922,2,0,B|388:264|356:276|356:276|328:272|328:272|308:280|308:280|284:272|284:272|252:276|252:276|220:260|178:273,1,256,2|0,0:2|0:2,0:2:0:0:
108,368,236385,1,0,0:2:0:0:
108,176,236873,6,0,P|108:113|135:55,1,128,2|0,0:2|0:2,0:2:0:0:
206,154,237849,2,0,P|205:218|180:276,1,128,0|0,0:2|0:2,0:2:0:0:
304,71,238824,2,0,P|367:63|429:78,1,128,2|0,0:2|0:2,0:2:0:0:
432,264,239800,1,0,0:2:0:0:
304,72,240288,1,0,0:2:0:0:
139,303,240776,6,0,P|105:251|96:188,1,128,2|0,0:2|0:2,0:2:0:0:
264,28,241751,2,0,P|298:80|307:143,1,128,2|0,0:2|0:2,0:2:0:0:
284,336,242727,1,2,0:2:0:0:
352,268,243052,2,0,P|316:245|274:242,1,85.3333333333333,2|2,0:2|0:2,0:2:0:0:
388,363,243702,2,0,P|440:328|457:260,1,128,2|0,0:2|0:2,0:2:0:0:
283,335,244678,6,0,P|222:319|160:333,1,128,2|0,0:2|0:2,0:2:0:0:
80,160,245654,1,2,0:2:0:0:
164,208,245979,2,0,B|208:224|247:209,1,85.3333333333333,2|2,0:2|0:2,0:2:0:0:
80,119,246629,6,0,P|142:108|205:119,1,128,2|0,0:2|0:2,0:2:0:0:
372,216,247605,1,0,0:2:0:0:
344,76,247930,1,0,0:2:0:0:
268,200,248255,1,0,0:2:0:0:
472,151,248580,6,0,P|483:81|466:12,1,143.999995605469,2|0,0:2|0:2,0:2:0:0:
372,216,249556,2,0,P|360:145|377:76,1,143.999995605469,0|0,0:2|0:2,0:2:0:0:
510,251,250532,6,0,B|444:216|378:248|378:248|304:288|233:249,1,287.999991210938,2|0,0:2|0:2,0:2:0:0:
180,80,251995,1,0,0:2:0:0:
72,212,252483,6,0,L|52:354,1,143.999995605469,0|0,0:2|0:2,0:2:0:0:
164,176,253458,2,0,L|144:318,1,143.999995605469,0|0,0:2|0:2,0:2:0:0:
256,88,254434,2,0,B|304:68|352:112|397:92,1,143.999995605469,2|0,0:2|0:2,0:2:0:0:
397,92,255410,1,0,0:2:0:0:
148,24,255898,1,0,0:2:0:0:
84,304,256385,6,0,P|153:319|223:305,1,143.999995605469,2|0,0:2|0:2,0:2:0:0:
300,320,257036,1,0,0:2:0:0:
372,300,257198,1,0,0:2:0:0:
416,192,257361,2,0,P|346:176|276:190,1,143.999995605469,2|0,0:2|0:2,0:2:0:0:
200,196,258011,1,0,0:2:0:0:
144,140,258174,1,0,0:2:0:0:
136,24,258337,6,0,L|183:20,1,47.9999985351563
368,60,258662,1,0,0:2:0:0:
276,36,258824,1,0,0:2:0:0:
300,128,258987,1,0,0:2:0:0:
368,60,259150,1,0,0:2:0:0:
211,104,259312,2,0,P|208:127|211:151,1,47.9999985351563
388,156,259637,1,2,0:2:0:0:
300,128,259800,1,2,0:2:0:0:
368,60,259962,1,2,0:2:0:0:
388,156,260125,1,0,0:2:0:0:
268,228,260288,6,0,P|201:251|132:233,1,143.999995605469,2|0,0:2|0:2,0:2:0:0:
68,264,260938,1,0,0:2:0:0:
64,192,261101,1,0,0:2:0:0:
128,160,261263,2,0,P|197:144|266:162,1,143.999995605469,2|0,0:2|0:2,0:2:0:0:
332,192,261914,1,0,0:2:0:0:
388,148,262076,1,0,0:2:0:0:
448,188,262239,6,0,P|439:258|399:317,1,143.999995605469,2|0,0:2|0:2,0:2:0:0:
276,244,262889,1,0,0:2:0:0:
244,328,263052,1,0,0:2:0:0:
224,172,263215,1,2,0:2:0:0:
188,256,263377,1,0,0:2:0:0:
276,244,263540,1,2,0:2:0:0:
132,180,263702,1,2,0:2:0:0:
104,268,263865,1,2,0:2:0:0:
224,172,264028,1,0,0:2:0:0:
332,324,264190,6,0,B|332:216|332:216|356:208|377:191,1,160,2|0,0:2|0:2,0:2:0:0:
320,59,265166,2,0,P|244:75|180:47,1,106.666666666667,0|0,0:2|0:2,0:2:0:0:
34,22,265654,2,0,P|86:10|136:31,1,106.666666666667,0|0,0:2|0:2,0:2:0:0:
69,255,266141,6,0,L|81:82,1,160,2|0,0:2|0:2,0:2:0:0:
388,308,267117,2,0,P|348:306|312:290,2,80,0|0|0,0:2|0:2|0:2,0:2:0:0:
462,263,267849,1,0,0:0:0:0:
324,205,268093,6,0,P|249:227|226:319,1,160,2|0,0:2|0:2,0:2:0:0:
417,207,269068,2,0,P|414:167|308:104,1,160,2|0,0:2|0:2,0:2:0:0:
295,111,269678,2,0,L|238:127,1,40
151,119,270044,6,0,P|208:140|222:243,1,160,2|0,0:2|0:2,0:2:0:0:
183,297,270694,2,0,P|150:256|148:222,1,53.3333333333333,0|0,0:2|0:2,0:2:0:0:
98,182,271019,2,0,P|71:210|63:240,1,70,0|0,0:2|0:2,0:2:0:0:
150,256,271507,1,0,0:2:0:0:
63,105,271751,1,0,0:2:0:0:
246,66,271995,6,0,B|271:71|290:65|290:65|320:70|320:70|345:66|345:66|376:75|414:77|413:54|444:57|487:72,1,240,2|0,0:2|0:2,0:2:0:0:
347,155,272971,2,0,P|333:234|352:266,1,106.666666666667,0|0,0:2|0:2,0:2:0:0:
433,384,273458,2,0,P|447:333|429:284,1,106.666666666667,0|0,0:2|0:2,0:2:0:0:
298,338,273946,6,0,P|243:355|154:283,1,160,2|0,0:2|0:2,0:2:0:0:
133,113,274678,1,0,0:2:0:0:
206,177,274922,2,0,P|161:206|109:208,1,106.666666666667,0|0,0:2|0:2,0:2:0:0:
1,198,275410,2,0,P|11:160|39:132,1,80,0|0,0:2|0:2,0:2:0:0:
221,89,275898,6,0,B|283:65|347:86|320:109|383:121|472:90,1,240,2|0,0:2|0:2,0:2:0:0:
307,2,276873,2,0,P|253:0|202:12,1,106.666666666667,0|0,0:2|0:2,0:2:0:0:
140,98,277361,2,0,P|160:147|206:171,1,106.666666666667,0|0,0:2|0:2,0:2:0:0:
221,89,277849,6,0,B|207:127|207:127|220:172|220:172|207:209|207:209|231:247|238:278|218:316,1,240,2|0,0:2|0:2,0:2:0:0:
115,309,278824,2,0,P|154:300|220:317,1,106.666666666667,0|2,0:2|0:2,0:2:0:0:
319,312,279236,1,2,0:2:0:0:
356,309,279352,2,0,L|423:314,2,53.3333333333333,2|2|2,0:0|0:0|0:0,0:0:0:0:
291,215,279798,6,0,L|297:57,1,127.99999609375,6|0,3:2|0:2,0:2:0:0:
153,55,280286,1,8,0:2:0:0:
210,132,280448,1,8,0:2:0:0:
237,11,280611,1,8,0:2:0:0:
109,139,280774,6,0,P|56:71|75:4,1,127.99999609375,2|0,0:2|0:2,0:2:0:0:
153,55,281261,1,8,0:2:0:0:
210,132,281424,1,8,0:2:0:0:
237,11,281587,1,8,0:2:0:0:
292,166,281749,6,0,P|356:199|445:137,1,127.99999609375,2|0,3:2|0:2,0:2:0:0:
381,0,282237,2,0,P|348:64|410:153,1,127.99999609375,8|0,0:2|0:2,0:2:0:0:
497,79,282725,2,0,L|422:68,1,63.9999980468751,10|0,0:2|0:2,0:2:0:0:
204,93,283050,2,0,L|279:82,1,63.9999980468751,10|0,0:2|0:2,0:2:0:0:
470,195,283375,2,0,L|395:184,1,63.9999980468751,10|0,0:2|0:2,0:2:0:0:
141,35,283700,6,0,P|116:102|161:164,1,127.99999609375,6|0,3:2|0:2,0:2:0:0:
194,219,284188,1,8,0:2:0:0:
204,93,284351,1,8,0:2:0:0:
265,272,284513,1,8,0:2:0:0:
405,150,284676,6,0,L|263:152,1,127.99999609375,2|0,0:2|0:2,0:2:0:0:
194,219,285164,1,8,0:2:0:0:
204,93,285326,1,8,0:2:0:0:
265,272,285489,1,8,0:2:0:0:
139,150,285652,6,0,L|2:146,1,127.99999609375,2|0,3:2|0:2,0:2:0:0:
100,291,286139,2,4,P|160:272|194:219,1,127.99999609375,8|0,0:2|0:2,0:2:0:0:
199,18,286627,2,0,L|209:112,1,63.9999980468751,10|0,0:2|0:2,0:2:0:0:
286,228,286952,2,0,L|292:164,1,63.9999980468751,10|0,0:2|0:2,0:2:0:0:
371,6,287278,2,0,L|381:100,1,63.9999980468751,10|0,0:2|0:2,0:2:0:0:
353,286,287603,6,0,P|298:317|238:303,1,127.99999609375,6|0,3:2|0:2,0:2:0:0:
122,173,288091,1,8,0:2:0:0:
187,232,288253,1,8,0:2:0:0:
109,88,288416,1,8,0:2:0:0:
259,187,288578,6,0,P|270:249|237:302,1,127.99999609375,2|0,0:2|0:2,0:2:0:0:
122,173,289066,1,8,0:2:0:0:
187,232,289228,1,8,0:2:0:0:
109,88,289391,1,8,0:2:0:0:
96,257,289554,6,0,P|42:217|50:125,1,127.99999609375,2|0,3:2|0:2,0:2:0:0:
236,82,290042,2,0,L|109:88,1,127.99999609375,8|0,0:2|0:2,0:2:0:0:
218,165,290530,2,0,L|315:169,1,63.9999980468751,10|0,0:2|0:2,0:2:0:0:
409,76,290855,2,0,L|312:80,1,63.9999980468751,10|0,0:2|0:2,0:2:0:0:
191,0,291180,2,0,L|288:4,1,63.9999980468751,10|0,0:2|0:2,0:2:0:0:
436,158,291505,6,0,P|496:89|470:16,1,127.99999609375,6|0,3:2|0:2,0:2:0:0:
318,68,291993,1,8,0:2:0:0:
409,76,292156,1,8,0:2:0:0:
254,2,292318,1,8,0:2:0:0:
215,154,292481,6,0,L|342:157,1,127.99999609375,2|0,0:2|0:2,0:2:0:0:
318,68,292969,1,8,0:2:0:0:
409,76,293132,1,8,0:2:0:0:
254,2,293294,1,8,0:2:0:0:
342,157,293456,6,0,P|378:225|345:292,1,127.99999609375,2|0,3:2|0:2,0:2:0:0:
293,328,293944,2,0,L|143:342,1,127.99999609375,2|0,0:2|0:2,0:2:0:0:
12,336,294432,2,0,L|104:345,1,63.9999980468751,10|0,0:2|0:2,0:2:0:0:
278,228,294757,2,0,L|186:237,1,63.9999980468751,10|0,0:2|0:2,0:2:0:0:
8,112,295083,2,0,L|100:121,1,63.9999980468751,10|0,0:2|0:2,0:2:0:0:
357,131,295408,6,0,P|293:168|281:245,1,138.666660319011,6|0,3:2|0:2,0:2:0:0:
387,332,295896,1,8,0:2:0:0:
370,223,296058,1,8,0:2:0:0:
273,331,296221,1,8,0:2:0:0:
452,263,296383,6,0,P|483:330|458:398,1,138.666660319011,2|0,0:2|0:2,0:2:0:0:
387,332,296872,1,8,0:2:0:0:
370,223,297034,1,8,0:2:0:0:
273,331,297197,1,8,0:2:0:0:
452,263,297359,6,0,L|453:106,1,138.666660319011,2|0,3:2|0:2,0:2:0:0:
268,16,297847,2,0,P|188:35|119:-17,1,138.666660319011,8|0,0:2|0:2,0:2:0:0:
39,58,298335,2,0,P|69:135|58:172,1,69.3333301595054,10|0,0:2|0:2,0:2:0:0:
244,215,298660,2,0,P|162:202|135:174,1,69.3333301595054,10|0,0:2|0:2,0:2:0:0:
10,304,298985,2,0,P|61:239|99:230,1,69.3333301595054,10|0,0:2|0:2,0:2:0:0:
148,300,299310,6,0,P|201:347|306:318,1,138.666660319011,6|0,3:2|0:2,0:2:0:0:
339,283,299798,1,8,0:2:0:0:
244,215,299961,1,8,0:2:0:0:
413,230,300123,1,8,0:2:0:0:
172,153,300286,6,0,P|244:122|323:164,1,138.666660319011,2|0,0:2|0:2,0:2:0:0:
339,283,300774,1,8,0:2:0:0:
244,215,300937,1,8,0:2:0:0:
413,230,301099,1,8,0:2:0:0:
259,333,301261,6,0,L|97:324,1,138.666660319011,2|0,3:2|0:2,0:2:0:0:
0,197,301749,2,0,L|162:188,1,138.666660319011,8|0,0:2|0:2,0:2:0:0:
294,137,302237,2,0,L|268:52,1,69.3333301595054,10|0,0:2|0:2,0:2:0:0:
118,255,302562,2,0,L|144:170,1,69.3333301595054,10|0,0:2|0:2,0:2:0:0:
390,365,302887,2,0,L|364:280,1,69.3333301595054,10|0,0:2|0:2,0:2:0:0:
81,116,303213,6,0,P|146:98|206:127,1,138.666660319011,6|0,3:2|0:2,0:2:0:0:
217,261,303700,1,8,0:2:0:0:
138,188,303863,1,8,0:2:0:0:
99,340,304026,1,8,0:2:0:0:
290,326,304188,6,0,P|313:262|289:199,1,138.666660319011,2|0,0:2|0:2,0:2:0:0:
217,261,304676,1,8,0:2:0:0:
138,188,304839,1,8,0:2:0:0:
99,340,305002,1,8,0:2:0:0:
290,326,305164,6,0,L|459:319,1,138.666660319011,2|0,3:2|0:2,0:2:0:0:
501,240,305652,2,0,P|421:215|361:236,1,138.666660319011,8|0,0:2|0:2,0:2:0:0:
97,238,306139,2,0,L|208:233,1,69.3333301595054,10|0,0:2|0:2,0:2:0:0:
279,110,306465,2,0,L|227:208,1,69.3333301595054,10|0,0:2|0:2,0:2:0:0:
290,326,306790,2,0,L|230:232,1,69.3333301595054,10|0,0:2|0:2,0:2:0:0:
11,138,307115,6,0,L|187:141,1,138.666660319011,6|0,3:2|0:2,0:2:0:0:
276,147,307603,1,8,0:2:0:0:
216,87,307765,1,8,0:2:0:0:
358,110,307928,1,8,0:2:0:0:
216,252,308091,6,0,P|166:206|148:139,1,138.666660319011,2|0,0:2|0:2,0:2:0:0:
276,147,308578,1,8,0:2:0:0:
216,87,308740,1,8,0:2:0:0:
358,110,308903,1,8,0:2:0:0:
213,247,309066,6,0,P|280:233|331:259,1,69.3333301595054,2|0,3:2|0:2,0:2:0:0:
406,174,309391,2,0,P|384:239|336:270,1,69.3333301595054,0|0,0:2|0:2,0:2:0:0:
373,369,309717,2,0,P|327:317|324:260,1,69.3333301595054,8|8,0:2|0:2,0:2:0:0:
406,174,310042,6,0,P|402:140|386:110,1,69.3333301595054,8|0,3:2|0:2,0:2:0:0:
212,246,310367,2,0,P|185:267|167:297,1,69.3333301595054,12|0,3:2|0:2,0:2:0:0:
373,369,310692,2,0,P|405:383|440:384,1,69.3333301595054,8|8,3:2|0:2,0:2:0:0:
306,119,311017,6,0,P|301:71|319:27,1,95.9999970703126,6|0,3:2|0:2,0:2:0:0:
452,200,311505,1,0,0:0:0:0:
160,180,311749,1,0,0:2:0:0:
320,28,311993,1,10,0:0:0:0:
200,79,312237,1,0,0:2:0:0:
428,100,312480,1,2,0:0:0:0:
288,284,312725,1,0,0:2:0:0:
32,184,312969,6,0,B|20:124|52:96|52:96|104:104|145:76,1,191.999994140625,2|8,3:2|0:2,0:2:0:0:
240,60,313619,1,8,0:2:0:0:
291,139,313782,1,8,0:2:0:0:
424,24,313944,2,0,P|436:86|421:148,1,127.99999609375,10|0,0:2|0:2,0:2:0:0:
288,264,314432,2,0,P|276:201|291:139,1,127.99999609375,0|0,0:2|0:2,0:2:0:0:
464,336,314919,6,0,B|400:336|400:336|352:352|352:352|274:352,1,191.999994140625,6|8,3:2|0:2,0:2:0:0:
200,288,315570,1,8,0:2:0:0:
128,352,315733,1,8,0:2:0:0:
131,215,315895,2,0,P|135:153|176:105,1,127.99999609375,10|0,0:2|0:2,0:2:0:0:
336,96,316382,1,10,0:2:0:0:
260,176,316545,1,8,0:0:0:0:
252,44,316708,1,8,0:0:0:0:
408,44,316871,6,0,B|432:88|424:136|400:132|392:176|403:230,1,191.999994140625,2|8,3:2|0:2,0:2:0:0:
324,284,317522,1,8,0:2:0:0:
384,360,317684,1,8,0:2:0:0:
228,278,317847,2,0,P|197:272|165:271,1,63.9999980468751,10|0,0:2|0:2,0:2:0:0:
72,252,318172,1,0,0:2:0:0:
284,192,318335,2,0,P|291:161|292:129,1,63.9999980468751,10|10,0:2|0:2,0:2:0:0:
296,32,318660,1,8,0:2:0:0:
70,65,318822,6,0,B|39:121|67:157|89:191|71:251,1,191.999994140625,6|8,3:2|0:2,0:2:0:0:
136,324,319473,1,8,0:2:0:0:
40,340,319635,1,8,0:2:0:0:
196,216,319798,2,0,B|224:212|224:212|248:216|248:216|272:212|272:212|296:216|296:216|320:212|320:212|344:216|344:216|368:220|386:216,1,191.999994140625,10|8,0:2|0:2,0:2:0:0:
436,132,320448,1,8,0:2:0:0:
484,216,320611,1,8,0:2:0:0:
299,120,320774,6,0,P|272:210|296:302,1,191.999994140625,2|8,3:2|0:2,0:2:0:0:
364,372,321424,1,8,0:2:0:0:
424,296,321587,1,8,0:2:0:0:
298,119,321749,2,0,P|267:115|235:120,1,63.9999980468751,10|0,0:2|0:2,0:2:0:0:
148,164,322074,1,0,0:2:0:0:
328,216,322237,2,0,P|359:219|391:216,1,63.9999980468751,10|8,0:2|0:2,0:2:0:0:
472,164,322562,1,8,0:2:0:0:
235,120,322725,6,0,B|200:216|232:276|232:276|239:241,1,191.999994140625,6|8,3:2|0:2,0:2:0:0:
328,216,323375,1,8,0:2:0:0:
416,256,323538,1,8,0:2:0:0:
428,84,323700,6,0,L|432:16,1,63.9999980468751,10|0,3:2|0:2,0:2:0:0:
231,183,324025,2,0,L|234:119,1,63.9999980468751,10|0,3:2|0:2,0:2:0:0:
414,320,324351,2,0,L|417:256,1,63.9999980468751,10|0,3:2|0:2,0:2:0:0:
231,183,324676,6,0,B|144:200|76:184|76:184|110:175,1,191.999994140625,14|8,3:2|0:2,0:2:0:0:
176,88,325326,1,8,0:0:0:0:
104,8,325489,1,8,0:0:0:0:
231,183,325652,6,0,P|262:180|294:174,1,63.9999980468751,8|8,3:2|0:2,0:2:0:0:
112,312,325977,2,0,P|80:310|48:304,1,63.9999980468751,0|8,3:2|0:2,0:2:0:0:
352,371,326302,2,0,P|383:370|415:364,1,63.9999980468751,8|8,3:2|0:2,0:2:0:0:
140,180,326627,6,0,P|152:134|188:103,1,95.9999970703126,6|0,3:2|0:2,0:2:0:0:
464,224,327115,1,0,0:0:0:0:
420,80,327359,1,0,0:2:0:0:
344,316,327603,1,10,0:0:0:0:
300,164,327847,1,0,0:2:0:0:
496,232,328091,1,2,0:0:0:0:
256,352,328335,1,0,0:0:0:0:
128,40,328578,6,0,B|196:40|196:40|252:20|252:20|316:20,1,191.999994140625,2|8,3:2|0:2,0:2:0:0:
396,76,329228,1,8,0:2:0:0:
472,16,329391,1,8,0:2:0:0:
404,238,329554,2,0,P|397:268|400:300,1,63.9999980468751,10|0,0:2|0:2,0:2:0:0:
504,272,329879,1,0,0:2:0:0:
352,160,330042,2,0,P|320:153|289:157,1,63.9999980468751,10|8,0:2|0:2,0:2:0:0:
188,200,330367,1,8,0:2:0:0:
396,76,330529,6,0,P|443:154|404:238,1,191.999994140625,6|8,3:2|0:2,0:2:0:0:
316,304,331180,1,8,0:2:0:0:
416,352,331342,1,8,0:2:0:0:
302,194,331505,2,0,P|268:141|263:78,1,127.99999609375,10|0,0:0|0:0,0:0:0:0:
388,132,331993,1,10,0:0:0:0:
404,240,332155,1,8,0:0:0:0:
303,195,332318,1,8,0:0:0:0:
468,312,332481,6,0,P|455:249|475:189,1,127.99999609375,2|0,3:2|0:2,0:2:0:0:
472,60,332969,2,0,P|412:40|350:55,1,127.99999609375,2|0,0:2|0:2,0:2:0:0:
232,168,333456,2,0,L|192:218,1,63.9999980468751,10|0,3:2|0:2,0:2:0:0:
124,304,333782,1,8,0:2:0:0:
324,228,333944,2,0,L|284:278,1,63.9999980468751,14|0,3:2|0:2,0:2:0:0:
216,364,334270,1,8,0:2:0:0:
199,26,334432,6,0,L|191:217,1,191.999994140625,14|8,3:2|0:2,0:2:0:0:
284,308,335082,1,8,0:2:0:0:
344,219,335245,1,8,0:2:0:0:
452,228,335408,2,0,P|468:166|449:106,1,127.99999609375,8|0,0:2|0:2,0:2:0:0:
344,219,335896,1,8,0:2:0:0:
252,159,336058,1,8,0:2:0:0:
190,248,336220,1,8,0:2:0:0:
232,47,336383,6,0,P|326:31|419:50,1,191.999994140625,2|8,3:2|0:2,0:2:0:0:
484,140,337034,1,8,0:2:0:0:
472,248,337196,1,8,0:2:0:0:
380,312,337359,2,0,P|349:315|317:313,1,63.9999980468751,10|0,0:2|0:2,0:2:0:0:
213,288,337684,1,0,0:2:0:0:
452,224,337847,2,0,P|420:227|388:225,1,63.9999980468751,10|8,0:2|0:2,0:2:0:0:
284,199,338172,1,8,0:2:0:0:
512,96,338335,6,0,B|464:100|436:84|436:84|396:94|396:94|364:80|324:95,1,191.999994140625,6|8,3:2|0:2,0:2:0:0:
284,199,338985,1,8,0:2:0:0:
176,168,339148,1,8,0:2:0:0:
360,288,339310,6,0,P|363:319|360:351,1,63.9999980468751,10|0,3:2|0:2,0:2:0:0:
176,168,339635,2,0,P|172:199|175:231,1,63.9999980468751,6|0,3:2|0:2,0:2:0:0:
356,43,339961,2,0,P|359:74|356:106,1,63.9999980468751,2|0,3:2|0:2,0:2:0:0:
52,276,340286,6,0,P|15:189|51:103,1,191.999994140625,6|8,3:2|0:2,0:2:0:0:
160,116,340936,1,8,0:2:0:0:
248,180,341099,1,8,0:2:0:0:
356,43,341261,6,0,P|387:40|419:42,1,63.9999980468751,10|0,3:2|0:2,0:2:0:0:
113,102,341587,2,0,P|81:99|49:103,1,63.9999980468751,2|8,3:2|0:2,0:2:0:0:
391,202,341912,2,0,P|422:198|454:200,1,63.9999980468751,10|8,3:2|0:2,0:2:0:0:
78,338,342237,6,0,B|93:295|57:247|57:247|117:251|145:207|145:207|211:227|253:187|253:187|221:123|266:76|266:76|329:115|401:83|401:83|357:147|391:202,1,703.999978515626,6|8,3:2|0:2,0:2:0:0:
336,20,344188,6,0,B|256:-24|200:16|184:52|184:52|88:52|88:52|108:132|108:132|80:184|80:184|170:308|170:308|236:272|302:305,1,703.999978515626,6|0,3:2|0:2,0:2:0:0:
411,313,346139,6,0,P|440:242|404:173,1,159.999995117188,2|0,0:2|0:2,0:2:0:0:
318,146,347115,2,0,L|249:146,1,63.9999980468751,0|0,0:2|0:2,0:2:0:0:
385,90,347603,2,0,L|454:90,1,63.9999980468751,0|0,0:2|0:2,0:2:0:0:
318,27,348091,6,0,P|263:20|203:39,1,95.9999970703126,2|0,0:2|0:2,0:2:0:0:
42,112,349066,2,0,P|97:105|130:113,1,63.9999980468751,0|0,0:2|0:2,0:2:0:0:
230,186,349554,2,0,P|175:179|142:187,1,63.9999980468751,0|0,0:2|0:2,0:2:0:0:
223,274,350042,6,0,P|279:266|313:158,1,159.999995117188,2|0,0:2|0:2,0:2:0:0:
269,108,351017,1,0,0:2:0:0:
354,97,351505,1,0,0:2:0:0:
439,67,351993,6,0,P|443:114|421:156,1,95.9999970703126,2|0,0:2|0:2,0:2:0:0:
134,167,352969,2,0,L|218:169,1,63.9999980468751,0|0,0:2|0:2,0:2:0:0:
333,228,353456,2,0,L|249:230,1,63.9999980468751,0|0,0:2|0:2,0:2:0:0:
143,268,353944,6,0,P|214:297|235:372,1,159.999995117188,2|0,0:2|0:2,0:2:0:0:
151,355,354920,2,0,L|39:354,1,95.9999970703126,0|0,0:2|0:2,0:2:0:0:
50,189,355896,6,0,P|74:152|70:78,1,95.9999970703126,2|0,0:2|0:2,0:2:0:0:
269,56,356871,2,0,L|334:62,2,47.9999985351563,0|0|0,0:2|0:2|0:2,0:2:0:0:
176,50,357603,1,0,0:2:0:0:
234,167,357847,6,0,P|247:216|147:305,1,191.999994140625,2|0,0:2|0:2,0:2:0:0:
159,218,359310,1,0,0:2:0:0:
81,263,359554,1,0,0:2:0:0:
123,139,359798,6,0,B|125:89|112:72|112:72|124:51|121:17|121:17|132:61|179:79,1,191.999994140625,2|0,0:2|0:2,0:2:0:0:
203,0,361261,1,0,0:2:0:0:
292,3,361749,6,0,B|294:55|329:76|329:76|316:113|316:113|329:142|329:142|323:194,1,191.999994140625,2|0,0:2|0:2,0:2:0:0:
305,266,363213,1,0,0:2:0:0:
211,211,363700,6,0,P|167:207|91:285,1,143.999995605469,2|0,0:2|0:2,0:2:0:0:
119,354,364676,2,0,P|156:333|177:292,1,63.9999980468751,0|0,0:2|0:2,0:2:0:0:
262,347,365164,2,0,P|282:371|311:384,1,63.9999980468751,0|0,0:2|0:2,0:2:0:0:
343,296,365652,6,0,L|338:113,1,159.999995117188,2|0,0:2|0:2,0:2:0:0:
276,77,366627,2,0,P|234:74|190:93,1,63.9999980468751,0|0,0:2|0:2,0:2:0:0:
422,180,367115,2,0,P|464:183|508:164,1,63.9999980468751,0|0,0:2|0:2,0:2:0:0:
338,136,367603,6,0,L|341:214,1,63.9999980468751,2|0,0:2|0:2,0:2:0:0:
260,302,368091,2,0,L|262:238,1,63.9999980468751,0|0,0:2|0:2,0:2:0:0:
181,187,368578,2,0,P|129:182|96:195,1,63.9999980468751,0|0,0:2|0:2,0:2:0:0:
81,265,369066,2,0,P|49:271|18:267,1,63.9999980468751,0|0,0:2|0:2,0:2:0:0:
118,184,369554,6,0,P|169:245|140:329,1,159.999995117188,2|0,0:2|0:2,0:2:0:0:
223,359,370530,2,0,L|300:356,1,63.9999980468751,0|0,0:2|0:2,0:2:0:0:
408,293,371017,2,0,L|331:290,1,63.9999980468751,0|0,0:2|0:2,0:2:0:0:
288,217,371505,6,0,P|289:164|396:103,1,159.999995117188,2|0,0:2|0:2,0:2:0:0:
380,194,372481,2,0,L|430:197,2,47.9999985351563,0|0|0,0:2|0:2|0:2,0:2:0:0:
288,217,373213,1,0,0:2:0:0:
231,111,373456,6,0,B|200:116|200:116|153:113|153:113|104:152|104:152|104:232|104:232|151:271|151:271|196:268|196:268|231:271,1,359.999989013672,2|0,0:2|0:2,0:2:0:0:
192,192,375408,6,0,B|256:192|256:192|304:160|304:160|320:96|320:96|384:96|384:96|416:80|416:80|448:96|448:96|496:96,1,351.999989257813,2|0,0:2|0:2,0:2:0:0:
376,208,377359,6,0,B|272:272|272:272|232:264|232:264|199:270,1,195.555555555556,2|0,0:2|0:2,0:2:0:0:
240,360,379310,6,0,P|147:352|103:269,1,195.555555555556,2|0,0:2|0:2,0:2:0:0:
232,176,381261,6,0,B|256:128|256:128|241:77,1,106.666666666667,2|0,0:2|0:2,0:2:0:0:
336,136,382237,2,0,L|347:177,1,42.6666666666667,0|0,0:2|0:2,0:2:0:0:
424,88,382725,2,0,L|412:46,1,42.6666666666667,0|0,0:2|0:2,0:2:0:0:
256,32,383213,1,2,0:2:0:0:
256,192,383294,12,4,389066,3:0:0:0:
