osu file format v14

[General]
AudioFilename: audio.mp3
AudioLeadIn: 0
PreviewTime: 127509
Countdown: 0
SampleSet: Soft
StackLeniency: 0.7
Mode: 0
LetterboxInBreaks: 0
WidescreenStoryboard: 1

[Editor]
Bookmarks: 97970,109047,127509,186499,195730,210499,225268,284345
DistanceSpacing: 1
BeatDivisor: 4
GridSize: 8
TimelineZoom: 4.499997

[Metadata]
Title:EXEC_FLIP_ARPHAGE/.
TitleUnicode:EXEC_FLIP_ARPHAGE/.
Artist:Shikata Akiko
ArtistUnicode:志方あきこ
Creator:Yooh
Version:Mir's Insane
Source:アルトネリコ3 ~世界終焉の引鉄は少女の詩が弾く~
Tags:Ar Tonelico 3 Qoga Knell of ar Ciel Gust japanese hymmnos fusion ar ciela folk instrumental jrpg j-rpg video game hymn shurelia mir
BeatmapID:2690198
BeatmapSetID:1295544

[Difficulty]
HPDrainRate:5
CircleSize:4
OverallDifficulty:8
ApproachRate:9
SliderMultiplier:3
SliderTickRate:1

[Events]
//Background and Video events
0,0,"hymm2.jpg",0,0
//Break Periods
2,161807,169430
//Storyboard Layer 0 (Background)
//Storyboard Layer 1 (Fail)
//Storyboard Layer 2 (Pass)
//Storyboard Layer 3 (Foreground)
//Storyboard Layer 4 (Overlay)
//Storyboard Sound Samples

[TimingPoints]
4214,696.864111498258,4,2,1,70,1,0
29280,480,4,2,1,30,1,0
29280,-200,4,2,1,30,0,0
47525,480,4,2,1,30,1,0
47525,-200,4,2,1,30,0,0
53285,-133.333333333333,4,2,1,30,0,0
54245,-200,4,2,1,30,0,0
61445,-400,4,2,1,30,0,0
64800,461.538461538462,4,2,4,50,1,0
64800,-166.666666666667,4,2,4,50,0,0
79569,-142.857142857143,4,2,4,50,0,0
93415,-250.000000000001,4,2,4,50,0,0
94338,-142.857142857143,4,2,4,50,0,0
109107,-250.000000000001,4,2,4,60,0,0
110030,-142.857142857143,4,2,4,50,0,0
116261,-250.000000000001,4,2,4,50,0,0
116434,-250.000000000001,4,2,3,5,0,0
116492,-142.857142857143,4,2,4,50,0,0
121107,-200,4,2,4,50,0,0
122030,-125,4,2,4,50,0,0
122953,-200,4,2,4,50,0,0
127453,-200,4,2,2,5,0,0
127569,-100,4,3,1,80,0,1
128030,-111.111111111111,4,3,1,80,0,1
130338,-111.111111111111,4,3,3,80,0,1
131261,-100,4,3,1,80,0,1
131722,-111.111111111111,4,3,1,80,0,1
134030,-111.111111111111,4,3,3,80,0,1
134953,-100,4,3,1,80,0,1
135414,-111.111111111111,4,3,1,80,0,1
137723,-111.111111111111,4,3,3,80,0,1
138646,-100,4,3,1,80,0,1
139107,-111.111111111111,4,3,1,80,0,1
141415,-111.111111111111,4,3,3,80,0,1
142338,-100,4,3,1,80,0,1
142799,-111.111111111111,4,3,1,80,0,1
143261,-100,4,3,1,80,0,1
143722,-111.111111111111,4,3,1,80,0,1
144184,-100,4,3,1,80,0,1
145569,-100,4,3,3,80,0,1
146030,-100,4,3,1,80,0,1
146492,-100,4,3,3,80,0,1
146953,-100,4,3,3,80,0,1
148800,-100,4,3,1,80,0,1
149261,-100,4,3,3,80,0,1
149723,-100,4,3,1,80,0,1
150184,-111.111111111111,4,3,1,80,0,1
151569,-100,4,3,1,80,0,1
152030,-111.111111111111,4,3,1,80,0,1
152492,-100,4,3,3,80,0,1
153415,-100,4,3,1,80,0,1
154338,-83.3333333333333,4,3,1,80,0,1
154799,-90.9090909090909,4,3,1,80,0,1
155261,-100,4,3,1,80,0,1
156184,-83.3333333333333,4,3,3,80,0,1
156876,-83.3333333333333,4,3,1,80,0,1
157107,-166.666666666667,4,3,1,80,0,0
157453,-166.666666666667,4,2,1,5,0,0
157569,-333.333333333333,4,2,1,40,0,0
160800,-333.333333333333,4,2,1,30,0,0
171646,-333.333333333333,4,2,1,80,0,0
171806,461.538461538462,4,3,1,80,1,0
171806,-111.111111111111,4,3,1,80,0,0
172267,-111.111111111111,4,3,1,80,0,0
173075,-111.111111111111,4,3,2,5,0,0
173190,-111.111111111111,4,3,1,80,0,0
173998,-111.111111111111,4,3,2,5,0,0
174113,-111.111111111111,4,3,1,80,0,0
179882,-111.111111111111,4,3,1,80,0,0
182882,-111.111111111111,4,3,1,80,0,0
183806,-111.111111111111,4,3,1,80,0,0
185652,-111.111111111111,4,3,1,80,0,0
188421,-333.333333333332,4,2,1,50,0,0
195806,-142.857142857143,4,2,1,60,0,0
197190,-142.857142857143,4,2,1,60,0,0
197652,-142.857142857143,4,2,1,60,0,0
198113,-142.857142857143,4,2,1,60,0,0
198921,-142.857142857143,4,2,2,5,0,0
199036,-142.857142857143,4,2,1,60,0,0
199498,-142.857142857143,4,2,1,60,0,0
200190,-142.857142857143,4,2,1,60,0,0
200767,-142.857142857143,4,2,2,5,0,0
200882,-142.857142857143,4,2,1,60,0,0
202152,-142.857142857143,4,2,2,5,0,0
202267,-142.857142857143,4,2,1,60,0,0
202498,-142.857142857143,4,2,2,5,0,0
202613,-142.857142857143,4,2,1,60,0,0
202844,-142.857142857143,4,2,2,5,0,0
202959,-142.857142857143,4,2,1,60,0,0
204575,-142.857142857143,4,2,1,60,0,0
205036,-142.857142857143,4,2,1,60,0,0
205382,-142.857142857143,4,2,1,5,0,0
205498,-142.857142857143,4,2,1,60,0,0
206421,-142.857142857143,4,2,1,60,0,0
207575,-142.857142857143,4,2,1,60,0,0
208267,-142.857142857143,4,2,1,60,0,0
208613,-142.857142857143,4,2,1,60,0,0
208959,-142.857142857143,4,2,1,60,0,0
209536,-142.857142857143,4,2,1,5,0,0
209652,-142.857142857143,4,2,1,60,0,0
210575,-142.857142857143,4,2,1,60,0,0
211036,-142.857142857143,4,2,3,50,0,0
212767,-142.857142857143,4,2,3,5,0,0
212882,-250.000000000001,4,2,3,50,0,0
213229,-142.857142857143,4,2,3,5,0,0
213344,-100,4,2,3,50,0,0
216113,-142.857142857143,4,2,3,50,0,0
217729,-142.857142857143,4,2,3,50,0,0
218882,-142.857142857143,4,2,3,50,0,0
219229,-142.857142857143,4,2,3,5,0,0
219344,-142.857142857143,4,2,3,50,0,0
224882,-111.111111111111,4,2,3,50,0,0
225344,-99.9999999999999,4,3,1,80,0,1
227536,-99.9999999999999,4,3,2,5,0,1
227652,-99.9999999999999,4,3,1,80,0,1
228113,-99.9999999999999,4,3,1,80,0,1
231229,-99.9999999999999,4,3,2,5,0,1
231344,-99.9999999999999,4,3,1,80,0,1
231806,-99.9999999999999,4,3,1,80,0,1
234921,-99.9999999999999,4,3,2,5,0,1
235036,-99.9999999999999,4,3,1,80,0,1
235498,-99.9999999999999,4,3,1,80,0,1
237806,-99.9999999999999,4,3,1,80,0,1
238729,-99.9999999999999,4,3,1,80,0,1
240113,-83.3333333333333,4,3,1,80,0,1
240575,-83.3333333333333,4,3,1,80,0,1
241036,-83.3333333333333,4,3,1,80,0,1
243344,-83.3333333333333,4,3,1,80,0,1
243806,-83.3333333333333,4,3,1,80,0,1
244152,-142.857142857143,4,3,1,5,0,1
244267,-83.3333333333333,4,3,1,80,0,1
244613,-142.857142857143,4,3,1,5,0,1
244729,-83.3333333333333,4,3,1,80,0,1
245075,-83.3333333333333,4,3,2,5,0,1
245190,-83.3333333333333,4,3,1,80,0,1
245536,-83.3333333333333,4,3,2,5,0,1
245652,-83.3333333333333,4,3,1,80,0,1
247036,-83.3333333333333,4,3,1,80,0,1
247498,-83.3333333333333,4,3,1,80,0,1
247959,-83.3333333333333,4,3,1,80,0,1
248421,-83.3333333333333,4,3,1,80,0,1
248767,-142.857142857143,4,3,1,5,0,1
248882,-83.3333333333333,4,3,1,80,0,1
249806,-83.3333333333333,4,3,1,80,0,1
250267,-83.3333333333333,4,3,1,80,0,1
251998,-83.3333333333333,4,3,2,5,0,1
252113,-83.3333333333333,4,3,1,80,0,1
252459,-142.857142857143,4,3,1,5,0,1
252575,-83.3333333333333,4,3,1,80,0,1
252921,-142.857142857143,4,3,1,5,0,1
253036,-83.3333333333333,4,3,1,80,0,1
254421,-83.3333333333333,4,3,1,80,0,1
254652,-83.3333333333333,4,3,1,80,0,1
254882,-100,4,3,1,80,0,0
255921,-100,4,3,1,80,0,0
268729,-90.9090909090909,4,3,1,80,0,0
269652,-90.9090909090909,4,3,1,80,0,1
270113,-90.9090909090909,4,3,1,80,0,1
270575,-90.9090909090909,4,3,1,80,0,1
271959,-90.9090909090909,4,3,1,80,0,1
272421,-90.9090909090909,4,3,1,80,0,1
272767,-90.9090909090909,4,3,1,5,0,1
272882,-90.9090909090909,4,3,1,80,0,1
273344,-90.9090909090909,4,3,1,80,0,1
275190,-90.9090909090909,4,3,1,80,0,1
276113,-90.9090909090909,4,3,1,80,0,1
277498,-90.9090909090909,4,3,1,80,0,1
277959,-90.9090909090909,4,3,1,80,0,1
279344,-90.9090909090909,4,3,1,80,0,1
280729,-90.9090909090909,4,3,1,80,0,1
281190,-90.9090909090909,4,3,1,80,0,1
281652,-90.9090909090909,4,3,1,80,0,1
282921,-90.9090909090909,4,3,1,80,0,1
283267,-90.9090909090909,4,3,1,80,0,1
283844,-90.9090909090909,4,3,1,80,0,1
284075,-90.9090909090909,4,3,2,5,0,1
284190,-90.9090909090909,4,3,1,80,0,1
284421,-999.99999999999,4,3,1,80,0,0
287652,-999.99999999999,4,3,2,5,0,0

[Colours]
Combo1 : 206,187,174
Combo2 : 121,121,255
Combo3 : 197,24,136
SliderBorder : 173,177,255

[HitObjects]
33,360,29280,6,0,B|181:387|97:277|256:307,1,225
304,358,30240,1,0,0:0:0:0:
442,247,30720,1,2,0:0:0:0:
358,12,31200,2,0,L|350:173,1,150,0|2,0:0|0:0,0:0:0:0:
183,145,32160,5,2,0:0:0:0:
149,73,32400,1,0,0:0:0:0:
104,44,32640,1,2,0:0:0:0:
72,38,32880,1,0,0:0:0:0:
56,43,33120,2,0,P|52:101|130:107,2,150
391,228,35040,6,0,L|227:210,1,150,2|0,0:0|0:0,0:0:0:0:
182,266,35760,1,0,0:0:0:0:
182,266,36000,2,0,P|177:318|180:354,1,75,2|0,0:0|0:0,0:0:0:0:
88,384,36480,2,0,P|93:332|90:296,1,75,2|0,0:0|0:0,0:0:0:0:
113,200,36960,6,0,P|63:217|-1:142,1,150
29,78,37680,1,0,0:0:0:0:
29,78,37920,1,0,0:0:0:0:
218,121,38400,1,2,0:0:0:0:
419,27,38880,2,0,P|459:65|404:130,1,150,0|2,0:0|0:0,0:0:0:0:
180,275,39840,5,2,0:0:0:0:
262,233,40080,1,0,0:0:0:0:
319,233,40320,1,2,0:0:0:0:
340,247,40560,1,0,0:0:0:0:
346,258,40800,6,0,P|338:320|328:364,1,75
447,359,41280,2,0,P|439:297|429:253,1,75,2|0,0:0|0:0,0:0:0:0:
251,317,41760,2,0,L|166:339,1,75
429,202,42240,2,0,L|501:220,1,75,2|0,0:0|0:0,0:0:0:0:
278,96,42720,6,0,P|258:46|256:3,1,75
290,94,43200,2,0,P|259:148|186:133,1,112.5,2|0,0:0|0:0,0:0:0:0:
195,140,43680,1,0,0:0:0:0:
56,95,43920,5,2,0:0:0:0:
72,22,44160,1,0,0:0:0:0:
126,71,44400,1,2,0:0:0:0:
114,176,44640,5,0,0:0:0:0:
106,251,44880,1,0,0:0:0:0:
98,326,45120,1,0,0:0:0:0:
29,286,45360,1,2,0:0:0:0:
183,216,45600,5,0,0:0:0:0:
253,267,45840,1,2,0:0:0:0:
263,186,46080,1,0,0:0:0:0:
263,186,46320,1,2,0:0:0:0:
253,267,46560,6,0,P|242:328|238:359,1,75
352,383,47040,2,0,P|346:345|339:309,1,75,2|0,0:0|0:0,0:0:0:0:
388,133,47525,6,0,P|459:130|480:184,1,112.5,2|0,0:0|0:0,0:0:0:0:
471,197,48005,1,0,0:0:0:0:
471,197,48245,1,0,0:0:0:0:
446,272,48485,5,2,0:0:0:0:
394,213,48725,1,0,0:0:0:0:
471,197,48965,1,2,0:0:0:0:
354,358,49445,6,0,B|267:358|299:312|204:308,1,150,0|2,0:0|0:0,0:0:0:0:
215,308,50405,5,0,0:0:0:0:
57,332,50645,1,0,0:0:0:0:
136,320,50885,1,2,0:0:0:0:
208,38,51365,6,0,L|204:119,1,75,2|0,0:0|0:0,0:0:0:0:
114,109,51845,2,0,L|117:34,1,75,2|0,0:0|0:0,0:0:0:0:
160,189,52325,5,0,0:0:0:0:
160,189,52565,1,0,0:0:0:0:
160,189,52805,1,2,0:0:0:0:
492,67,53285,6,0,P|422:64|394:140,1,112.500004291535,2|0,0:0|0:0,0:0:0:0:
380,329,53765,2,0,P|450:332|478:256,1,112.500004291535,2|0,0:0|0:0,0:0:0:0:
512,180,54245,2,0,B|364:163|466:265|280:241,1,225.000008583069
52,349,55205,6,0,P|32:299|56:262,1,75,2|0,0:0|0:0,0:0:0:0:
122,264,55685,2,0,P|142:314|118:351,1,75,2|0,0:0|0:0,0:0:0:0:
12,184,56165,2,0,P|77:188|114:106,1,150,2|0,0:0|0:0,0:0:0:0:
81,48,56885,1,0,0:0:0:0:
186,179,57125,5,2,0:0:0:0:
269,164,57365,1,0,0:0:0:0:
309,95,57605,2,0,P|314:44|309:10,1,75,2|0,0:0|0:0,0:0:0:0:
269,164,58085,2,0,P|276:224|316:393,1,225,2|0,0:0|0:0,0:0:0:0:
311,287,59045,6,0,P|356:294|386:339,1,75,2|0,0:0|0:0,0:0:0:0:
440,256,59525,2,0,P|466:292|456:345,1,75,2|0,0:0|0:0,0:0:0:0:
360,198,60005,2,0,P|363:135|512:110,1,225,2|0,0:0|0:0,0:0:0:0:
497,97,60965,2,0,P|486:142|450:167,1,75,0|2,0:0|0:0,0:0:0:0:
299,271,61445,6,0,B|250:297|230:377|230:377|227:295|185:246,1,262.5
190,253,63365,5,0,0:0:0:0:
253,194,63605,1,2,0:0:0:0:
171,152,63845,1,0,0:0:0:0:
266,101,64085,1,2,0:0:0:0:
134,63,64325,1,0,0:0:0:0:
276,9,64565,1,2,0:0:0:0:
488,317,64800,6,0,B|375:342|434:264|295:300,1,179.999994506836,2|0,0:0|0:0,0:0:0:0:
271,372,65492,1,0,0:0:0:0:
66,382,65723,6,0,P|46:332|49:182,1,179.999994506836,2|0,0:0|0:0,0:0:0:0:
180,33,66415,1,0,0:0:0:0:
180,33,66530,1,0,0:0:0:0:
180,33,66646,2,0,P|159:82|-22:34,1,269.999991760254,2|0,0:0|0:0,0:0:0:0:
291,189,67569,6,0,P|356:180|471:154,1,179.999994506836,2|0,0:0|0:0,0:0:0:0:
492,314,68261,1,0,0:0:0:0:
492,314,68376,1,0,0:0:0:0:
492,314,68492,2,0,P|420:352|400:209,1,269.999991760254
166,291,69415,6,0,P|255:300|345:312,1,179.999994506836,2|0,0:0|0:0,0:0:0:0:
73,260,70107,1,0,0:0:0:0:
73,260,70223,1,0,0:0:0:0:
73,260,70338,2,0,P|10:262|91:351,1,269.999991760254,2|0,0:0|0:0,0:0:0:0:
213,189,71261,6,0,P|212:130|153:7,1,179.999994506836,2|0,0:0|0:0,0:0:0:0:
448,191,71953,1,0,0:0:0:0:
448,191,72069,1,0,0:0:0:0:
448,191,72184,2,0,P|395:178|377:165,1,44.999998626709
357,107,72415,6,0,P|370:48|371:-3,1,89.9999972534181,2|2,0:0|0:0,0:0:0:0:
213,189,72876,2,0,P|200:130|199:79,1,89.9999972534181,0|2,0:0|0:0,0:0:0:0:
310,318,73338,2,0,P|339:284|453:213,1,179.999994506836
306,341,74030,6,0,P|246:362|174:276,1,179.999994506836,2|0,0:0|0:0,0:0:0:0:
206,208,74723,1,0,0:0:0:0:
135,26,74953,2,0,P|61:19|34:27,1,89.9999972534181,2|0,0:0|0:0,0:0:0:0:
48,116,75415,2,0,P|122:123|149:115,1,89.9999972534181
215,72,75876,5,0,0:0:0:0:
215,72,75992,1,0,0:0:0:0:
215,72,76107,2,0,P|288:23|403:56,1,179.999994506836,2|0,0:0|0:0,0:0:0:0:
451,217,76800,6,0,P|472:161|515:90,2,134.999995880127,2|0|0,0:0|0:0|0:0,0:0:0:0:
375,270,77723,2,0,P|396:326|429:373,2,90,2|0|0,0:0|0:0|0:0,0:0:0:0:
355,174,78646,2,0,P|307:165|211:254,1,180,2|0,0:0|0:0,0:0:0:0:
0,372,79569,6,0,B|134:399|51:296|234:336,1,209.999993591309,2|0,0:0|0:0,0:0:0:0:
491,286,80376,1,0,0:0:0:0:
495,303,80492,2,0,P|447:346|412:197,1,314.999990386963,2|0,0:0|0:0,0:0:0:0:
224,14,81415,6,0,P|86:35|15:193,1,314.999990386963,2|0,0:0|0:0,0:0:0:0:
203,373,82338,2,0,P|229:317|203:141,1,209.999993591309
332,374,83030,1,0,0:0:0:0:
332,374,83146,1,0,0:0:0:0:
332,374,83261,6,0,P|328:303|516:314,1,314.999990386963,2|0,0:0|0:0,0:0:0:0:
512,219,84184,2,0,B|387:198|475:123|303:101,1,209.999993591309,2|0,0:0|0:0,0:0:0:0:
26,332,84876,1,0,0:0:0:0:
26,332,84992,1,0,0:0:0:0:
26,332,85107,6,0,P|137:374|157:219,1,314.999990386963,2|0,0:0|0:0,0:0:0:0:
98,43,86030,2,0,P|165:50|282:80,1,157.499995193482
270,79,86492,5,0,0:0:0:0:
368,41,86723,1,0,0:0:0:0:
500,180,86953,1,0,0:0:0:0:
402,142,87184,1,2,0:0:0:0:
309,190,87415,2,0,P|291:253|285:323,1,104.999996795654,0|2,0:0|0:0,0:0:0:0:
387,358,87876,5,0,0:0:0:0:
404,263,88107,1,2,0:0:0:0:
206,208,88338,5,0,0:0:0:0:
197,130,88569,1,2,0:0:0:0:
0,241,88800,6,0,P|-18:300|127:265,1,314.999990386963,2|0,0:0|0:0,0:0:0:0:
77,192,89723,1,2,0:0:0:0:
43,54,89953,2,0,P|122:51|253:6,1,209.999993591309,0|2,0:0|0:0,0:0:0:0:
303,115,90646,6,0,P|351:58|490:83,1,209.999993591309,2|0,0:0|0:0,0:0:0:0:
501,145,91338,1,0,0:0:0:0:
434,369,91569,2,0,P|414:287|397:145,1,209.999993591309,2|0,0:0|0:0,0:0:0:0:
149,174,92261,1,0,0:0:0:0:
149,174,92376,1,0,0:0:0:0:
149,174,92492,6,0,L|133:248,2,52.4999983978272
165,155,92838,2,0,P|222:143|186:34,1,157.499995193482,0|2,0:0|0:0,0:0:0:0:
68,136,93415,2,0,P|41:220|34:328,1,180,2|0,0:0|0:0,0:0:0:0:
484,352,94338,6,0,B|409:380|298:369|376:287|287:260|187:294,1,314.999990386963,2|0,0:0|0:0,0:0:0:0:
424,254,95261,2,0,P|434:201|462:35,1,209.999993591309,2|0,0:0|0:0,0:0:0:0:
274,98,95953,1,0,0:0:0:0:
274,98,96069,1,0,0:0:0:0:
274,98,96184,6,0,P|221:158|134:11,1,314.999990386963,2|0,0:0|0:0,0:0:0:0:
2,161,97107,2,0,P|15:240|51:382,1,209.999993591309
469,357,97800,1,0,0:0:0:0:
469,357,97915,1,0,0:0:0:0:
469,357,98030,6,0,P|381:348|256:316,1,209.999993591309
293,122,98838,1,0,0:0:0:0:
299,94,98953,2,0,P|351:54|405:217,1,314.999990386963,2|0,0:0|0:0,0:0:0:0:
48,301,99876,6,0,B|-6:353|27:398|73:422|136:397|146:318|132:250|91:185,1,314.999990386963,2|0,0:0|0:0,0:0:0:0:
0,60,100800,2,0,P|13:108|131:99,1,157.499995193482
125,101,101261,5,0,0:0:0:0:
204,61,101492,2,0,L|233:150,1,52.4999983978272,2|0,0:0|0:0,0:0:0:0:
289,208,101723,5,0,0:0:0:0:
368,248,101954,1,2,0:0:0:0:
501,57,102184,6,0,B|369:53|455:147|322:133,2,209.999993591309,2|0|0,0:0|0:0|0:0,0:0:0:0:
339,44,103338,1,0,0:0:0:0:
464,335,103569,2,0,P|460:187|322:133,1,314.999990386963,2|0,0:0|0:0,0:0:0:0:
36,362,104492,6,0,P|122:351|243:288,1,209.999993591309,2|0,0:0|0:0,0:0:0:0:
317,349,105184,2,0,P|326:290|349:224,1,104.999996795654,2|0,0:0|0:0,0:0:0:0:
368,171,105646,1,2,0:0:0:0:
232,206,105876,2,0,P|146:195|25:132,1,209.999993591309,2|0,0:0|0:0,0:0:0:0:
264,77,106569,5,0,0:0:0:0:
351,57,106800,1,2,0:0:0:0:
438,37,107030,1,0,0:0:0:0:
512,212,107261,5,2,0:0:0:0:
368,180,107492,1,0,0:0:0:0:
440,196,107723,1,0,0:0:0:0:
296,164,107953,1,0,0:0:0:0:
389,362,108184,6,0,P|468:339|503:313,1,104.999996795654,2|0,0:0|0:0,0:0:0:0:
278,322,108646,2,0,P|199:345|164:371,1,104.999996795654
362,251,109107,6,0,P|386:179|390:59,1,180,2|0,0:0|0:0,0:0:0:0:
391,75,110030,6,0,P|329:84|249:105,1,104.999996795654,2|0,0:0|0:0,0:0:0:0:
104,152,110492,2,0,P|42:143|-38:122,1,104.999996795654
171,0,110953,2,0,L|188:106,1,104.999996795654,2|0,0:0|0:0,0:0:0:0:
266,271,111415,2,0,L|249:377,1,104.999996795654
67,266,111876,2,0,P|118:254|170:247,1,104.999996795654,2|0,0:0|0:0,0:0:0:0:
354,306,112338,2,0,P|405:317|457:324,1,104.999996795654
479,114,112800,6,0,P|397:105|269:292,1,314.999990386963,2|0,0:0|0:0,0:0:0:0:
313,345,113723,1,2,0:0:0:0:
385,272,113953,2,0,B|252:262|330:353|163:325,1,209.999993591309
123,283,114646,1,2,0:0:0:0:
376,60,115030,5,0,0:0:0:0:
155,173,115338,5,2,0:0:0:0:
417,331,115646,5,0,0:0:0:0:
375,290,115800,1,2,0:0:0:0:
327,309,115953,1,0,0:0:0:0:
290,263,116107,1,0,0:0:0:0:
240,276,116261,2,0,P|229:309|228:328,1,45
230,336,116492,6,0,B|209:355|172:357|151:330|168:270|233:258|292:282|255:345|311:360|406:338,1,314.999990386963,2|0,0:0|0:0,0:0:0:0:
508,228,117415,6,0,P|523:154|505:111,1,104.999996795654,2|0,0:0|0:0,0:0:0:0:
282,33,117876,2,0,P|209:56|180:92,1,104.999996795654
174,367,118338,6,0,P|111:325|93:282,1,104.999996795654,2|0,0:0|0:0,0:0:0:0:
309,208,118800,1,0,0:0:0:0:
322,247,118915,1,0,0:0:0:0:
334,286,119030,1,0,0:0:0:0:
181,187,119261,6,0,P|165:113|184:70,1,104.999996795654,2|0,0:0|0:0,0:0:0:0:
309,30,119723,2,0,P|352:59|376:106,1,104.999996795654
174,367,120184,6,0,P|238:297|471:253,1,314.999990386963,2|0,0:0|0:0,0:0:0:0:
491,377,121107,2,0,P|429:385|380:243,1,225
495,17,122030,6,0,B|423:-11|254:39|398:100|271:149|159:111,1,360,2|0,0:0|0:0,0:0:0:0:
90,86,122953,2,0,P|78:44|165:39,1,150
165,43,123646,1,2,0:0:0:0:
167,55,123876,1,6,0:0:0:0:
256,192,125030,12,0,127453,0:0:0:0:
95,369,127569,6,0,B|52:337|52:337|76:195,1,150,12|0,0:0|2:3,0:0:0:0:
130,153,127915,1,0,2:3:0:0:
145,139,128030,2,0,P|68:113|7:107,1,134.999995880127,8|2,0:0|2:3,0:0:0:0:
241,282,128376,1,0,2:3:0:0:
166,246,128492,6,0,B|227:258|227:258|295:216|295:216|374:230,1,202.499993820191,8|2,0:0|2:3,0:0:0:0:
361,245,128953,1,4,0:0:0:0:
507,1,129184,2,0,P|507:52|475:74,1,67.4999979400635,2|0,0:0|0:0,0:0:0:0:
359,109,129415,6,0,P|325:49|154:54,1,202.499993820191,8|0,0:0|2:3,0:0:0:0:
13,94,129876,2,0,P|93:88|100:27,1,134.999995880127,8|2,0:0|2:3,0:0:0:0:
246,376,130338,6,0,P|277:297|274:274,1,67.4999979400635,8|0,0:0|0:0,0:0:0:0:
367,324,130569,2,0,P|360:291|345:262,1,67.4999979400635,6|0,0:0|0:0,0:0:0:0:
148,201,130800,6,0,P|114:207|84:222,1,67.4999979400635,8|0,0:0|0:0,0:0:0:0:
186,275,131030,2,0,P|167:302|157:334,1,67.4999979400635,6|0,0:0|0:0,0:0:0:0:
443,226,131261,6,0,P|460:123|464:14,1,150,12|0,0:0|2:3,0:0:0:0:
356,22,131607,1,0,2:3:0:0:
343,2,131723,2,0,P|267:22|250:113,1,134.999995880127,8|2,0:0|2:3,0:0:0:0:
175,340,132069,1,0,2:3:0:0:
193,259,132184,6,0,B|331:230|331:230|373:311,1,202.499993820191,8|2,0:0|2:3,0:0:0:0:
369,306,132646,1,4,0:0:0:0:
48,376,132876,2,0,P|38:359|40:293,1,67.4999979400635,2|0,0:0|0:0,0:0:0:0:
0,61,133107,6,0,P|110:131|149:113,1,134.999995880127,8|0,0:0|2:3,0:0:0:0:
338,61,133453,1,0,2:3:0:0:
328,42,133569,2,0,P|234:19|202:113,1,202.499993820191,8|0,0:0|2:3,0:0:0:0:
397,347,134030,6,0,L|441:248,1,67.4999979400635,8|0,0:0|0:0,0:0:0:0:
396,210,134261,2,0,L|440:111,1,67.4999979400635,6|0,0:0|0:0,0:0:0:0:
181,384,134492,6,0,L|137:285,1,67.4999979400635,8|0,0:0|0:0,0:0:0:0:
182,247,134723,2,0,L|138:148,1,67.4999979400635,6|0,0:0|0:0,0:0:0:0:
290,369,134953,6,0,B|302:315|302:315|283:285|283:285|302:167,1,150,12|0,0:0|2:3,0:0:0:0:
213,115,135300,1,0,2:3:0:0:
197,101,135415,2,0,L|340:81,1,134.999995880127,8|2,0:0|2:3,0:0:0:0:
512,82,135761,1,0,2:3:0:0:
496,7,135876,6,0,B|429:31|429:31|444:175,1,202.499993820191,8|2,0:0|2:3,0:0:0:0:
455,177,136338,1,4,0:0:0:0:
485,373,136569,2,0,P|450:370|415:351,1,67.4999979400635,2|0,0:0|0:0,0:0:0:0:
78,377,136800,6,0,P|91:325|209:295,1,134.999995880127,8|0,0:0|2:3,0:0:0:0:
295,361,137146,1,0,2:3:0:0:
285,378,137261,2,0,P|251:307|235:163,1,202.499993820191,8|0,0:0|2:3,0:0:0:0:
263,56,137723,6,0,P|261:35|261:56,1,67.4999979400635,8|0,0:0|0:0,0:0:0:0:
170,120,137953,2,0,P|148:112|172:114,1,67.4999979400635,6|0,0:0|0:0,0:0:0:0:
347,259,138184,6,0,P|342:282|342:259,1,67.4999979400635,8|0,0:0|0:0,0:0:0:0:
402,170,138414,2,0,P|422:180|403:169,1,67.4999979400635,6|0,0:0|0:0,0:0:0:0:
220,214,138646,6,0,B|155:233|155:233|124:309|124:309|-3:343,1,225,12|0,0:0|2:3,0:0:0:0:
43,346,139107,2,0,B|31:326|31:326|55:253,1,67.4999979400635,8|0,0:0|0:0,0:0:0:0:
194,24,139338,1,2,2:3:0:0:
194,24,139453,1,0,2:3:0:0:
133,79,139569,6,0,L|-12:56,1,134.999995880127,8|2,0:0|2:3,0:0:0:0:
11,190,139915,1,2,2:3:0:0:
22,173,140030,2,0,L|130:155,1,67.4999979400635,4|0,0:0|0:0,0:0:0:0:
171,149,140261,1,2,0:0:0:0:
308,372,140492,6,0,P|332:299|341:141,1,202.499993820191,8|0,0:0|2:3,0:0:0:0:
323,86,140953,2,0,P|396:64|418:66,1,67.4999979400635,8|0,0:0|0:0,0:0:0:0:
406,152,141184,2,0,P|333:174|311:172,1,67.4999979400635,2|0,2:3|0:0,0:0:0:0:
232,72,141415,6,0,L|218:-8,1,67.4999979400635,8|0,0:0|0:0,0:0:0:0:
485,113,141646,2,0,L|499:33,1,67.4999979400635,4|0,2:3|0:0,0:0:0:0:
258,232,141876,6,0,L|244:152,1,67.4999979400635,8|0,0:0|0:0,0:0:0:0:
461,289,142107,2,0,L|475:209,1,67.4999979400635,6|0,2:3|0:0,0:0:0:0:
239,377,142338,6,0,P|167:302|59:280,1,150,12|0,0:0|2:3,0:0:0:0:
19,306,142684,1,0,2:3:0:0:
0,314,142800,2,0,P|29:379|76:352,1,134.999995880127,8|2,0:0|2:3,0:0:0:0:
153,196,143146,1,0,2:3:0:0:
74,219,143261,6,0,P|44:137|39:20,1,150,12|0,0:0|2:3,0:0:0:0:
169,1,143607,1,0,2:3:0:0:
154,15,143723,2,0,L|36:-12,1,67.4999979400635,8|0,0:0|0:0,0:0:0:0:
140,107,143953,2,0,L|205:91,1,67.4999979400635,2|0,2:3|0:0,0:0:0:0:
382,297,144184,6,0,B|443:269|443:269|419:92,1,225,12|0,0:0|2:3,0:0:0:0:
424,90,144646,2,0,B|455:84|455:84|512:118,1,75,8|0,0:0|0:0,0:0:0:0:
512,191,144876,1,2,2:3:0:0:
257,297,145107,6,0,L|267:372,1,75,8|0,0:0|0:0,0:0:0:0:
241,127,145338,1,0,0:0:0:0:
241,127,145453,1,0,0:0:0:0:
308,75,145569,6,0,L|368:30,1,75,8|0,0:0|0:0,0:0:0:0:
246,214,145800,1,6,0:0:0:0:
246,214,145915,1,0,0:0:0:0:
167,174,146030,6,0,L|30:116,1,150,12|0,0:0|2:3,0:0:0:0:
20,351,146376,1,0,2:3:0:0:
32,366,146492,2,0,P|108:345|104:253,1,150,6|0,0:0|2:3,0:0:0:0:
19,100,146838,1,0,2:3:0:0:
0,19,146953,6,0,B|39:-3|39:-3|207:56,1,150,12|0,0:0|2:3,0:0:0:0:
99,176,147300,1,0,2:3:0:0:
116,190,147415,2,0,P|137:101|148:47,1,75,8|0,0:0|0:0,0:0:0:0:
211,78,147646,1,2,2:3:0:0:
119,347,147876,2,0,L|254:324,1,75,8|0,0:0|0:0,0:0:0:0:
426,236,148107,6,0,P|439:189|385:146,1,75,6|0,0:0|0:0,0:0:0:0:
302,245,148338,2,0,P|336:279|400:254,1,75,8|0,0:0|0:0,0:0:0:0:
355,131,148569,2,0,P|307:143|297:211,1,75,6|0,0:0|0:0,0:0:0:0:
431,320,148800,6,0,L|484:407,1,75,8|0,0:0|0:0,0:0:0:0:
423,84,149030,2,0,L|471:-5,1,75,0|0,2:3|2:3,2:3:0:0:
222,208,149261,2,0,L|120:210,1,75,8|0,0:0|0:0,0:0:0:0:
359,207,149492,1,6,0:0:0:0:
359,207,149607,1,2,0:0:0:0:
326,292,149723,6,0,B|298:337|298:337|160:324|160:324|236:287,1,225,12|0,0:0|2:3,0:0:0:0:
190,309,150184,2,0,L|206:385,1,67.4999979400635,8|0,0:0|0:0,0:0:0:0:
58,165,150415,1,2,2:3:0:0:
58,165,150530,1,0,2:3:0:0:
93,238,150646,6,0,L|64:382,1,134.999995880127,8|2,0:0|2:3,0:0:0:0:
0,295,150992,1,2,2:3:0:0:
0,295,151107,1,4,0:0:0:0:
214,153,151338,2,0,L|147:166,1,67.4999979400635,2|0,0:0|0:0,0:0:0:0:
283,347,151569,6,0,B|329:374|329:374|478:326,1,150,8|0,0:0|2:3,0:0:0:0:
480,212,151915,1,0,2:3:0:0:
474,192,152030,2,0,B|369:174|369:174|381:243,1,134.999995880127,8|2,0:0|2:3,0:0:0:0:
377,221,152376,1,0,2:3:0:0:
315,108,152492,6,0,L|286:40,1,75,8|0,0:0|0:0,0:0:0:0:
415,135,152723,2,0,L|385:66,1,75,6|0,0:0|0:0,0:0:0:0:
123,183,152953,6,0,L|153:115,1,75,8|0,0:0|0:0,0:0:0:0:
24,209,153184,2,0,L|54:141,1,75,6|0,0:0|0:0,0:0:0:0:
235,156,153415,1,8,0:0:0:0:
130,375,153646,6,0,P|109:347|129:286,1,75,2|0,0:0|0:0,0:0:0:0:
309,339,153876,2,0,P|223:363|205:275,1,150,8|0,0:0|2:3,0:0:0:0:
305,255,154223,1,0,2:3:0:0:
381,293,154338,6,0,P|427:293|490:167,1,179.999994506836,8|0,0:0|2:3,0:0:0:0:
478,107,154684,1,0,2:3:0:0:
400,162,154800,6,0,P|354:162|291:36,1,165.000005035401,8|2,0:0|2:3,0:0:0:0:
302,0,155146,1,0,2:3:0:0:
261,124,155261,6,0,L|51:105,1,150,8|0,0:0|2:3,0:0:0:0:
33,133,155607,1,0,2:3:0:0:
17,115,155723,1,8,0:0:0:0:
16,92,155838,1,0,0:0:0:0:
32,76,155953,2,0,P|50:32|51:-3,1,75,2|0,2:3|0:0,0:0:0:0:
31,304,156184,6,0,B|65:338|65:338|52:274,1,89.9999972534181,8|0,0:0|0:0,0:0:0:0:
163,111,156415,2,0,B|197:77|197:77|184:141,1,89.9999972534181,6|0,0:0|0:0,0:0:0:0:
307,340,156646,2,0,B|341:374|341:374|328:310,1,89.9999972534181,8|0,0:0|0:0,0:0:0:0:
439,147,156877,2,0,B|473:113|473:113|460:177,1,89.9999972534181,2|0,0:0|0:0,0:0:0:0:
359,217,157107,6,0,B|337:222|318:212|318:212|292:219|279:233|279:233|246:221|208:240,1,134.999995880127,4|0,0:0|0:0,0:0:0:0:
188,320,157569,6,0,B|111:359|44:355|44:355|12:239|45:117|45:117|106:159|180:159|180:159|134:193|121:237,1,629.999980773926
256,192,170030,12,0,171646,0:0:0:0:
153,363,171806,5,8,0:0:0:0:
219,235,172036,1,0,2:3:0:0:
196,231,172152,1,0,2:3:0:0:
175,227,172267,6,0,L|166:155,1,67.4999979400635,8|0,0:0|0:0,0:0:0:0:
74,177,172498,2,0,L|83:249,1,67.4999979400635,2|2,2:3|2:3,0:0:0:0:
308,353,172729,6,0,B|365:327|365:327|332:141,1,202.499993820191,12|0,0:0|0:0,0:0:0:0:
340,103,173190,2,0,L|441:125,1,67.4999979400635
499,185,173421,2,0,L|398:207,1,67.4999979400635,0|0,2:3|2:3,0:0:0:0:
215,21,173652,6,0,P|245:95|130:114,1,202.499993820191
94,83,174113,2,0,P|93:64|101:42,2,33.7499989700318,0|0|2,0:0|2:0|2:0,0:0:0:0:
106,203,174344,1,0,3:0:0:0:
106,203,174459,1,2,3:0:0:0:
15,175,174575,5,8,0:0:0:0:
15,175,174690,2,0,P|11:208|26:239,1,67.4999979400635,0|0,0:0|2:3,0:0:0:0:
194,223,174921,2,0,P|198:190|184:160,2,67.4999979400635,2|8|0,2:3|0:0|0:0,0:0:0:0:
110,327,175267,1,2,0:0:0:0:
110,327,175382,1,2,0:0:0:0:
110,327,175498,6,0,L|257:343,1,134.999995880127,8|0,0:0|2:3,0:0:0:0:
262,331,175844,1,2,2:3:0:0:
280,320,175959,1,8,0:0:0:0:
228,228,176190,2,0,L|182:221,2,33.7499989700318,2|0|2,0:0|0:0|0:0,0:0:0:0:
327,224,176421,5,8,0:0:0:0:
341,207,176536,2,0,L|435:221,1,67.4999979400635,0|0,0:0|2:0,0:0:0:0:
507,302,176767,2,0,L|413:316,1,67.4999979400635,0|0,2:3|0:0,0:0:0:0:
307,363,176998,2,0,L|401:377,1,67.4999979400635,0|0,2:3|2:3,0:0:0:0:
23,343,177344,6,0,L|17:252,1,67.4999979400635
27,180,177575,5,2,2:3:0:0:
46,185,177690,1,0,2:3:0:0:
78,172,177806,1,8,0:0:0:0:
97,177,177921,1,0,2:3:0:0:
138,161,178036,1,2,2:3:0:0:
157,166,178151,1,0,2:3:0:0:
235,158,178267,5,8,0:0:0:0:
243,176,178382,1,0,2:3:0:0:
303,187,178498,1,2,2:3:0:0:
311,205,178613,1,0,2:3:0:0:
378,236,178729,2,0,L|490:213,2,67.4999979400635,12|0|0,0:0|0:0|2:3,0:0:0:0:
139,351,179190,5,0,0:0:0:0:
75,293,179306,2,0,P|93:278|160:268,1,67.4999979400635,0|0,0:0|2:3,0:0:0:0:
125,183,179536,2,0,P|148:185|202:225,1,67.4999979400635,2|0,0:0|2:3,0:0:0:0:
223,283,179767,1,0,2:3:0:0:
223,283,179882,1,2,0:0:0:0:
444,222,180113,5,8,0:0:0:0:
508,164,180229,2,0,P|490:149|423:139,1,67.4999979400635,0|2,0:0|0:0,0:0:0:0:
458,54,180459,2,0,P|434:56|380:96,1,67.4999979400635,0|2,0:0|0:0,0:0:0:0:
360,154,180690,1,8,0:0:0:0:
360,154,180805,1,2,2:3:0:0:
0,89,181036,6,0,L|13:2,1,67.4999979400635,8|0,0:0|0:0,0:0:0:0:
83,102,181267,2,0,L|96:15,1,67.4999979400635,2|0,0:0|0:0,0:0:0:0:
166,115,181498,5,0,0:0:0:0:
166,115,181613,1,2,0:0:0:0:
166,115,181729,2,0,L|179:28,1,67.4999979400635,0|2,0:0|0:0,0:0:0:0:
216,206,181959,5,8,0:0:0:0:
154,202,182075,1,0,2:3:0:0:
95,199,182190,2,0,B|61:195|61:195|21:233|21:233|-38:222,2,134.999995880127,2|8|0,2:3|0:0|0:0,0:0:0:0:
169,366,182882,6,0,L|144:279,1,67.4999979400635,8|0,0:0|0:0,0:0:0:0:
269,381,183113,2,0,L|244:294,1,67.4999979400635,2|0,2:3|0:0,0:0:0:0:
226,229,183344,1,6,0:0:0:0:
312,256,183459,5,0,0:0:0:0:
312,256,183575,2,0,L|337:169,1,67.4999979400635
358,113,183806,1,8,0:0:0:0:
422,176,183921,6,0,L|447:89,1,67.4999979400635,2|0,2:3|0:0,0:0:0:0:
268,127,184152,2,0,L|293:40,1,67.4999979400635,2|8,2:3|0:0,0:0:0:0:
114,78,184382,1,0,2:3:0:0:
114,78,184498,2,0,L|139:-9,1,67.4999979400635,2|0,2:3|0:0,0:0:0:0:
190,100,184729,1,8,0:0:0:0:
130,159,184844,6,0,L|45:178,1,67.4999979400635,2|0,0:0|0:0,0:0:0:0:
252,206,185075,2,0,L|337:225,1,67.4999979400635,2|8,2:3|0:0,0:0:0:0:
74,252,185306,1,0,2:3:0:0:
74,252,185421,2,0,L|16:264,2,33.7499989700318,2|0|0,2:3|0:0|0:0,0:0:0:0:
181,292,185652,5,8,0:0:0:0:
224,341,185767,1,0,2:3:0:0:
290,345,185882,1,2,2:3:0:0:
341,304,185998,1,0,2:3:0:0:
392,263,186113,1,8,0:0:0:0:
458,267,186228,1,2,0:0:0:0:
501,316,186343,1,2,0:0:0:0:
496,379,186459,1,2,0:0:0:0:
424,339,186575,5,12,0:0:0:0:
256,192,186690,12,2,187959,0:0:0:0:
130,363,188421,6,0,L|121:264,1,89.9999972534181,8|2,3:2|0:0,0:0:0:0:
121,273,189113,1,0,0:0:0:0:
472,312,189344,1,8,3:2:0:0:
472,312,189806,5,2,0:0:0:0:
454,315,189921,1,0,0:0:0:0:
436,318,190036,1,0,0:0:0:0:
418,321,190152,1,0,0:0:0:0:
382,363,190267,6,0,L|391:264,1,89.9999972534181,8|2,3:2|0:0,0:0:0:0:
390,273,190959,1,0,0:0:0:0:
121,273,191190,1,8,3:2:0:0:
121,273,191652,5,2,0:0:0:0:
71,203,191882,1,0,0:0:0:0:
71,203,191998,1,0,0:0:0:0:
131,130,192113,6,0,L|32:116,1,89.9999972534181,8|0,3:2|0:0,0:0:0:0:
41,117,192806,1,2,0:0:0:0:
406,251,193036,1,8,3:2:0:0:
406,251,193267,5,2,0:0:0:0:
423,247,193382,1,0,0:0:0:0:
429,233,193498,5,8,3:2:0:0:
432,215,193613,1,0,0:0:0:0:
435,197,193729,1,0,0:0:0:0:
438,179,193844,1,0,0:0:0:0:
381,130,193959,6,0,L|480:116,1,89.9999972534181,8|2,3:2|0:0,0:0:0:0:
470,117,194652,1,0,0:0:0:0:
263,36,194882,5,8,3:2:0:0:
234,60,194997,1,0,0:0:0:0:
220,95,195112,1,0,0:0:0:0:
224,133,195228,1,0,0:0:0:0:
246,164,195343,5,0,0:0:0:0:
274,188,195459,1,0,0:0:0:0:
288,223,195574,1,0,0:0:0:0:
284,261,195690,1,0,0:0:0:0:
241,324,195806,6,0,L|116:308,1,104.999996795654,8|0,3:2|0:0,0:0:0:0:
63,352,196152,1,2,0:0:0:0:
51,341,196267,2,0,P|40:280|76:247,1,104.999996795654,8|0,3:2|0:0,0:0:0:0:
163,212,196613,1,2,0:0:0:0:
175,201,196728,2,0,P|186:140|150:107,1,104.999996795654,8|0,3:2|0:0,0:0:0:0:
50,42,197075,1,0,0:0:0:0:
40,54,197190,2,0,L|126:47,1,52.4999983978272,8|0,3:2|0:0,0:0:0:0:
79,145,197421,2,0,L|-7:138,1,52.4999983978272
187,19,197652,6,0,B|275:36|213:92|326:112,1,157.499995193482,8|0,3:2|0:0,0:0:0:0:
374,164,198113,2,0,P|397:108|374:60,1,104.999996795654,8|0,3:2|0:0,0:0:0:0:
300,198,198575,2,0,P|305:258|325:375,1,157.499995193482,8|0,3:2|0:0,0:0:0:0:
454,327,199036,5,8,3:2:0:0:
454,327,199152,1,0,0:0:0:0:
400,317,199267,5,0,0:0:0:0:
472,376,199382,1,0,0:0:0:0:
487,284,199498,1,8,3:2:0:0:
289,291,199844,5,0,0:0:0:0:
273,289,199959,1,8,3:2:0:0:
377,241,200190,2,0,P|396:178|402:142,1,52.4999983978272,2|0,0:0|0:0,0:0:0:0:
484,78,200421,5,8,3:2:0:0:
477,92,200537,2,0,P|402:104|374:69,1,104.999996795654
298,68,200882,2,0,L|315:2,1,52.4999983978272,8|0,3:2|0:0,0:0:0:0:
220,92,201113,2,0,L|203:26,1,52.4999983978272,2|0,0:0|0:0,0:0:0:0:
119,22,201344,5,8,3:2:0:0:
44,191,201575,1,2,0:0:0:0:
54,179,201690,1,2,0:0:0:0:
65,167,201806,2,0,P|136:174|164:266,1,157.499995193482,8|0,3:2|0:0,0:0:0:0:
114,373,202267,6,0,P|69:330|91:293,1,104.999996795654,8|0,3:2|0:0,0:0:0:0:
98,302,202613,2,0,L|218:322,1,104.999996795654,8|0,3:2|3:2,0:0:0:0:
207,333,202959,2,0,L|277:321,1,52.4999983978272,2|0,0:0|0:0,0:0:0:0:
377,364,203190,6,0,B|415:345|415:345|396:239,1,104.999996795654,8|0,3:2|0:0,0:0:0:0:
448,210,203536,1,2,0:0:0:0:
458,197,203652,2,0,L|476:91,1,104.999996795654,8|0,3:2|0:0,0:0:0:0:
365,122,203998,1,2,0:0:0:0:
355,109,204114,2,0,L|337:3,1,104.999996795654,8|0,3:2|0:0,0:0:0:0:
259,81,204459,1,0,0:0:0:0:
254,96,204575,2,0,P|182:96|162:79,1,52.4999983978272,8|0,3:2|0:0,0:0:0:0:
188,8,204806,2,0,P|260:8|280:25,1,52.4999983978272
296,191,205036,6,0,P|282:264|247:375,1,157.499995193482,8|2,3:2|0:0,0:0:0:0:
174,375,205498,2,0,P|119:350|126:290,1,104.999996795654,8|0,3:2|0:0,0:0:0:0:
371,296,205959,2,0,P|430:288|508:268,1,104.999996795654,8|0,3:2|0:0,0:0:0:0:
480,263,206306,1,0,0:0:0:0:
484,247,206421,1,8,3:2:0:0:
432,41,206652,1,2,0:0:0:0:
432,41,206767,1,0,0:0:0:0:
491,92,206882,6,0,L|479:163,1,52.4999983978272,8|0,3:2|0:0,0:0:0:0:
406,187,207113,2,0,L|397:135,2,52.4999983978272,2|0|8,0:0|0:0|3:2,0:0:0:0:
301,384,207575,2,0,L|292:332,1,52.4999983978272,2|0,0:0|0:0,0:0:0:0:
354,271,207806,6,0,B|331:239|331:239|255:246,1,104.999996795654,8|0,3:2|0:0,0:0:0:0:
202,302,208152,1,0,0:0:0:0:
194,316,208267,2,0,L|177:238,1,52.4999983978272,8|0,3:2|0:0,0:0:0:0:
102,328,208498,2,0,L|85:406,1,52.4999983978272,0|0,0:0|2:3,0:0:0:0:
206,179,208729,5,8,3:2:0:0:
206,179,208844,1,0,0:0:0:0:
53,42,209075,1,0,0:0:0:0:
47,56,209190,6,0,P|130:73|186:23,1,157.499995193482,8|0,3:2|0:0,0:0:0:0:
269,27,209652,1,8,3:2:0:0:
269,27,209767,1,0,0:0:0:0:
464,207,210113,5,8,3:2:0:0:
466,191,210229,1,0,0:0:0:0:
468,175,210344,1,2,0:0:0:0:
470,159,210459,1,2,0:0:0:0:
472,143,210575,1,12,0:0:0:0:
208,353,211036,5,2,0:0:0:0:
269,279,211267,1,0,0:0:0:0:
92,230,211498,1,2,0:0:0:0:
186,245,211729,1,0,0:0:0:0:
140,69,211959,1,2,0:0:0:0:
174,158,212190,1,0,0:0:0:0:
237,89,212421,6,0,P|296:61|365:128,1,157.499995193482,2|0,0:0|0:0,0:0:0:0:
364,128,212882,2,0,L|381:11,1,90,2|0,0:0|0:0,0:0:0:0:
456,228,213344,6,0,P|373:225|360:291,1,150,2|0,0:0|0:0,0:0:0:0:
344,281,213690,2,0,P|382:354|446:332,1,150,2|0,0:0|0:0,0:0:0:0:
445,351,214036,2,0,P|489:280|438:236,1,150,0|6,0:0|0:0,0:0:0:0:
25,288,214959,5,0,0:0:0:0:
169,333,215190,5,2,0:0:0:0:
157,244,215421,1,0,0:0:0:0:
95,152,215652,1,2,0:0:0:0:
175,113,215883,1,0,0:0:0:0:
243,26,216113,5,2,0:0:0:0:
35,26,216344,2,0,L|43:88,1,52.4999983978272
127,52,216575,2,0,L|133:0,1,52.4999983978272,2|0,0:0|0:0,0:0:0:0:
102,139,216806,1,0,0:0:0:0:
102,139,216921,1,0,0:0:0:0:
66,351,217152,6,0,L|-2:341,1,52.4999983978272
27,268,217382,1,2,0:0:0:0:
27,268,217498,2,0,L|95:278,1,52.4999983978272
227,384,217729,1,0,0:0:0:0:
227,384,217844,1,0,0:0:0:0:
227,384,217959,6,0,P|236:324|269:206,2,157.499995193482,6|0|0,0:0|0:0|0:0,0:0:0:0:
509,332,218882,2,0,P|456:322|353:293,1,157.499995193482
349,279,219344,1,2,0:0:0:0:
371,384,219575,1,0,0:0:0:0:
273,121,219806,6,0,P|209:81|164:201,1,209.999993591309,2|0,0:0|0:0,0:0:0:0:
73,372,220498,1,0,0:0:0:0:
73,372,220613,1,0,0:0:0:0:
28,291,220729,6,0,P|92:251|137:371,1,209.999993591309,0|2,0:0|0:0,0:0:0:0:
73,133,221421,1,2,0:0:0:0:
73,133,221536,1,0,0:0:0:0:
145,172,221652,6,0,P|181:175|278:127,2,104.999996795654,2|0|0,0:0|0:0|0:0,0:0:0:0:
73,133,222344,1,0,0:0:0:0:
212,260,222575,5,2,0:0:0:0:
249,69,222806,1,0,0:0:0:0:
338,169,223036,1,2,0:0:0:0:
391,108,223267,1,0,0:0:0:0:
490,165,223498,1,6,0:0:0:0:
490,165,223729,6,0,L|477:230,2,52.4999983978272
415,120,224075,2,0,L|402:55,2,52.4999983978272
342,154,224421,6,0,L|329:219,1,52.4999983978272
273,118,224652,2,0,L|260:53,1,52.4999983978272
191,27,224882,6,0,L|117:12,1,67.4999979400635
390,271,225113,2,0,L|464:286,2,44.999998626709
79,365,225344,6,0,B|20:335|20:335|44:206,1,150,8|0,0:0|2:3,0:0:0:0:
52,144,225690,1,0,2:3:0:0:
63,163,225806,2,0,P|115:88|51:59,1,150,8|2,0:0|2:3,0:0:0:0:
126,235,226152,1,0,2:3:0:0:
183,166,226267,6,0,B|263:184|263:184|282:239|282:239|368:258,1,225,8|2,0:0|2:3,0:0:0:0:
482,297,226729,2,0,B|490:245|443:217|443:217|462:254|442:297,1,150,8|0,0:0|2:3,0:0:0:0:
446,287,227075,1,2,2:3:0:0:
379,164,227190,6,0,B|360:107|385:49|476:29|489:75|483:156|417:141,1,225,12|0,0:0|0:0,0:0:0:0:
355,62,227652,2,0,P|256:40|163:26,1,150,12|0,0:0|2:3,0:0:0:0:
78,362,228113,6,0,P|144:282|90:228,1,150,8|0,0:0|2:3,0:0:0:0:
113,253,228459,1,2,2:3:0:0:
217,294,228575,6,0,L|319:267,1,75,8|0,0:0|0:0,0:0:0:0:
100,257,228806,2,0,L|-2:230,1,75,2|0,2:3|0:0,0:0:0:0:
165,43,229036,6,0,L|191:251,1,150,8|0,0:0|2:3,0:0:0:0:
289,274,229382,1,0,2:3:0:0:
285,251,229498,2,0,B|381:232|330:298|437:273,1,150,8|2,0:0|2:3,0:0:0:0:
510,116,229844,1,0,2:3:0:0:
492,200,229959,6,0,P|407:177|348:41,1,225,8|2,0:0|2:3,0:0:0:0:
361,45,230421,1,12,0:0:0:0:
285,251,230652,2,0,P|274:292|270:344,1,75,2|0,0:0|0:0,0:0:0:0:
168,372,230882,6,0,P|123:285|9:327,1,225,8|0,0:0|0:0,0:0:0:0:
113,259,231344,2,0,P|109:162|76:94,1,150,8|0,0:0|2:3,0:0:0:0:
355,95,231806,6,0,P|441:92|476:30,1,150,12|0,0:0|2:3,0:0:0:0:
471,22,232152,1,2,2:3:0:0:
343,91,232267,2,0,P|331:129|339:186,1,75,12|0,0:0|0:0,0:0:0:0:
464,186,232498,2,0,P|476:148|468:91,1,75,2|0,2:3|0:0,0:0:0:0:
386,303,232729,6,0,P|326:318|217:337,1,150,8|0,0:0|2:3,0:0:0:0:
93,382,233075,1,0,2:3:0:0:
113,372,233190,2,0,L|141:205,1,150,8|2,0:0|2:3,0:0:0:0:
156,71,233536,1,0,2:3:0:0:
99,137,233652,6,0,P|12:109|51:3,1,225,8|2,0:0|2:3,0:0:0:0:
60,22,234113,1,12,0:0:0:0:
43,306,234344,2,0,L|145:274,1,75,2|0,0:0|0:0,0:0:0:0:
239,189,234575,6,0,B|344:202|344:202|362:257|362:257|446:268,1,225,8|0,0:0|0:0,0:0:0:0:
501,311,235036,2,0,B|516:382|516:382|487:311,1,150,8|0,0:0|2:3,0:0:0:0:
473,39,235498,6,0,B|384:52|384:52|383:126,1,150,12|0,0:0|2:3,0:0:0:0:
375,133,235844,1,2,2:3:0:0:
307,80,235959,2,0,L|222:66,1,75,12|0,0:0|0:0,0:0:0:0:
437,188,236190,2,0,L|511:200,1,75,2|0,2:3|0:0,0:0:0:0:
240,365,236421,6,0,P|229:270|197:191,1,150,8|0,0:0|2:3,0:0:0:0:
41,160,236767,1,0,2:3:0:0:
23,173,236882,2,0,P|84:238|134:195,1,150,8|2,0:0|2:3,0:0:0:0:
184,28,237229,1,0,2:3:0:0:
254,66,237344,6,0,B|231:90|231:90|106:58,1,150,8|0,0:0|2:3,0:0:0:0:
350,164,237806,2,0,B|462:135|462:135|486:159,1,150,12|0,0:0|2:3,0:0:0:0:
498,178,238152,1,2,2:3:0:0:
400,384,238267,6,0,L|425:223,1,150,8|0,0:0|2:3,0:0:0:0:
322,293,238613,1,0,2:3:0:0:
316,271,238729,2,0,L|188:287,1,75,8|0,0:0|0:0,0:0:0:0:
210,379,238959,2,0,L|284:369,1,75,2|0,2:3|0:0,0:0:0:0:
456,69,239190,6,0,B|372:91|437:136|346:164,1,150,12|0,0:0|2:3,0:0:0:0:
326,152,239536,1,2,2:3:0:0:
307,57,239652,2,0,P|304:36|317:59,1,75,12|0,0:0|0:0,0:0:0:0:
189,251,239882,2,0,P|186:271|199:248,1,75,2|0,2:3|0:0,0:0:0:0:
10,66,240113,6,0,B|70:58|70:58|102:111|102:111|178:102,1,179.999994506836,12|0,0:0|2:3,0:0:0:0:
78,204,240459,1,0,2:3:0:0:
55,218,240575,2,0,B|24:246|24:246|58:389,1,179.999994506836,8|0,0:0|2:3,0:0:0:0:
189,251,240921,1,0,2:3:0:0:
261,295,241036,6,0,L|248:397,1,89.9999972534181,12|0,0:0|0:0,0:0:0:0:
208,170,241267,5,2,2:3:0:0:
238,102,241382,1,2,2:3:0:0:
298,60,241497,1,8,0:0:0:0:
372,56,241613,1,0,0:0:0:0:
437,91,241728,1,2,2:3:0:0:
116,60,241959,5,12,0:0:0:0:
377,300,242190,5,2,2:3:0:0:
347,232,242305,1,2,2:3:0:0:
287,190,242420,1,8,0:0:0:0:
213,186,242536,1,0,0:0:0:0:
148,221,242651,1,2,2:3:0:0:
466,239,242882,6,0,L|482:117,1,89.9999972534181,12|0,0:0|0:0,0:0:0:0:
400,63,243113,2,0,L|388:152,1,89.9999972534181
52,221,243344,6,0,L|36:99,1,89.9999972534181,12|0,0:0|0:0,0:0:0:0:
118,45,243575,2,0,L|129:134,1,89.9999972534181
259,369,243806,6,0,B|316:360|316:360|270:110,1,269.999991760254,12|0,0:0|0:0,0:0:0:0:
485,81,244267,2,0,B|381:89|381:89|357:51|357:51|222:61,1,269.999991760254,8|0,0:0|0:0,0:0:0:0:
9,354,244729,6,0,P|60:251|201:279,1,269.999991760254,12|0,0:0|0:0,0:0:0:0:
463,233,245190,2,0,P|412:130|271:158,1,269.999991760254,8|0,0:0|0:0,0:0:0:0:
34,93,245652,6,0,P|42:49|78:23,1,89.9999972534181,12|0,0:0|0:0,0:0:0:0:
161,41,245882,1,0,2:3:0:0:
158,119,245998,1,2,2:3:0:0:
88,156,246114,1,8,0:0:0:0:
272,281,246344,1,2,2:3:0:0:
487,60,246575,6,0,P|445:53|407:107,1,89.9999972534181,12|0,0:0|0:0,0:0:0:0:
358,0,246806,2,0,P|323:24|334:89,1,89.9999972534181,2|0,2:3|0:3,0:0:0:0:
272,281,247036,6,0,P|230:288|192:234,1,89.9999972534181,12|0,0:0|0:0,0:0:0:0:
143,341,247267,2,0,P|108:316|119:251,1,89.9999972534181,2|0,2:3|0:0,0:0:0:0:
280,180,247498,6,0,B|327:168|377:182|345:221|393:236|466:212,1,179.999994506836,12|0,0:0|2:3,0:0:0:0:
433,344,247844,1,0,2:3:0:0:
420,367,247959,2,0,P|330:322|345:271,1,89.9999972534181,8|0,0:0|0:0,0:0:0:0:
305,269,248190,1,0,2:3:0:0:
506,79,248421,6,0,P|470:132|239:161,1,269.999991760254,12|0,0:0|0:0,0:0:0:0:
190,6,248882,2,0,P|273:4|294:85,1,179.999994506836,8|0,0:0|2:3,0:0:0:0:
271,95,249229,1,2,2:3:0:0:
100,91,249344,6,0,B|49:115|49:115|82:309,1,179.999994506836,12|0,0:0|2:3,0:0:0:0:
149,309,249690,1,0,2:3:0:0:
165,330,249806,2,0,B|138:356|138:356|41:358,1,89.9999972534181,8|0,0:0|0:0,0:0:0:0:
19,308,250036,1,0,2:3:0:0:
440,167,250267,6,0,B|428:278|428:278|373:167,1,179.999994506836,12|0,0:0|2:3,0:0:0:0:
389,205,250613,1,2,2:3:0:0:
432,82,250729,6,0,B|494:93|494:93|515:135,1,89.9999972534181,12|0,0:0|0:0,0:0:0:0:
441,360,250959,2,0,B|379:349|379:349|358:307,1,89.9999972534181,2|0,2:3|0:0,0:0:0:0:
172,134,251190,5,12,0:0:0:0:
172,134,251421,2,0,P|178:93|179:25,1,89.9999972534181,2|0,0:0|0:0,0:0:0:0:
0,161,251652,2,0,B|164:163|36:274|247:295,1,269.999991760254,8|0,0:0|0:0,0:0:0:0:
292,359,252113,6,0,B|343:321|348:243|348:243|382:303|456:322,1,269.999991760254,12|0,0:0|0:0,0:0:0:0:
349,108,252575,2,0,B|276:127|242:187|242:187|237:109|186:71,1,269.999991760254,8|2,0:0|2:3,0:0:0:0:
0,263,253036,6,0,P|77:176|142:196,1,179.999994506836,8|0,0:0|2:3,0:0:0:0:
138,211,253382,1,2,2:3:0:0:
141,237,253498,1,8,0:0:0:0:
384,360,253729,2,0,P|418:331|431:289,1,89.9999972534181,2|0,2:3|0:0,0:0:0:0:
507,200,253959,6,0,B|369:186|369:186|352:128,1,179.999994506836,12|0,0:0|2:3,0:0:0:0:
351,122,254306,1,0,2:3:0:0:
257,152,254421,6,0,L|195:148,2,59.9999981689454,12|0|0,0:0|0:0|0:0,0:0:0:0:
437,100,254652,2,0,L|499:104,2,59.9999981689454
261,380,254882,2,0,B|237:369|237:369|249:267,1,75,8|0,0:0|0:0,0:0:0:0:
315,278,255113,6,0,L|391:288,1,75,0|2,2:3|2:3,0:0:0:0:
508,358,255344,2,0,L|478:286,1,75,8|0,0:0|0:0,0:0:0:0:
480,151,255575,2,0,L|432:212,1,75,2|0,2:3|0:0,0:0:0:0:
429,222,255806,1,0,0:0:0:0:
332,182,255921,6,0,B|336:144|336:144|376:188,1,75,2|2,0:0|2:3,0:0:0:0:
221,247,256152,1,0,2:3:0:0:
214,257,256267,2,0,B|189:284|189:284|185:246,1,75,8|0,0:0|0:0,0:0:0:0:
99,145,256498,2,0,B|74:117|74:117|70:155,1,75,2|0,2:3|0:0,0:0:0:0:
49,384,256729,2,0,L|62:310,1,75,8|0,0:0|0:0,0:0:0:0:
52,40,256959,6,0,P|95:39|138:68,1,75,0|2,2:3|2:3,0:0:0:0:
221,252,257190,2,0,P|198:215|202:163,1,75,8|0,0:0|0:0,0:0:0:0:
321,0,257421,2,0,P|300:37|253:60,1,75,2|0,2:3|0:0,0:0:0:0:
206,103,257652,5,8,0:0:0:0:
206,103,257767,1,0,0:0:0:0:
206,103,257882,1,0,2:3:0:0:
391,231,258113,5,8,0:0:0:0:
411,150,258228,1,0,0:0:0:0:
471,209,258344,1,2,2:3:0:0:
213,326,258575,2,0,L|227:195,1,75,8|0,0:0|0:0,0:0:0:0:
310,351,258806,6,0,L|405:332,1,75,0|2,2:3|2:3,0:0:0:0:
390,230,259036,2,0,L|317:245,1,75,8|0,0:0|0:0,0:0:0:0:
324,139,259267,2,0,L|419:120,1,75,2|0,2:3|0:0,0:0:0:0:
483,104,259498,1,8,0:0:0:0:
196,267,259729,6,0,L|101:248,1,75,2|2,2:3|2:3,0:0:0:0:
115,146,259959,2,0,L|188:160,1,75,8|0,0:0|0:0,0:0:0:0:
203,373,260190,2,0,L|108:354,1,75,2|0,2:3|0:0,0:0:0:0:
256,44,260421,6,0,B|332:69|332:69|318:186,1,150,8|0,0:0|2:3,0:0:0:0:
321,160,260767,1,2,2:3:0:0:
318,182,260882,1,8,0:0:0:0:
166,60,261113,2,0,B|149:25|149:25|182:-10,1,75,2|0,2:3|0:0,0:0:0:0:
83,257,261344,6,0,P|20:245|-12:187,2,75,8|0|0,0:0|0:0|2:3,0:0:0:0:
183,303,261690,2,0,P|204:363|169:420,2,75,2|8|0,2:3|0:0|0:0,0:0:0:0:
172,193,262036,2,0,P|213:144|280:145,1,75,2|0,2:3|0:0,0:0:0:0:
489,217,262267,6,0,B|337:176|439:294|227:231,1,225,12|2,0:0|2:3,0:0:0:0:
439,373,262729,2,0,L|450:283,1,75,8|0,0:0|0:0,0:0:0:0:
321,151,262959,2,0,L|310:61,1,75,2|0,2:3|0:0,0:0:0:0:
360,0,263190,1,8,0:0:0:0:
276,243,263421,6,0,P|236:239|176:224,1,75,2|2,2:3|2:3,0:0:0:0:
124,190,263652,2,0,P|86:193|49:201,1,75,8|0,0:0|0:0,0:0:0:0:
205,0,263882,2,0,P|201:52|193:106,1,75,6|0,0:0|0:0,0:0:0:0:
161,370,264113,1,12,0:0:0:0:
512,363,264344,6,0,P|501:327|474:302,1,75,2|0,0:0|0:0,0:0:0:0:
276,243,264575,2,0,P|311:252|347:240,1,75,8|0,0:0|0:0,0:0:0:0:
497,98,264806,2,0,P|471:124|463:160,1,75,0|2,2:3|2:3,0:0:0:0:
430,236,265036,1,8,0:0:0:0:
260,82,265267,6,0,L|274:-34,1,75,2|0,2:3|0:0,0:0:0:0:
394,309,265498,2,0,L|385:383,1,75,8|0,0:0|0:0,0:0:0:0:
252,166,265729,1,6,0:0:0:0:
252,166,265844,1,0,0:0:0:0:
204,235,265959,6,0,P|108:219|119:148,1,150,12|0,0:0|0:0,0:0:0:0:
132,109,266306,1,2,0:0:0:0:
440,58,266536,5,2,0:0:0:0:
486,132,266652,2,0,P|481:167|446:190,1,75
398,357,266882,2,0,P|437:292|560:326,2,150,8|2|8,0:0|2:3|0:0,0:0:0:0:
64,364,267575,2,0,P|40:330|57:277,1,75,6|0,0:0|0:0,0:0:0:0:
357,233,267806,6,0,P|264:221|183:201,1,150,12|2,0:0|2:3,0:0:0:0:
88,46,268267,1,8,0:0:0:0:
91,68,268382,1,0,0:0:0:0:
93,90,268498,1,2,2:3:0:0:
361,248,268729,6,0,B|393:223|393:223|388:50,1,165.000005035401,12|0,0:0|2:3,0:0:0:0:
455,40,269075,2,0,P|487:49|466:58,1,82.5000025177003,12|0,0:0|0:0,0:0:0:0:
191,101,269421,1,8,0:0:0:0:
191,101,269536,1,0,0:0:0:0:
262,50,269652,6,0,P|284:96|266:138,1,82.5000025177003,12|0,0:0|0:0,0:0:0:0:
117,158,269882,1,2,2:3:0:0:
117,158,269998,2,0,P|96:75|174:20,1,165.000005035401,8|0,0:0|2:3,0:0:0:0:
168,21,270344,1,2,0:0:0:0:
180,222,270575,6,0,P|162:316|139:399,1,165.000005035401,12|0,0:0|2:3,0:0:0:0:
272,326,270921,1,2,2:3:0:0:
274,307,271036,2,0,B|304:297|371:307|330:339|383:351|430:342,1,165.000005035401,8|2,0:0|2:3,0:0:0:0:
429,327,271382,1,0,0:0:0:0:
499,272,271498,6,0,L|514:180,1,82.5000025177003,12|0,0:0|0:0,0:0:0:0:
318,219,271729,2,0,L|303:127,1,82.5000025177003,0|0,2:3|0:0,0:0:0:0:
471,112,271959,2,0,L|486:20,1,82.5000025177003,12|0,0:0|0:0,0:0:0:0:
318,35,272190,1,0,2:3:0:0:
369,17,272306,1,0,2:3:0:0:
361,71,272421,6,0,B|302:40|302:40|250:60|250:60|228:9|228:9|134:-4,1,247.500007553101,8|0,0:0|0:0,0:0:0:0:
100,68,272882,2,0,B|74:57|74:57|64:-3,1,82.5000025177003,12|0,0:0|0:0,0:0:0:0:
226,137,273113,2,0,B|217:190|217:190|191:201,1,82.5000025177003,0|0,2:3|0:0,0:0:0:0:
43,378,273344,6,0,B|31:252|31:252|105:214,1,165.000005035401,12|0,0:0|2:3,0:0:0:0:
149,344,273690,1,2,2:3:0:0:
149,319,273806,2,0,L|253:302,1,82.5000025177003,8|0,0:0|0:0,0:0:0:0:
295,231,274036,2,0,L|380:292,1,82.5000025177003,2|0,2:3|0:0,0:0:0:0:
464,369,274267,6,0,L|485:184,1,165.000005035401,12|0,0:0|2:3,0:0:0:0:
374,16,274613,2,0,L|392:179,1,165.000005035401,2|0,2:3|0:0,0:0:0:0:
499,122,274959,2,0,L|512:40,1,82.5000025177003,2|0,2:3|0:0,0:0:0:0:
294,120,275190,6,0,L|198:133,1,82.5000025177003,12|0,0:0|0:0,0:0:0:0:
18,45,275421,1,0,2:3:0:0:
15,27,275536,2,0,P|121:29|126:93,1,165.000005035401,2|0,2:3|2:3,0:0:0:0:
75,135,275882,2,0,P|61:169|63:232,1,82.5000025177003,2|0,2:3|0:0,0:0:0:0:
97,372,276113,5,12,0:0:0:0:
117,297,276229,2,0,P|82:292|32:330,1,82.5000025177003
229,264,276459,2,0,P|207:235|145:227,1,82.5000025177003,2|8,0:0|0:0,0:0:0:0:
322,336,276690,1,0,0:0:0:0:
313,243,276806,2,0,P|335:278|331:319,1,82.5000025177003,2|0,2:3|2:3,0:0:0:0:
59,214,277036,5,12,0:0:0:0:
263,67,277267,2,0,P|311:56|364:55,1,82.5000025177003,0|0,2:3|0:0,0:0:0:0:
412,209,277498,2,0,P|378:172|351:127,1,82.5000025177003,12|0,0:0|0:0,0:0:0:0:
460,8,277729,2,0,P|445:55|419:101,1,82.5000025177003,0|0,2:3|0:0,0:0:0:0:
194,122,277959,6,0,P|174:89|181:24,1,82.5000025177003,12|0,0:0|0:0,0:0:0:0:
499,193,278190,2,0,P|498:233|477:269,1,82.5000025177003,0|2,2:3|2:3,0:0:0:0:
330,302,278421,2,0,B|376:298|427:311|374:352|420:368|489:366,1,165.000005035401,8|2,0:0|2:3,0:0:0:0:
486,359,278767,1,0,2:3:0:0:
402,224,278882,6,0,P|389:183|368:45,1,165.000005035401,12|0,0:0|2:3,0:0:0:0:
384,42,279229,1,0,2:3:0:0:
284,102,279344,2,0,P|244:96|180:78,1,82.5000025177003,12|0,0:0|0:0,0:0:0:0:
46,16,279575,1,0,2:3:0:0:
46,16,279690,1,2,2:3:0:0:
118,58,279806,6,0,P|114:104|98:172,1,82.5000025177003,8|0,0:0|0:0,0:0:0:0:
81,384,280036,1,2,2:3:0:0:
9,341,280152,2,0,P|13:295|29:227,1,82.5000025177003,0|8,0:0|0:0,0:0:0:0:
98,221,280382,1,0,0:0:0:0:
150,224,280498,1,0,2:3:0:0:
206,226,280613,1,0,2:3:0:0:
235,271,280729,6,0,B|260:304|260:304|340:277,1,82.5000025177003,12|0,0:0|0:0,0:0:0:0:
349,83,280959,2,0,B|324:50|324:50|244:77,1,82.5000025177003,0|0,0:0|2:3,0:0:0:0:
299,177,281190,5,12,0:0:0:0:
299,177,281344,1,0,0:0:0:0:
299,177,281498,1,0,0:0:0:0:
367,233,281652,6,0,B|434:239|497:218|497:218|505:192|508:162,1,165.000005035401,12|0,0:0|2:3,0:0:0:0:
501,172,281998,1,2,2:3:0:0:
475,26,282113,2,0,P|464:68|448:111,1,82.5000025177003,8|0,0:0|0:0,0:0:0:0:
391,311,282344,2,0,P|380:269|364:226,1,82.5000025177003,6|0,0:0|0:0,0:0:0:0:
257,30,282575,6,0,B|142:18|229:87|85:67,1,165.000005035401,12|0,0:0|2:3,0:0:0:0:
94,49,282921,1,8,0:0:0:0:
5,154,283036,6,0,B|119:142|32:211|176:191,1,165.000005035401,0|2,0:0|0:0,0:0:0:0:
168,173,283382,1,0,0:0:0:0:
65,374,283498,6,0,P|7:275|63:224,1,165.000005035401,12|0,0:0|2:3,0:0:0:0:
316,176,283844,2,0,P|374:275|318:326,1,165.000005035401,8|0,0:0|0:0,0:0:0:0:
25,245,284190,2,0,P|54:226|132:246,1,82.5000025177003,2|0,0:0|0:0,0:0:0:0:
420,363,284421,5,12,0:0:0:0:
256,192,284536,12,0,287652,0:0:0:0:
