osu file format v14

[General]
AudioFilename: audio.mp3
AudioLeadIn: 0
PreviewTime: 49788
Countdown: 0
SampleSet: Soft
StackLeniency: 0.5
Mode: 0
LetterboxInBreaks: 0
WidescreenStoryboard: 0

[Editor]
Bookmarks: 87669,129615,148815,168015,187215,206415,211215,229515
DistanceSpacing: 1.5
BeatDivisor: 8
GridSize: 8
TimelineZoom: 2.5

[Metadata]
Title:EXEC_CHRONICLE_KEY/.
TitleUnicode:EXEC_CHRONICLE_KEY/.
Artist:Shikata Akiko
ArtistUnicode:志方あきこ
Creator:Yooh
Version:Reyvateil
Source:アルトネリコ ~世界の終わりで詩い続ける少女~
Tags:ar tonelico melody of elemia misha arsellec lune The Girl Who Continues to Sing at the End of the World Sekai no Owari de Utai Tsuzukeru Shoujo 彌紗・アルトセルク・リューン jrpg j-rpg video game gust hymn Tsuchiya Akira 土屋 暁 instrumental Conlang full version アルトネリコ世界の終わりで詩い続ける少女
BeatmapID:2452447
BeatmapSetID:1175805

[Difficulty]
HPDrainRate:5
CircleSize:6
OverallDifficulty:7
ApproachRate:8
SliderMultiplier:1.2
SliderTickRate:1

[Events]
//Background and Video events
0,0,"ar_tonelico.jpg",0,0
//Break Periods
//Storyboard Layer 0 (Background)
//Storyboard Layer 1 (Fail)
//Storyboard Layer 2 (Pass)
//Storyboard Layer 3 (Foreground)
//Storyboard Layer 4 (Overlay)
//Storyboard Sound Samples

[TimingPoints]
11894,631.578947368421,4,2,1,50,1,0
12446,-100,4,2,2,5,0,0
12525,-100,4,2,3,50,0,0
15920,-100,4,2,2,5,0,0
15999,-100,4,2,3,50,0,0
16236,-100,4,2,2,5,0,0
16315,-100,4,2,3,50,0,0
17183,-100,4,2,2,5,0,0
17262,-90.9090909090909,4,2,3,50,0,0
17499,-90.9090909090909,4,2,2,5,0,0
17578,-86.9565217391304,4,2,3,50,0,0
17815,-86.9565217391304,4,2,2,5,0,0
17894,-83.3333333333333,4,2,3,50,0,0
18130,-83.3333333333333,4,2,2,5,0,0
18209,-80,4,2,3,50,0,0
19472,-100,4,2,3,50,0,0
21604,-100,4,2,2,5,0,0
21683,-86.9565217391304,4,2,3,50,0,0
21920,-100,4,2,2,5,0,0
21999,-80,4,2,3,50,0,0
23183,-100,4,2,2,5,0,0
23262,-76.9230769230769,4,2,3,50,0,0
24446,-100,4,2,2,5,0,0
24525,-100,4,2,3,50,0,0
29578,-125,4,2,3,40,0,0
30130,-125,4,2,2,5,0,0
30209,-125,4,2,3,40,0,0
32657,-125,4,2,2,5,0,0
32736,-125,4,2,3,40,0,0
35104,-125,4,2,2,5,0,0
35183,-125,4,2,3,40,0,0
37709,-125,4,2,2,5,0,0
37788,-125,4,2,3,40,0,0
38262,-125,4,2,2,5,0,0
38341,-125,4,2,3,40,0,0
40236,-125,4,2,2,5,0,0
40315,-125,4,2,3,40,0,0
42762,-125,4,2,2,5,0,0
42841,-125,4,2,3,40,0,0
45288,-125,4,2,2,5,0,0
45367,-125,4,2,3,40,0,0
48525,-111.111111111111,4,2,3,40,0,0
49788,-57.1428571428571,4,2,1,60,0,0
50341,-57.1428571428571,4,2,2,5,0,0
50420,-57.1428571428571,4,2,1,60,0,0
51288,-57.1428571428571,4,2,2,5,0,0
51367,-57.1428571428571,4,2,1,60,0,0
51604,-57.1428571428571,4,2,2,5,0,0
51683,-57.1428571428571,4,2,1,60,0,0
52315,-50,4,2,1,60,0,0
53183,-50,4,2,2,5,0,0
53262,-50,4,2,1,60,0,0
53815,-50,4,2,2,5,0,0
53894,-50,4,2,1,60,0,0
54130,-50,4,2,2,5,0,0
54209,-50,4,2,1,60,0,0
54841,-57.1428571428571,4,2,1,60,0,0
55394,-57.1428571428571,4,2,2,5,0,0
55472,-57.1428571428571,4,2,1,60,0,0
57288,-57.1428571428571,4,2,2,5,0,0
57367,-57.1428571428571,4,2,1,60,0,0
57920,-57.1428571428571,4,2,2,5,0,0
57999,-57.1428571428571,4,2,1,60,0,0
59183,-57.1428571428571,4,2,2,5,0,0
59262,-50,4,2,1,60,0,0
59499,-50,4,2,2,5,0,0
59578,-50,4,2,1,60,0,0
59657,-50,4,2,2,5,0,0
59736,-50,4,2,1,60,0,0
59815,-50,4,2,2,5,0,0
59894,-57.1428571428571,4,2,1,60,0,0
60446,-57.1428571428571,4,2,2,5,0,0
60525,-57.1428571428571,4,2,1,60,0,0
61394,-57.1428571428571,4,2,2,5,0,0
61472,-57.1428571428571,4,2,1,60,0,0
61709,-57.1428571428571,4,2,2,5,0,0
61788,-57.1428571428571,4,2,1,60,0,0
62420,-50,4,2,1,60,0,0
63288,-50,4,2,2,5,0,0
63367,-50,4,2,1,60,0,0
63920,-50,4,2,2,5,0,0
63999,-50,4,2,1,60,0,0
64236,-50,4,2,2,5,0,0
64315,-50,4,2,1,60,0,0
64946,-57.1428571428571,4,2,1,60,0,0
65499,-57.1428571428571,4,2,2,5,0,0
65578,-57.1428571428571,4,2,1,60,0,0
66130,-57.1428571428571,4,2,2,5,0,0
66209,-57.1428571428571,4,2,1,60,0,0
67236,-57.1428571428571,4,2,2,5,0,0
67315,-57.1428571428571,4,2,1,60,0,0
67472,-50,4,2,1,60,0,0
68341,-50,4,2,2,5,0,0
68420,-50,4,2,1,60,0,0
69288,-50,4,2,2,5,0,0
69367,-50,4,2,1,60,0,0
69604,-50,4,2,2,5,0,0
69683,-50,4,2,1,60,0,0
69762,-50,4,2,2,5,0,0
69841,-50,4,2,1,60,0,0
69920,-50,4,2,2,5,0,0
69999,-50,4,2,1,60,0,0
70551,-50,4,2,2,5,0,0
70630,-50,4,2,1,60,0,0
71499,-50,4,2,2,5,0,0
71578,-50,4,2,1,60,0,0
71815,-50,4,2,2,5,0,0
71894,-50,4,2,1,60,0,0
73394,-50,4,2,2,5,0,0
73472,-50,4,2,1,60,0,0
74025,-50,4,2,2,5,0,0
74104,-50,4,2,1,60,0,0
74341,-50,4,2,2,5,0,0
74420,-50,4,2,1,60,0,0
75525,-50,4,2,2,5,0,0
75604,-50,4,2,1,60,0,0
75920,-50,4,2,2,5,0,0
75999,-50,4,2,1,60,0,0
77499,-50,4,2,2,5,0,0
77578,-50,4,2,1,60,0,0
78130,-50,4,2,2,5,0,0
78209,-50,4,2,1,60,0,0
79394,-50,4,2,2,5,0,0
79472,-50,4,2,1,60,0,0
79709,-50,4,2,2,5,0,0
79788,-50,4,2,1,60,0,0
79867,-50,4,2,2,5,0,0
79946,-50,4,2,1,60,0,0
80025,-50,4,2,2,5,0,0
80104,-50,4,2,1,60,0,0
80657,-50,4,2,2,5,0,0
80736,-50,4,2,1,60,0,0
81604,-50,4,2,2,5,0,0
81683,-50,4,2,1,60,0,0
81920,-50,4,2,2,5,0,0
81999,-50,4,2,1,60,0,0
83499,-50,4,2,2,5,0,0
83578,-50,4,2,1,60,0,0
84130,-50,4,2,2,5,0,0
84209,-50,4,2,1,60,0,0
84446,-50,4,2,2,5,0,0
84525,-50,4,2,1,60,0,0
85709,-50,4,2,2,5,0,0
85788,-50,4,2,1,60,0,0
86341,-50,4,2,2,5,0,0
86420,-50,4,2,1,60,0,0
87604,-50,4,2,2,5,0,0
87683,-78.125,4,2,1,60,0,0
87762,-78.125,4,2,1,5,0,0
92736,-78.125,4,2,1,30,0,0
93999,-153.846153846154,4,2,1,20,0,0
110262,-78.125,4,2,2,5,0,0
110419,600,4,2,1,50,1,0
110419,-100,4,2,1,50,0,0
110944,-100,4,2,2,5,0,0
111019,-100,4,2,1,50,0,0
113269,-100,4,2,2,5,0,0
113344,-100,4,2,1,50,0,0
115744,-100,4,2,2,5,0,0
115819,-100,4,2,1,50,0,0
118144,-100,4,2,2,5,0,0
118219,-100,4,2,1,50,0,0
119344,-100,4,2,2,5,0,0
119419,-100,4,2,1,50,0,0
120544,-100,4,2,2,5,0,0
120619,-74.0740740740741,4,2,1,50,0,0
121144,-74.0740740740741,4,2,2,5,0,0
121219,-74.0740740740741,4,2,1,50,0,0
121444,-74.0740740740741,4,2,2,5,0,0
121519,-86.9565217391304,4,2,1,50,0,0
121744,-86.9565217391304,4,2,2,5,0,0
121819,-74.0740740740741,4,2,1,50,0,0
122044,-74.0740740740741,4,2,2,5,0,0
122119,-74.0740740740741,4,2,1,50,0,0
122419,-66.6666666666667,4,2,1,50,0,0
122644,-66.6666666666667,4,2,2,5,0,0
122719,-66.6666666666667,4,2,1,50,0,0
123019,-86.9565217391304,4,2,1,50,0,0
123244,-86.9565217391304,4,2,2,5,0,0
123319,-74.0740740740741,4,2,1,50,0,0
123544,-74.0740740740741,4,2,2,5,0,0
123619,-74.0740740740741,4,2,1,50,0,0
123844,-74.0740740740741,4,2,2,5,0,0
123919,-86.9565217391304,4,2,1,50,0,0
124144,-86.9565217391304,4,2,2,5,0,0
124219,-74.0740740740741,4,2,1,50,0,0
125044,-74.0740740740741,4,2,2,5,0,0
125119,-74.0740740740741,4,2,1,50,0,0
126619,-86.9565217391304,4,2,1,50,0,0
128044,-86.9565217391304,4,2,2,5,0,0
128119,-86.9565217391304,4,2,1,50,0,0
129619,-64.5161290322581,4,2,1,50,0,0
130144,-64.5161290322581,4,2,2,5,0,0
130219,-64.5161290322581,4,2,1,50,0,0
131644,-64.5161290322581,4,2,2,5,0,0
131719,-64.5161290322581,4,2,1,50,0,0
134944,-64.5161290322581,4,2,2,5,0,0
135019,-64.5161290322581,4,2,1,50,0,0
136444,-64.5161290322581,4,2,2,5,0,0
136519,-64.5161290322581,4,2,1,50,0,0
137419,-57.1428571428571,4,2,1,50,0,0
137944,-57.1428571428571,4,2,2,5,0,0
138019,-57.1428571428571,4,2,1,50,0,0
138544,-57.1428571428571,4,2,2,5,0,0
138619,-57.1428571428571,4,2,1,50,0,0
138844,-57.1428571428571,4,2,2,5,0,0
138919,-57.1428571428571,4,2,1,50,0,0
139144,-57.1428571428571,4,2,2,5,0,0
139219,-64.5161290322581,4,2,1,50,0,0
139744,-64.5161290322581,4,2,2,5,0,0
139819,-64.5161290322581,4,2,1,50,0,0
140794,-64.5161290322581,4,2,2,5,0,0
140869,-64.5161290322581,4,2,1,50,0,0
141319,-64.5161290322581,4,2,1,50,0,0
142144,-64.5161290322581,4,2,2,5,0,0
142219,-64.5161290322581,4,2,1,50,0,0
144544,-64.5161290322581,4,2,2,5,0,0
144619,-64.5161290322581,4,2,1,50,0,0
145219,-57.1428571428571,4,2,1,50,0,0
145744,-57.1428571428571,4,2,2,5,0,0
145819,-57.1428571428571,4,2,1,50,0,0
146044,-57.1428571428571,4,2,2,5,0,0
146119,-57.1428571428571,4,2,1,50,0,0
146344,-57.1428571428571,4,2,2,5,0,0
146419,-57.1428571428571,4,2,1,50,0,0
146944,-57.1428571428571,4,2,2,5,0,0
147019,-57.1428571428571,4,2,1,50,0,0
148819,-64.5161290322581,4,2,1,50,0,0
149944,-64.5161290322581,4,2,2,5,0,0
150019,-64.5161290322581,4,2,1,50,0,0
151144,-64.5161290322581,4,2,2,5,0,0
151219,-64.5161290322581,4,2,1,50,0,0
151744,-64.5161290322581,4,2,2,5,0,0
151819,-64.5161290322581,4,2,1,50,0,0
154144,-64.5161290322581,4,2,2,5,0,0
154219,-64.5161290322581,4,2,1,50,0,0
155044,-64.5161290322581,4,2,2,5,0,0
155119,-64.5161290322581,4,2,1,50,0,0
155344,-64.5161290322581,4,2,2,5,0,0
155419,-64.5161290322581,4,2,1,50,0,0
156844,-64.5161290322581,4,2,2,5,0,0
156919,-64.5161290322581,4,2,1,50,0,0
158419,-57.1428571428571,4,2,1,50,0,0
158944,-57.1428571428571,4,2,2,5,0,0
159019,-57.1428571428571,4,2,1,50,0,0
159844,-57.1428571428571,4,2,2,5,0,0
159919,-57.1428571428571,4,2,1,50,0,0
160144,-57.1428571428571,4,2,2,5,0,0
160219,-57.1428571428571,4,2,1,50,0,0
160744,-57.1428571428571,4,2,2,5,0,0
160819,-57.1428571428571,4,2,1,50,0,0
161944,-57.1428571428571,4,2,2,5,0,0
162019,-57.1428571428571,4,2,1,50,0,0
163219,-64.5161290322581,4,2,1,50,0,0
163819,-60.6060606060606,4,2,1,50,0,0
164419,-57.1428571428571,4,2,1,50,0,0
165019,-54.054054054054,4,2,1,50,0,0
165619,-64.5161290322581,4,2,1,50,0,0
167044,-64.5161290322581,4,2,2,5,0,0
167119,-64.5161290322581,4,2,1,50,0,0
168019,-57.1428571428571,4,2,1,50,0,0
168544,-57.1428571428571,4,2,2,5,0,0
168619,-57.1428571428571,4,2,1,50,0,0
169744,-57.1428571428571,4,2,2,5,0,0
169819,-57.1428571428571,4,2,1,50,0,0
170944,-57.1428571428571,4,2,2,5,0,0
171019,-57.1428571428571,4,2,1,50,0,0
171994,-57.1428571428571,4,2,2,5,0,0
172069,-57.1428571428571,4,2,1,50,0,0
173344,-57.1428571428571,4,2,2,5,0,0
173419,-57.1428571428571,4,2,1,50,0,0
173644,-57.1428571428571,4,2,2,5,0,0
173719,-57.1428571428571,4,2,1,50,0,0
173869,-57.1428571428571,4,2,2,5,0,0
173944,-57.1428571428571,4,2,1,50,0,0
174394,-57.1428571428571,4,2,2,5,0,0
174469,-57.1428571428571,4,2,1,50,0,0
175444,-57.1428571428571,4,2,2,5,0,0
175519,-54.054054054054,4,2,1,50,0,0
175744,-54.054054054054,4,2,2,5,0,0
175819,-57.1428571428571,4,2,1,50,0,0
176044,-57.1428571428571,4,2,2,5,0,0
176119,-54.054054054054,4,2,1,50,0,0
176419,-57.1428571428571,4,2,1,50,0,0
176944,-57.1428571428571,4,2,2,5,0,0
177019,-57.1428571428571,4,2,1,50,0,0
178144,-57.1428571428571,4,2,2,5,0,0
178219,-57.1428571428571,4,2,1,50,0,0
179344,-57.1428571428571,4,2,2,5,0,0
179419,-57.1428571428571,4,2,1,50,0,0
180544,-57.1428571428571,4,2,2,5,0,0
180619,-57.1428571428571,4,2,1,50,0,0
181594,-57.1428571428571,4,2,2,5,0,0
181669,-57.1428571428571,4,2,1,50,0,0
182944,-57.1428571428571,4,2,2,5,0,0
183019,-57.1428571428571,4,2,1,50,0,0
184144,-57.1428571428571,4,2,2,5,0,0
184219,-57.1428571428571,4,2,1,50,0,0
185644,-57.1428571428571,4,2,2,5,0,0
185719,-57.1428571428571,4,2,1,50,0,0
187219,-47.6190476190476,4,2,1,60,0,1
187744,-47.6190476190476,4,2,2,5,0,1
187819,-47.6190476190476,4,2,1,60,0,1
188794,-47.6190476190476,4,2,2,5,0,1
188869,-47.6190476190476,4,2,1,60,0,1
189244,-47.6190476190476,4,2,2,5,0,1
189319,-47.6190476190476,4,2,1,60,0,1
189544,-47.6190476190476,4,2,2,5,0,1
189619,-47.6190476190476,4,2,1,60,0,1
189844,-47.6190476190476,4,2,2,5,0,1
189919,-47.6190476190476,4,2,1,60,0,1
190069,-47.6190476190476,4,2,2,5,0,1
190144,-47.6190476190476,4,2,1,60,0,1
190744,-47.6190476190476,4,2,2,5,0,1
190819,-47.6190476190476,4,2,1,60,0,1
191194,-47.6190476190476,4,2,2,5,0,1
191269,-47.6190476190476,4,2,1,60,0,1
191644,-47.6190476190476,4,2,2,5,0,1
191719,-47.6190476190476,4,2,1,60,0,1
192544,-47.6190476190476,4,2,2,5,0,1
192619,-47.6190476190476,4,2,1,60,0,1
193144,-47.6190476190476,4,2,2,5,0,1
193219,-43.4782608695652,4,2,1,60,0,1
193444,-43.4782608695652,4,2,2,5,0,1
193519,-43.4782608695652,4,2,1,60,0,1
193744,-43.4782608695652,4,2,2,5,0,1
193819,-47.6190476190476,4,2,1,60,0,1
194044,-47.6190476190476,4,2,2,5,0,1
194119,-43.4782608695652,4,2,1,60,0,1
194194,-43.4782608695652,4,2,2,5,0,1
194269,-43.4782608695652,4,2,1,60,0,1
194344,-43.4782608695652,4,2,2,5,0,1
194419,-43.4782608695652,4,2,1,60,0,1
194944,-43.4782608695652,4,2,2,5,0,1
195019,-43.4782608695652,4,2,1,60,0,1
195994,-43.4782608695652,4,2,2,5,0,1
196069,-43.4782608695652,4,2,1,60,0,1
196444,-43.4782608695652,4,2,2,5,0,1
196519,-43.4782608695652,4,2,1,60,0,1
196594,-43.4782608695652,4,2,2,5,0,1
196669,-43.4782608695652,4,2,1,60,0,1
196744,-43.4782608695652,4,2,2,5,0,1
196819,-47.6190476190476,4,2,1,60,0,1
197344,-47.6190476190476,4,2,2,5,0,1
197419,-47.6190476190476,4,2,1,60,0,1
197944,-47.6190476190476,4,2,2,5,0,1
198019,-47.6190476190476,4,2,1,60,0,1
198394,-47.6190476190476,4,2,2,5,0,1
198469,-47.6190476190476,4,2,1,60,0,1
198994,-47.6190476190476,4,2,2,5,0,1
199069,-47.6190476190476,4,2,1,60,0,1
199219,-45.4545454545455,4,2,1,60,0,1
199744,-45.4545454545455,4,2,2,5,0,1
199819,-45.4545454545455,4,2,1,60,0,1
200194,-45.4545454545455,4,2,2,5,0,1
200269,-45.4545454545455,4,2,1,60,0,1
200794,-45.4545454545455,4,2,2,5,0,1
200869,-45.4545454545455,4,2,1,60,0,1
201619,-43.4782608695652,4,2,1,60,0,1
202144,-43.4782608695652,4,2,2,5,0,1
202219,-43.4782608695652,4,2,1,60,0,1
202594,-43.4782608695652,4,2,2,5,0,1
202669,-43.4782608695652,4,2,1,60,0,1
202819,-42.5531914893617,4,2,1,60,0,1
203194,-42.5531914893617,4,2,2,5,0,1
203269,-42.5531914893617,4,2,1,60,0,1
203644,-42.5531914893617,4,2,2,5,0,1
203719,-42.5531914893617,4,2,1,60,0,1
204019,-47.6190476190476,4,2,1,60,0,1
204544,-47.6190476190476,4,2,2,5,0,1
204619,-47.6190476190476,4,2,1,60,0,1
204844,-47.6190476190476,4,2,2,5,0,1
204919,-47.6190476190476,4,2,1,60,0,1
205219,-47.6190476190476,4,2,1,60,0,1
205594,-47.6190476190476,4,2,2,5,0,1
205669,-47.6190476190476,4,2,1,60,0,1
206419,-105.263157894737,4,2,1,60,0,0
206494,-105.263157894737,4,2,1,5,0,0
211144,-105.263157894737,4,2,2,5,0,0
211219,-105.263157894737,4,2,3,30,0,0
212344,-105.263157894737,4,2,2,5,0,0
212419,-105.263157894737,4,2,3,30,0,0
214744,-105.263157894737,4,2,2,5,0,0
214819,-105.263157894737,4,2,3,30,0,0
216019,-133.333333333334,4,2,3,25,0,0
217144,-133.333333333334,4,2,2,5,0,0
217219,-133.333333333334,4,2,3,25,0,0
219544,-133.333333333334,4,2,2,5,0,0
219619,-133.333333333334,4,2,3,25,0,0
220819,-153.846153846155,4,2,1,25,0,0
225619,-181.818181818183,4,2,3,20,0,0

[Colours]
Combo1 : 90,110,200
Combo2 : 5,150,230
Combo3 : 210,185,60
SliderBorder : 12,126,255

[HitObjects]
21,204,11894,6,0,P|69:212|101:260,1,105
107,255,12525,1,0,0:0:0:0:
203,77,12841,1,2,0:0:0:0:
56,119,13157,1,0,0:0:0:0:
45,130,13472,1,2,0:0:0:0:
186,78,13788,2,0,L|249:70,1,60,0|2,0:0|0:0,0:0:0:0:
388,21,14420,1,0,0:0:0:0:
486,55,14736,5,0,0:0:0:0:
464,73,14841,1,0,0:0:0:0:
450,97,14946,1,0,0:0:0:0:
441,123,15051,1,2,0:0:0:0:
472,333,15367,1,0,0:0:0:0:
295,181,15683,6,0,L|345:187,1,45,2|0,0:0|0:0,0:0:0:0:
348,194,15999,2,0,L|303:188,1,45
238,183,16315,1,2,0:0:0:0:
156,211,16472,1,0,0:0:0:0:
84,163,16630,1,2,0:0:0:0:
148,225,16946,6,0,P|156:244|157:280,1,45
188,326,17262,2,0,P|204:312|223:282,1,49.5000015106202,2|0,0:0|0:0,0:0:0:0:
276,252,17578,2,0,P|284:271|285:307,1,51.7500009870529
314,364,17894,2,0,P|330:350|349:320,1,53.9999983520508,2|0,0:0|0:0,0:0:0:0:
363,269,18209,5,0,0:0:0:0:
363,269,18288,2,0,B|361:255|373:235|373:235|384:244|382:261,1,56.25,0|2,0:0|0:0,0:0:0:0:
500,181,18841,2,0,B|487:160|464:149|464:149|463:169|470:184,1,75,0|2,0:0|0:0,0:0:0:0:
501,303,19472,1,0,0:0:0:0:
480,93,19788,2,0,P|442:91|416:108,1,60,2|0,0:0|0:0,0:0:0:0:
106,10,20736,5,0,0:0:0:0:
106,10,20815,1,0,0:0:0:0:
232,58,21051,1,2,0:0:0:0:
375,51,21367,2,0,P|354:83|353:97,1,45
312,137,21683,2,0,P|291:105|290:91,1,51.7500009870529,2|0,0:0|0:0,0:0:0:0:
232,58,21999,2,0,B|213:145|280:198|280:198|229:158|153:183,1,281.25
126,128,23262,2,0,B|149:202|104:279|104:279|74:266|63:241|63:241|27:254|-5:301,1,292.499986610413
3,302,24525,5,2,0:0:0:0:
14,317,24630,1,0,0:0:0:0:
24,329,24736,1,0,0:0:0:0:
40,337,24841,1,0,0:0:0:0:
196,272,25157,2,0,B|246:232|319:245|354:297|354:297|354:297|354:297|390:350|463:361|512:322,1,360
482,21,29578,6,0,P|451:51|440:89,1,84,2|0,0:0|0:0,0:0:0:0:
442,96,30209,1,0,0:0:0:0:
353,50,30525,1,0,0:0:0:0:
256,80,30841,1,2,0:0:0:0:
88,44,31788,5,2,0:0:0:0:
30,21,32104,2,0,P|61:51|72:89,1,84
70,96,32736,2,0,L|20:89,1,48
107,157,33367,1,0,0:0:0:0:
135,42,33683,1,0,0:0:0:0:
42,211,33999,1,2,0:0:0:0:
259,377,34630,6,0,L|268:297,1,72,2|0,0:0|0:0,0:0:0:0:
261,303,35183,1,0,0:0:0:0:
261,303,35262,2,0,P|285:285|313:283,1,48
455,300,35894,1,2,0:0:0:0:
428,63,36841,5,2,0:0:0:0:
486,111,37157,2,0,P|448:123|426:162,1,84
428,166,37788,2,0,P|457:187|492:184,1,72
498,180,38341,1,0,0:0:0:0:
498,180,38420,2,0,P|501:152|485:128,1,48,2|0,0:0|0:0,0:0:0:0:
388,14,39051,2,0,P|362:26|350:51,1,48,2|0,0:0|0:0,0:0:0:0:
219,131,39683,6,0,L|306:120,1,84,2|0,0:0|0:0,0:0:0:0:
309,120,40315,1,0,0:0:0:0:
182,67,40630,1,0,0:0:0:0:
54,119,40946,1,2,0:0:0:0:
106,370,41894,5,2,0:0:0:0:
72,299,42209,2,0,L|159:310,1,84
158,315,42841,2,0,P|178:296|205:289,1,48
350,272,43472,1,0,0:0:0:0:
269,361,43788,1,0,0:0:0:0:
359,207,44104,2,0,P|382:213|401:228,1,48,2|0,0:0|0:0,0:0:0:0:
374,114,44736,6,0,L|385:27,1,84,2|0,0:0|0:0,0:0:0:0:
392,32,45367,2,0,P|416:43|432:64,2,48,0|0|2,0:0|0:0|0:0,0:0:0:0:
136,32,46630,2,0,P|112:43|96:64,2,48,0|0|2,0:0|0:0|0:0,0:0:0:0:
256,304,48209,1,2,0:0:0:0:
304,169,48525,2,0,B|287:171|270:179|256:192|256:192|243:180|227:172|208:169,1,107.999996704102,0|2,0:0|0:0,0:0:0:0:
32,16,49788,6,0,B|80:4|122:31|115:36|141:76|215:52,1,183.750001752377,8|0,0:0|0:0,0:0:0:0:
256,32,50420,1,2,0:0:0:0:
424,0,50736,1,2,0:0:0:0:
239,105,50894,1,0,0:0:0:0:
239,105,50972,1,0,0:0:0:0:
239,105,51051,2,0,P|193:118|143:115,1,78.7500007510185,8|0,0:0|0:0,0:0:0:0:
125,164,51367,2,0,P|90:130|68:85,1,78.7500007510185,8|0,0:0|0:0,0:0:0:0:
23,81,51683,5,2,0:0:0:0:
185,181,51999,1,2,0:0:0:0:
407,128,52315,2,0,B|429:79|495:90|523:102|527:211|496:286|434:337,1,330,8|0,0:0|0:0,0:0:0:0:
400,360,53262,1,2,0:0:0:0:
307,155,53420,1,0,0:0:0:0:
307,155,53499,1,0,0:0:0:0:
307,155,53578,2,0,P|357:171|387:198,1,90,8|0,0:0|0:0,0:0:0:0:
441,204,53894,2,0,P|425:254|398:284,1,90,8|0,0:0|0:0,0:0:0:0:
349,307,54209,2,0,B|313:311|291:290|299:287|269:268|235:276,1,120,8|0,0:0|0:0,0:0:0:0:
32,248,54841,6,0,P|88:240|184:324,1,183.750001752377,8|0,0:0|0:0,0:0:0:0:
148,364,55472,2,0,P|123:323|144:269,1,105.000001001358
317,160,56104,1,2,0:0:0:0:
48,88,56420,1,0,0:0:0:0:
168,180,56736,1,2,0:0:0:0:
236,93,57051,6,0,P|238:132|232:171,1,78.7500007510185,8|0,0:0|0:0,0:0:0:0:
274,211,57367,2,0,P|255:145|257:29,1,183.750001752377,8|0,0:0|0:0,0:0:0:0:
309,8,57999,1,2,0:0:0:0:
299,38,58157,1,2,0:0:0:0:
278,62,58315,1,2,0:0:0:0:
61,98,58630,2,0,B|124:79|149:117|138:121|176:149|249:119,1,183.750001752377
288,102,59262,6,0,P|321:100|377:129,1,90,8|0,0:0|0:0,0:0:0:0:
416,92,59578,2,0,L|420:52,1,30,2|0,0:0|0:0,0:0:0:0:
458,20,59736,2,0,L|453:59,1,30,2|0,0:0|0:0,0:0:0:0:
505,105,59894,6,0,P|467:138|423:266,1,183.750001752377,12|0,0:0|0:0,0:0:0:0:
475,282,60525,1,2,0:0:0:0:
307,240,60841,1,2,0:0:0:0:
143,368,60999,1,0,0:0:0:0:
143,368,61078,1,0,0:0:0:0:
143,368,61157,2,0,P|171:338|178:293,1,78.7500007510185,8|0,0:0|0:0,0:0:0:0:
233,279,61472,2,0,P|221:239|185:211,1,78.7500007510185,8|0,0:0|0:0,0:0:0:0:
140,198,61788,5,2,0:0:0:0:
69,5,62104,1,2,0:0:0:0:
3,100,62420,2,0,B|99:153|164:86|154:81|205:18|337:89,1,330,8|0,0:0|0:0,0:0:0:0:
360,110,63367,1,2,0:0:0:0:
470,22,63525,1,0,0:0:0:0:
470,22,63604,1,0,0:0:0:0:
470,22,63683,2,0,P|431:49|413:109,1,90,8|0,0:0|0:0,0:0:0:0:
360,110,63999,2,0,P|363:157|406:202,1,90,8|0,0:0|0:0,0:0:0:0:
435,223,64315,2,0,L|315:237,1,120,8|0,0:0|0:0,0:0:0:0:
176,384,64946,6,0,P|132:279|66:237,1,183.750001752377,8|0,0:0|0:0,0:0:0:0:
32,276,65578,2,0,B|0:262|0:262|8:163|100:158,1,183.750001752377
144,162,66209,1,2,0:0:0:0:
92,330,66525,1,2,0:0:0:0:
58,97,66841,2,0,P|121:97|155:150,1,131.250001251698,8|0,0:0|0:0,0:0:0:0:
196,191,67315,5,2,0:0:0:0:
217,94,67472,2,0,B|250:30|344:39|344:39|323:65|327:92|327:92|402:106|465:54,1,330,12|0,0:0|0:0,0:0:0:0:
494,38,68420,1,2,0:0:0:0:
424,57,68578,1,2,0:0:0:0:
384,117,68736,2,0,P|431:137|487:282,1,210,12|0,0:0|0:0,0:0:0:0:
466,330,69367,2,0,P|425:301|410:251,1,90,8|0,0:0|0:0,0:0:0:0:
359,229,69683,2,0,L|353:276,1,30,2|0,0:0|0:0,0:0:0:0:
294,255,69841,2,0,L|299:302,1,30,2|0,0:0|0:0,0:0:0:0:
246,359,69999,6,0,L|218:139,1,210,12|0,0:0|0:0,0:0:0:0:
212,95,70630,1,2,0:0:0:0:
0,1,70946,1,2,0:0:0:0:
85,97,71104,1,0,0:0:0:0:
85,97,71183,1,0,0:0:0:0:
85,97,71262,2,0,P|137:107|175:143,1,90,8|0,0:0|0:0,0:0:0:0:
212,95,71578,2,0,P|264:85|302:49,1,90,8|0,0:0|0:0,0:0:0:0:
324,14,71894,1,8,0:0:0:0:
354,179,72209,1,2,0:0:0:0:
512,235,72525,6,0,B|429:289|350:221|369:209|312:140|189:198,1,330,8|0,0:0|0:0,0:0:0:0:
158,219,73472,1,2,0:0:0:0:
0,168,73630,1,0,0:0:0:0:
0,168,73709,1,0,0:0:0:0:
0,168,73788,2,0,P|13:122|55:95,1,90,8|0,0:0|0:0,0:0:0:0:
40,42,74104,2,0,P|86:30|130:53,1,90,8|0,0:0|0:0,0:0:0:0:
157,0,74420,2,0,L|173:118,1,120,8|0,0:0|0:0,0:0:0:0:
302,150,75051,6,0,P|362:113|465:151,1,180,8|0,0:0|0:0,0:0:0:0:
442,201,75604,1,0,0:0:0:0:
442,201,75683,2,0,P|407:170|413:110,1,90,8|0,0:0|0:0,0:0:0:0:
433,78,75999,1,0,0:0:0:0:
483,324,76315,1,2,0:0:0:0:
278,245,76630,1,0,0:0:0:0:
60,278,76946,1,2,0:0:0:0:
193,188,77262,6,0,P|195:234|188:281,1,90,8|0,0:0|0:0,0:0:0:0:
232,315,77578,2,0,P|213:249|237:95,1,210,8|0,0:0|0:0,0:0:0:0:
288,102,78209,1,2,0:0:0:0:
282,137,78367,1,2,0:0:0:0:
256,162,78525,1,2,0:0:0:0:
30,84,78841,2,0,B|94:60|142:100|126:108|166:132|238:108,1,210
288,102,79472,6,0,P|321:63|324:23,1,90,8|0,0:0|0:0,0:0:0:0:
380,2,79788,2,0,P|367:17|353:46,1,30,2|0,0:0|0:0,0:0:0:0:
420,51,79946,2,0,P|426:69|444:96,1,30,2|0,0:0|0:0,0:0:0:0:
486,95,80104,6,0,P|430:123|388:261,1,210,12|0,0:0|0:0,0:0:0:0:
407,309,80736,1,2,0:0:0:0:
193,188,81051,1,2,0:0:0:0:
289,362,81209,1,0,0:0:0:0:
289,362,81288,1,0,0:0:0:0:
289,362,81367,2,0,P|320:331|337:280,1,90,8|0,0:0|0:0,0:0:0:0:
386,255,81683,2,0,P|367:201|338:172,1,90,8|0,0:0|0:0,0:0:0:0:
296,146,81999,1,2,0:0:0:0:
232,367,82315,1,2,0:0:0:0:
72,384,82630,6,0,B|52:224|52:224|47:219|47:219|27:54,1,330,8|0,0:0|0:0,0:0:0:0:
18,3,83578,1,2,0:0:0:0:
171,113,83736,1,0,0:0:0:0:
171,113,83815,1,0,0:0:0:0:
171,113,83894,2,0,P|200:75|240:62,1,90,8|0,0:0|0:0,0:0:0:0:
256,8,84209,2,0,P|303:14|334:42,1,90,8|0,0:0|0:0,0:0:0:0:
380,9,84525,2,0,L|364:136,1,120,8|0,0:0|0:0,0:0:0:0:
500,211,85157,6,0,B|450:180|395:220|405:225|360:258|293:227,1,210,8|0,0:0|0:0,0:0:0:0:
246,212,85788,2,0,P|254:305|355:328,1,210
407,305,86420,1,2,0:0:0:0:
223,367,86736,1,2,0:0:0:0:
50,282,87051,2,0,P|9:187|29:85,1,210,8|0,0:0|0:0,0:0:0:0:
75,45,87683,6,0,B|170:-14|295:25|339:128|339:128|339:128|339:128|278:157|278:157|260:112|219:85|175:82|175:82|175:82|175:82|196:272|196:272|148:268|109:237|92:197|92:197|92:197|92:197|31:227|31:227|67:311|154:360|245:349|310:301,1,1228.8,14|0,0:0|0:0,0:0:0:0:
512,26,93999,6,0,P|487:67|477:99,1,77.9999964294435,0|2,0:0|0:0,0:0:0:0:
447,208,95262,2,0,P|423:165|401:141,1,77.9999964294435,0|2,0:0|0:0,0:0:0:0:
298,93,96525,2,0,P|249:91|217:99,1,77.9999964294435,0|2,0:0|0:0,0:0:0:0:
113,52,97788,2,0,B|111:-5|70:-27|21:-16|-9:13|-6:56|-9:155|25:183|92:235|92:235|96:183|131:160,1,467.999978576661,2|0,0:0|0:0,0:0:0:0:
165,273,102209,2,0,P|177:300|189:350,1,77.9999964294435
299,383,103472,2,0,P|308:295|374:162,1,233.999989288331,2|0,0:0|0:0,0:0:0:0:
445,74,105999,2,0,P|458:94|515:96,2,77.9999964294435,0|2|0,0:0|0:0|0:0,0:0:0:0:
256,192,107894,12,0,110262,0:0:0:0:
41,180,110419,6,0,P|92:175|143:189,1,105,8|0,0:0|0:0,0:0:0:0:
149,194,111019,1,0,0:0:0:0:
161,280,111319,1,2,0:0:0:0:
249,232,111619,1,0,0:0:0:0:
274,41,111919,1,2,0:0:0:0:
158,90,112219,2,0,P|181:110|218:119,1,60,0|2,0:0|0:0,0:0:0:0:
287,57,112819,2,0,P|331:56|375:46,1,90,8|0,0:0|0:0,0:0:0:0:
427,17,113344,5,0,0:0:0:0:
427,17,113419,2,0,P|414:57|410:86,1,60,0|2,0:0|0:0,0:0:0:0:
482,147,114019,2,0,P|490:188|501:215,1,60,0|2,0:0|0:0,0:0:0:0:
406,140,114619,1,0,0:0:0:0:
265,128,114919,1,2,0:0:0:0:
417,152,115219,2,0,P|429:207|453:255,1,105,8|0,0:0|0:0,0:0:0:0:
455,257,115819,6,0,P|422:256|383:265,1,60,0|2,0:0|0:0,0:0:0:0:
267,306,116419,1,0,0:0:0:0:
402,366,116719,1,2,0:0:0:0:
393,351,116869,1,0,0:0:0:0:
385,336,117019,2,0,P|355:320|327:292,1,60,2|0,0:0|0:0,0:0:0:0:
256,216,117619,2,0,B|224:214|207:230|212:234|189:247|153:237,1,105,8|0,0:0|0:0,0:0:0:0:
149,236,118219,6,0,P|159:261|164:297,1,60,0|2,0:0|0:0,0:0:0:0:
31,381,118819,2,0,P|38:316|55:271,1,105
56,272,119419,1,0,0:0:0:0:
48,257,119569,1,0,0:0:0:0:
100,228,119719,1,2,0:0:0:0:
111,207,119869,1,2,0:0:0:0:
65,172,120019,6,0,P|57:130|27:64,1,105,8|0,0:0|0:0,0:0:0:0:
28,67,120619,1,8,0:0:0:0:
139,23,120919,6,0,P|123:44|110:88,1,60.7500002317429,2|0,0:0|0:0,0:0:0:0:
169,103,121219,2,0,P|179:127|210:160,1,60.7500002317429,2|0,0:0|0:0,0:0:0:0:
253,116,121519,2,0,P|273:118|309:110,1,51.7500009870529,2|0,0:0|0:0,0:0:0:0:
327,54,121819,2,0,P|362:54|397:72,1,60.7500002317429,2|0,0:0|0:0,0:0:0:0:
391,68,122119,1,0,0:0:0:0:
502,19,122419,6,0,P|485:47|475:80,1,67.5000025749207,8|0,0:0|0:0,0:0:0:0:
476,89,122719,1,2,0:0:0:0:
476,89,122794,1,2,0:0:0:0:
497,165,123019,2,0,P|472:155|435:150,1,51.7500009870529,8|0,0:0|0:0,0:0:0:0:
400,199,123319,6,0,P|373:204|345:230,1,60.7500002317429,2|0,0:0|0:0,0:0:0:0:
287,196,123619,2,0,P|277:221|286:259,1,60.7500002317429,2|0,0:0|0:0,0:0:0:0:
228,292,123919,2,0,P|245:312|282:324,1,51.7500009870529,2|0,0:0|0:0,0:0:0:0:
326,332,124219,1,2,0:0:0:0:
294,337,124369,1,2,0:0:0:0:
269,358,124519,1,2,0:0:0:0:
156,304,124819,6,0,P|122:293|91:288,1,60.7500002317429,8|0,0:0|0:0,0:0:0:0:
42,314,125119,1,2,0:0:0:0:
16,293,125269,1,2,0:0:0:0:
5,262,125419,1,2,0:0:0:0:
30,71,125719,1,0,0:0:0:0:
114,15,126019,1,0,0:0:0:0:
139,206,126319,1,2,0:0:0:0:
216,138,126619,2,0,P|187:126|143:122,1,69.0000013160706
252,69,127219,6,0,B|310:83|348:60|338:54|380:29|444:45,1,189.750003619194,8|0,0:0|0:0,0:0:0:0:
441,47,128119,1,2,0:0:0:0:
497,137,128419,1,0,0:0:0:0:
401,124,128719,1,2,0:0:0:0:
457,214,129019,1,0,0:0:0:0:
418,219,129169,1,0,0:0:0:0:
397,274,129319,1,2,0:0:0:0:
369,270,129469,1,0,0:0:0:0:
320,301,129619,6,0,P|242:304|157:350,1,162.750001241684,12|0,0:0|0:0,0:0:0:0:
156,356,130219,1,2,0:0:0:0:
46,169,130519,1,2,0:0:0:0:
0,245,130819,2,0,B|56:282|126:232|116:229|167:179|248:214,1,255.750001951218,8|0,0:0|0:0,0:0:0:0:
256,220,131719,1,0,0:0:0:0:
395,315,132019,1,2,0:0:0:0:
449,18,132619,5,8,0:0:0:0:
392,188,132919,1,2,0:0:0:0:
311,143,133219,1,0,0:0:0:0:
300,66,133519,1,2,0:0:0:0:
406,199,133819,2,0,P|456:209|502:236,1,93.0000007095337
297,132,134419,6,0,P|231:140|130:185,1,162.750001241684,8|0,0:0|0:0,0:0:0:0:
127,187,135019,1,2,0:0:0:0:
50,329,135319,1,2,0:0:0:0:
12,238,135619,2,0,B|72:284|168:272|168:272|197:233|197:233|239:212,1,255.750001951218,8|0,0:0|0:0,0:0:0:0:
253,207,136519,1,0,0:0:0:0:
239,381,136819,1,2,0:0:0:0:
512,298,137419,6,0,P|463:232|388:288,1,183.750001752377,8|0,0:0|0:0,0:0:0:0:
371,331,138019,2,0,P|368:239|348:149,1,183.750001752377,2|0,0:0|0:0,0:0:0:0:
312,105,138619,2,0,P|333:122|383:135,1,78.7500007510185,2|0,0:0|0:0,0:0:0:0:
415,87,138919,2,0,P|436:69|486:56,1,78.7500007510185,2|0,0:0|0:0,0:0:0:0:
484,0,139219,6,0,B|432:-4|395:23|402:30|364:45|313:26,1,162.750001241684,8|0,0:0|0:0,0:0:0:0:
310,24,139819,1,2,0:0:0:0:
98,55,140119,1,2,0:0:0:0:
187,0,140419,2,0,P|156:76|156:127,1,116.250000886917,8|0,0:0|0:0,0:0:0:0:
160,168,140869,1,0,0:0:0:0:
160,168,141019,1,2,0:0:0:0:
150,288,141319,5,0,0:0:0:0:
13,380,141619,2,0,P|44:330|43:220,1,162.750001241684,2|0,0:0|0:0,0:0:0:0:
38,211,142219,2,0,L|141:198,1,93.0000007095337,8|2,0:0|0:0,0:0:0:0:
161,294,142819,1,0,0:0:0:0:
26,197,143119,1,2,0:0:0:0:
43,32,143419,1,8,0:0:0:0:
51,53,143569,1,0,0:0:0:0:
111,63,143719,1,2,0:0:0:0:
105,91,143869,1,0,0:0:0:0:
144,137,144019,6,0,B|188:122|224:153|216:155|241:190|302:165,1,162.750001241684,8|0,0:0|0:0,0:0:0:0:
312,159,144619,1,2,0:0:0:0:
395,2,144919,1,2,0:0:0:0:
476,51,145219,2,0,P|415:30|369:139,1,183.750001752377,8|0,0:0|0:0,0:0:0:0:
312,159,145819,2,0,P|349:174|377:215,1,78.7500007510185,2|0,0:0|0:0,0:0:0:0:
426,185,146119,2,0,P|431:224|410:269,1,78.7500007510185,2|0,0:0|0:0,0:0:0:0:
457,307,146419,2,0,P|390:300|281:352,1,183.750001752377,2|0,0:0|0:0,0:0:0:0:
272,362,147019,1,0,0:0:0:0:
116,319,147319,5,2,0:0:0:0:
18,339,147619,2,0,P|41:318|73:311,1,52.500000500679,8|0,0:0|0:0,0:0:0:0:
129,308,147919,1,2,0:0:0:0:
185,207,148219,1,8,0:0:0:0:
148,201,148369,1,0,0:0:0:0:
124,148,148519,1,2,0:0:0:0:
98,152,148669,1,0,0:0:0:0:
54,194,148819,6,0,P|32:148|-3:114,1,93.0000007095337,12|2,0:0|0:0,0:0:0:0:
89,27,149419,2,0,B|138:7|173:35|164:38|205:59|252:32,1,162.750001241684,8|0,0:0|0:0,0:0:0:0:
259,26,150019,1,2,0:0:0:0:
242,164,150319,1,2,0:0:0:0:
387,123,150619,2,0,B|397:81|397:81|327:64|279:106,1,162.750001241684,2|0,0:0|0:0,0:0:0:0:
268,96,151219,6,0,P|287:170|288:262,1,162.750001241684,8|0,0:0|0:0,0:0:0:0:
287,272,151819,2,0,P|309:245|373:229,1,93.0000007095337,2|0,0:0|0:0,0:0:0:0:
487,255,152419,1,8,0:0:0:0:
353,355,152719,1,2,0:0:0:0:
199,288,153019,1,8,0:0:0:0:
167,297,153169,1,0,0:0:0:0:
145,321,153319,1,2,0:0:0:0:
53,384,153619,6,0,P|44:294|17:214,1,162.750001241684,8|0,0:0|0:0,0:0:0:0:
3,224,154219,2,0,P|14:183|73:170,1,93.0000007095337,2|0,0:0|0:0,0:0:0:0:
146,12,154819,2,0,P|131:40|123:83,1,69.7500005321503,8|0,0:0|0:0,0:0:0:0:
132,93,155119,2,0,P|160:77|202:70,1,69.7500005321503,2|0,0:0|0:0,0:0:0:0:
211,58,155419,2,0,P|226:107|223:168,1,93.0000007095337,2|0,0:0|0:0,0:0:0:0:
256,307,156019,2,0,B|326:266|382:310|374:314|427:371|506:323,1,255.750001951218,8|0,0:0|0:0,0:0:0:0:
512,318,156919,1,2,0:0:0:0:
488,182,157219,2,0,P|400:165|370:247,1,186.000001419067,8|0,0:0|0:0,0:0:0:0:
312,368,158119,5,2,0:0:0:0:
128,384,158419,2,0,P|146:302|192:204,1,183.750001752377,8|0,0:0|0:0,0:0:0:0:
199,194,159019,1,2,0:0:0:0:
147,58,159319,1,2,0:0:0:0:
2,35,159619,2,0,P|34:31|88:44,1,78.7500007510185,8|0,0:0|0:0,0:0:0:0:
93,25,159919,2,0,P|112:51|128:105,1,78.7500007510185,2|0,0:0|0:0,0:0:0:0:
130,115,160219,2,0,B|185:138|227:115|217:109|254:71|323:103,1,183.750001752377,2|0,0:0|0:0,0:0:0:0:
324,105,160819,2,0,P|313:46|293:3,1,105.000001001358,2|0,0:0|0:0,0:0:0:0:
462,0,161419,6,0,P|430:74|407:192,1,183.750001752377,8|0,0:0|0:0,0:0:0:0:
409,195,162019,1,2,0:0:0:0:
382,111,162319,1,2,0:0:0:0:
489,237,162619,2,0,P|504:274|513:341,1,105.000001001358,8|0,0:0|0:0,0:0:0:0:
301,384,163219,6,0,P|307:345|336:301,1,93.0000007095337,8|2,0:0|0:0,0:0:0:0:
169,265,163819,2,0,P|209:249|267:252,1,99.0000009441376,8|2,0:0|0:0,0:0:0:0:
207,83,164419,2,0,P|244:112|272:169,1,105.000001001358,8|2,0:0|0:0,0:0:0:0:
392,25,165019,2,0,B|364:45|364:80|369:75|371:109|342:127,1,110.999999576569,8|2,0:0|0:0,0:0:0:0:
215,188,165619,2,0,B|147:151|141:83|141:83|132:118|112:146,1,186.000001419067,8|0,0:0|0:0,0:0:0:0:
6,286,166519,5,2,0:0:0:0:
62,154,166819,2,0,P|86:181|106:231,1,69.7500005321503,8|0,0:0|0:0,0:0:0:0:
106,228,167119,1,2,0:0:0:0:
108,248,167269,1,2,0:0:0:0:
83,302,167419,1,0,0:0:0:0:
122,306,167569,1,0,0:0:0:0:
164,350,167719,1,2,0:0:0:0:
218,343,167869,1,2,0:0:0:0:
267,372,168019,6,0,P|284:312|339:197,1,183.750001752377,12|0,0:0|0:0,0:0:0:0:
349,186,168619,1,2,0:0:0:0:
472,91,168919,1,2,0:0:0:0:
479,110,169069,1,0,0:0:0:0:
486,129,169219,2,0,B|439:143|399:131|406:125|363:86|287:129,1,183.750001752377,8|0,0:0|0:0,0:0:0:0:
289,129,169819,5,2,0:0:0:0:
192,5,170119,1,0,0:0:0:0:
42,53,170419,2,0,P|131:63|227:113,1,183.750001752377,8|0,0:0|0:0,0:0:0:0:
230,118,171019,2,0,P|208:173|199:228,1,105.000001001358,2|0,0:0|0:0,0:0:0:0:
84,363,171619,2,0,P|74:293|50:232,1,131.250001251698,8|0,0:0|0:0,0:0:0:0:
41,219,172069,1,0,0:0:0:0:
9,283,172219,1,2,0:0:0:0:
197,336,172519,1,2,0:0:0:0:
212,322,172669,1,0,0:0:0:0:
231,315,172819,6,0,B|288:296|328:330|316:335|355:366|426:335,1,183.750001752377,8|0,0:0|0:0,0:0:0:0:
422,354,173419,2,0,P|436:315|463:272,1,78.7500007510185,2|0,0:0|0:0,0:0:0:0:
445,264,173719,2,0,P|466:245|498:224,1,52.500000500679,2|0,0:0|0:0,0:0:0:0:
486,210,173944,1,0,0:0:0:0:
486,210,174019,2,0,P|470:140|426:93,1,131.250001251698,8|0,0:0|0:0,0:0:0:0:
412,87,174469,1,0,0:0:0:0:
482,100,174619,1,2,0:0:0:0:
350,5,174919,1,2,0:0:0:0:
329,7,175069,1,0,0:0:0:0:
308,10,175219,6,0,P|284:32|268:90,1,78.7500007510185,8|0,0:0|0:0,0:0:0:0:
235,122,175519,2,0,P|211:100|195:42,1,83.2499996824265,2|0,0:0|0:0,0:0:0:0:
152,11,175819,2,0,P|128:33|112:91,1,78.7500007510185,2|0,0:0|0:0,0:0:0:0:
111,98,176119,1,2,0:0:0:0:
118,141,176269,1,2,0:0:0:0:
127,181,176419,2,0,P|76:178|42:293,1,183.750001752377,8|0,0:0|0:0,0:0:0:0:
28,304,177019,2,0,L|139:290,1,105.000001001358,2|0,0:0|0:0,0:0:0:0:
281,370,177619,6,0,B|329:395|371:373|367:368|406:335|471:366,1,183.750001752377,12|0,0:0|0:0,0:0:0:0:
476,369,178219,1,2,0:0:0:0:
376,243,178519,1,2,0:0:0:0:
356,250,178669,1,0,0:0:0:0:
339,262,178819,2,0,P|262:229|224:310,1,183.750001752377,8|0,0:0|0:0,0:0:0:0:
229,322,179419,1,0,0:0:0:0:
126,148,179719,5,2,0:0:0:0:
117,255,180019,2,0,P|95:161|36:92,1,183.750001752377,8|0,0:0|0:0,0:0:0:0:
22,83,180619,1,2,0:0:0:0:
202,98,180919,1,2,0:0:0:0:
386,12,181219,2,0,P|345:63|323:124,1,131.250001251698,8|0,0:0|0:0,0:0:0:0:
319,145,181669,1,0,0:0:0:0:
269,95,181819,1,2,0:0:0:0:
448,153,182119,1,2,0:0:0:0:
455,172,182269,1,0,0:0:0:0:
457,192,182419,6,0,B|410:170|363:190|375:199|338:230|273:203,1,183.750001752377,8|0,0:0|0:0,0:0:0:0:
261,196,183019,1,2,0:0:0:0:
178,330,183319,1,2,0:0:0:0:
34,267,183619,2,0,P|111:242|218:254,1,183.750001752377,8|0,0:0|0:0,0:0:0:0:
230,262,184219,5,2,0:0:0:0:
463,320,184519,1,2,0:0:0:0:
375,376,184819,2,0,B|367:267|320:188|320:188|363:161|363:161|397:110,1,288.750002753735,8|0,0:0|0:0,0:0:0:0:
394,108,185719,1,2,0:0:0:0:
512,9,186019,5,12,0:0:0:0:
283,105,186319,1,2,0:0:0:0:
178,15,186619,1,8,0:0:0:0:
122,21,186769,1,0,0:0:0:0:
80,64,186919,1,2,0:0:0:0:
13,57,187069,1,0,0:0:0:0:
89,77,187219,6,0,P|132:96|211:243,1,220.499993270874,12|0,0:0|0:0,0:0:0:0:
204,297,187819,1,2,0:0:0:0:
270,210,188119,1,2,0:0:0:0:
6,348,188419,2,0,B|55:361|88:339|79:332|108:293|156:298,1,157.499995193482,8|0,0:0|0:0,0:0:0:0:
204,297,188869,1,2,0:0:0:0:
256,351,189019,6,0,P|262:308|305:249,1,94.499997116089,12|0,0:0|0:0,0:0:0:0:
270,210,189319,2,0,P|310:193|382:201,1,94.499997116089,2|0,0:0|0:0,0:0:0:0:
406,161,189619,2,0,P|380:215|376:258,1,94.499997116089,2|0,0:0|0:0,0:0:0:0:
428,271,189919,2,0,P|437:300|442:332,1,62.9999980773926,2|0,0:0|0:0,0:0:0:0:
469,381,190144,1,0,0:0:0:0:
469,381,190219,2,0,P|467:295|519:158,1,220.499993270874,8|0,0:0|0:0,0:0:0:0:
487,118,190819,6,0,P|459:64|368:64,1,157.499995193482,8|0,0:0|0:0,0:0:0:0:
331,102,191269,1,2,0:0:0:0:
257,94,191419,2,0,P|281:134|295:179,1,94.499997116089,8|0,0:0|0:0,0:0:0:0:
311,234,191719,1,2,0:0:0:0:
247,275,191869,1,2,0:0:0:0:
238,200,192019,2,0,B|228:150|201:111|193:125|109:93|138:-5,1,220.499993270874,12|0,0:0|0:0,0:0:0:0:
78,0,192619,6,0,P|62:139|32:217,1,220.499993270874,8|0,0:0|0:0,0:0:0:0:
26,269,193219,2,0,P|74:236|131:246,1,103.500001974106,12|0,0:0|0:0,0:0:0:0:
159,196,193519,2,0,P|211:221|231:275,1,103.500001974106,2|0,0:0|0:0,0:0:0:0:
194,305,193819,2,0,P|242:338|299:328,1,94.499997116089,2|0,0:0|0:0,0:0:0:0:
333,363,194119,2,0,L|338:315,1,34.5000006580353,2|0,0:0|0:0,0:0:0:0:
395,298,194269,2,0,L|399:332,1,34.5000006580353,2|0,0:0|0:0,0:0:0:0:
470,369,194419,6,0,L|436:99,1,241.500004606247,12|0,0:0|0:0,0:0:0:0:
433,73,195019,1,2,0:0:0:0:
314,180,195319,1,2,0:0:0:0:
240,163,195469,1,0,0:0:0:0:
205,96,195619,2,0,P|223:30|329:15,1,172.500003290176,12|0,0:0|0:0,0:0:0:0:
365,33,196069,1,2,0:0:0:0:
317,98,196219,2,0,P|276:98|195:119,1,103.500001974106,8|0,0:0|0:0,0:0:0:0:
149,88,196519,2,0,P|151:56|162:29,1,34.5000006580353,2|0,0:0|0:0,0:0:0:0:
73,68,196669,2,0,P|90:41|113:23,1,34.5000006580353,2|0,0:0|0:0,0:0:0:0:
17,12,196819,6,0,P|46:85|80:238,1,220.499993270874,12|0,0:0|0:0,0:0:0:0:
51,272,197419,2,0,B|104:223|202:234|202:234|164:259|156:305,1,220.499993270874,10|0,0:0|0:0,0:0:0:0:
172,336,198019,2,0,P|248:320|303:266,1,157.499995193482,10|0,0:0|0:0,0:0:0:0:
343,224,198469,1,2,0:0:0:0:
357,291,198619,2,0,P|374:215|422:153,1,157.499995193482,8|0,0:0|0:0,0:0:0:0:
468,120,199069,1,2,0:0:0:0:
508,52,199219,6,0,B|503:31|503:31|454:12|395:42|404:52|347:67|301:32,1,231.000007049561,12|0,0:0|0:0,0:0:0:0:
251,0,199819,2,0,P|275:36|308:167,1,165.000005035401,10|0,0:0|0:0,0:0:0:0:
306,211,200269,1,2,0:0:0:0:
238,252,200419,2,0,P|238:179|281:85,1,165.000005035401,10|0,0:0|0:0,0:0:0:0:
222,62,200869,1,2,0:0:0:0:
162,114,201019,2,0,P|115:128|69:59,1,132.00000402832,8|0,0:0|0:0,0:0:0:0:
0,240,201619,6,0,P|119:262|227:335,1,241.500004606247,12|0,0:0|0:0,0:0:0:0:
266,367,202219,2,0,P|297:313|402:308,1,172.500003290176,10|0,0:0|0:0,0:0:0:0:
442,351,202669,1,2,0:0:0:0:
481,268,202819,2,0,B|431:250|392:270|402:277|360:299|286:271,1,176.249997310638,10|0,0:0|0:0,0:0:0:0:
251,251,203269,1,2,0:0:0:0:
283,173,203419,2,0,B|296:146|296:146|331:170|357:220,1,105.749998386383,8|0,0:0|0:0,0:0:0:0:
381,255,203719,5,2,0:0:0:0:
413,177,203869,1,2,0:0:0:0:
495,160,204019,2,0,P|490:70|370:64,1,220.499993270874,12|0,0:0|0:0,0:0:0:0:
340,99,204619,2,0,P|295:80|251:99,1,94.499997116089,8|0,0:0|0:0,0:0:0:0:
213,136,204919,1,2,0:0:0:0:
139,120,205069,1,2,0:0:0:0:
85,67,205219,2,0,P|109:116|129:218,1,157.499995193482,8|0,0:0|0:0,0:0:0:0:
121,272,205669,1,2,0:0:0:0:
48,296,205819,2,0,P|49:243|122:195,1,125.999996154785,8|2,0:0|0:0,0:0:0:0:
233,335,206419,6,0,B|289:367|358:347|358:347|352:300|352:300|399:300|433:291|475:270|506:233|506:233|464:189|464:189|412:242|344:235|344:235|337:176|337:176|369:176|394:162|394:162|425:148|441:112|449:77|422:39|396:20|354:9|311:42,1,897.749976027489,6|0,0:0|0:0,0:0:0:0:
315,43,211219,6,0,P|250:70|118:25,1,213.749994292259
114,17,212419,2,0,L|121:80,2,56.9999984779358,0|2|0,0:0|0:0|0:0,0:0:0:0:
128,136,213319,1,0,0:0:0:0:
27,123,213619,2,0,L|20:186,2,56.9999984779358,0|2|0,0:0|0:0|0:0,0:0:0:0:
13,242,214519,1,0,0:0:0:0:
54,318,214819,2,0,P|77:299|109:287,1,56.9999984779358,0|2,0:0|0:0,0:0:0:0:
187,281,215419,2,0,P|214:291|241:313,1,56.9999984779358,0|2,0:0|0:0,0:0:0:0:
263,383,216019,6,0,L|283:216,1,168.750006437302
294,210,217219,2,0,L|288:162,2,45.0000017166138,0|2|0,0:0|0:0|0:0,0:0:0:0:
281,106,218119,1,0,0:0:0:0:
362,141,218419,2,0,L|367:93,2,45.0000017166138,0|2|0,0:0|0:0|0:0,0:0:0:0:
375,37,219319,1,0,0:0:0:0:
461,7,219619,2,0,L|466:54,1,45.0000017166138
302,360,220819,6,0,P|322:369|338:369,1,38.9999982147218,0|2,0:0|0:0,0:0:0:0:
363,311,221419,2,0,P|383:302|399:302,1,38.9999982147218,0|2,0:0|0:0,0:0:0:0:
463,313,222019,2,0,L|459:353,2,38.9999982147218,0|2|0,0:0|0:0|0:0,0:0:0:0:
472,251,222919,1,2,0:0:0:0:
431,205,223219,6,0,P|411:214|395:214,1,38.9999982147218,0|2,0:0|0:0,0:0:0:0:
370,156,223819,2,0,P|350:147|334:147,1,38.9999982147218,0|2,0:0|0:0,0:0:0:0:
272,158,224419,2,0,L|277:120,2,38.9999982147218,0|2|0,0:0|0:0|0:0,0:0:0:0:
134,242,225619,6,0,L|155:76,1,165.000005035401,0|2,0:0|0:0,0:0:0:0:
84,62,227719,2,0,L|80:23,2,33.0000010070801,0|0|2,0:0|0:0|0:0,0:0:0:0:
14,46,228919,2,0,L|19:7,2,33.0000010070801,0|0|2,0:0|0:0|0:0,0:0:0:0:
