osu file format v14

[General]
AudioFilename: audio.mp3
AudioLeadIn: 0
PreviewTime: 187066
Countdown: 0
SampleSet: Soft
StackLeniency: 0.7
Mode: 0
LetterboxInBreaks: 0
WidescreenStoryboard: 1

[Editor]
Bookmarks: 29546,49756,70646,87651,110388,129573,148759,163149,167945,187131,205706,206378
DistanceSpacing: 1.2
BeatDivisor: 4
GridSize: 4
TimelineZoom: 2.599999

[Metadata]
Title:EXEC_CHRONICLE=KEY/.
TitleUnicode:EXEC_CHRONICLE=KEY/.
Artist:Shikata Akiko
ArtistUnicode:志方あきこ
Creator:Mir
Version:Shurelia's Hard
Source:アルトネリコ ~世界の終わりで詩い続ける少女~
Tags:shurelia ar tonelico melody of elemia misha arsellec lune The Girl Who Continues to Sing at the End of the World Sekai no Owari de Utai Tsuzukeru Shoujo 彌紗・アルトセルク・リューン jrpg gust best game hymn Tsuchiya Akira土屋 暁
BeatmapID:1369979
BeatmapSetID:646107

[Difficulty]
HPDrainRate:5
CircleSize:4
OverallDifficulty:6
ApproachRate:7.4
SliderMultiplier:2
SliderTickRate:1

[Events]
//Background and Video events
0,0,"misha.jpg",0,0
//Break Periods
2,92931,109577
//Storyboard Layer 0 (Background)
//Storyboard Layer 1 (Fail)
//Storyboard Layer 2 (Pass)
//Storyboard Layer 3 (Foreground)
//Storyboard Sound Samples

[TimingPoints]
29574,631.578947368421,4,2,1,30,1,0
29574,-125,4,2,1,30,0,0
49784,-83.3333333333333,4,2,2,50,0,0
87679,-100,4,2,2,50,0,0
87837,-100,4,2,2,5,0,0
110416,600,4,2,3,60,1,0
110416,-100,4,2,3,60,0,0
187216,-83.3333333333333,4,2,4,80,0,1
199216,-80,4,2,4,80,0,1
201616,-76.9230769230769,4,2,4,80,0,1
206416,-100,4,2,1,80,0,0
206566,-100,4,2,1,5,0,0

[Colours]
Combo1 : 232,115,118
Combo2 : 223,142,240
Combo3 : 199,177,199

[HitObjects]
92,64,29574,6,0,P|127:134|120:213,1,160,2|0,0:0|0:0,0:0:0:0:
72,296,30521,1,0,0:0:0:0:
160,332,30837,2,0,P|230:296|309:303,1,160,2|0,0:0|0:0,0:0:0:0:
400,332,31784,1,0,0:0:0:0:
440,199,32100,6,0,P|404:217|372:240,1,80,2|0,0:0|0:0,0:0:0:0:
304,308,32731,1,0,0:0:0:0:
280,216,33047,1,0,0:0:0:0:
344,144,33363,2,0,P|347:104|340:65,2,80,2|0|0,0:0|0:0|0:0,0:0:0:0:
196,348,34626,6,0,P|188:268|149:199,1,160,2|0,0:0|0:0,0:0:0:0:
88,124,35574,1,0,0:0:0:0:
160,60,35889,2,0,P|229:98|308:106,1,160,2|0,0:0|0:0,0:0:0:0:
400,72,36837,1,0,0:0:0:0:
487,186,37152,6,0,P|495:147|488:108,1,80,2|0,0:0|0:0,0:0:0:0:
368,196,37784,2,0,B|312:208|312:208|260:204|260:204|215:227,2,160,0|2|0,0:0|0:0|0:0,0:0:0:0:
487,186,39363,1,0,0:0:0:0:
432,300,39679,6,0,P|392:305|356:321,1,80,6|0,0:0|0:0,0:0:0:0:
276,375,40310,2,0,P|271:297|223:234,1,160,0|6,0:0|0:0,0:0:0:0:
223,234,41574,1,0,0:0:0:0:
200,328,41889,1,0,0:0:0:0:
147,171,42205,6,0,P|108:164|68:164,1,80,6|0,0:0|0:0,0:0:0:0:
156,83,42837,2,0,P|223:121|232:197,2,160,0|6|0,0:0|0:0|0:0,0:0:0:0:
156,83,44731,6,0,L|235:89,1,80,6|0,0:0|0:0,0:0:0:0:
328,112,45363,1,0,0:0:0:0:
420,80,45679,1,0,0:0:0:0:
276,192,45995,2,0,L|269:271,1,80,6|0,0:0|0:0,0:0:0:0:
413,159,46626,2,0,L|419:79,1,80,0|0,0:0|0:0,0:0:0:0:
275,191,47258,6,0,P|199:168|120:176,1,160,6|0,0:0|0:0,0:0:0:0:
36,220,48205,1,0,0:0:0:0:
104,288,48521,2,0,P|180:311|259:303,1,160,6|0,0:0|0:0,0:0:0:0:
372,176,49784,6,0,P|298:267|307:383,1,239.999992675781,12|0,0:0|0:0,0:0:0:0:
432,308,50731,1,0,0:0:0:0:
432,308,50889,1,0,0:0:0:0:
432,308,51047,1,12,0:0:0:0:
372,176,51363,1,12,0:0:0:0:
252,96,51679,2,0,P|233:152|241:211,1,119.999996337891,0|8,0:0|0:0,0:0:0:0:
355,43,52310,6,0,P|248:0|145:54,1,239.999992675781,12|0,0:0|0:0,0:0:0:0:
76,180,53258,1,0,0:0:0:0:
76,180,53416,1,0,0:0:0:0:
76,180,53574,1,12,0:0:0:0:
124,316,53889,1,12,0:0:0:0:
256,375,54205,2,0,B|303:340|303:340|363:332,1,119.999996337891,0|0,0:0|0:0,0:0:0:0:
220,204,54837,6,0,B|228:140|212:100|172:52|172:52|212:64|245:53,1,239.999992675781,12|0,0:0|0:0,0:0:0:0:
388,40,55784,1,0,0:0:0:0:
460,164,56100,2,0,P|457:223|435:279,2,119.999996337891,12|8|0,0:0|0:0|0:0,0:0:0:0:
388,40,57047,1,8,0:0:0:0:
334,236,57363,6,0,P|275:235|223:207,1,119.999996337891,12|0,0:0|0:0,0:0:0:0:
164,76,57995,2,0,L|164:16,2,59.9999981689454,0|0|8,0:0|0:0|0:0,0:0:0:0:
75,192,58626,2,0,P|48:244|50:304,1,119.999996337891,12|0,0:0|0:0,0:0:0:0:
265,290,59258,2,0,L|148:268,1,119.999996337891,12|0,0:0|0:0,0:0:0:0:
80,196,59731,1,4,0:0:0:0:
80,196,59889,6,0,P|65:139|85:83,1,119.999996337891,12|0,0:0|0:0,0:0:0:0:
212,20,60521,2,0,P|269:35|307:80,1,119.999996337891,0|0,0:0|0:0,0:0:0:0:
376,208,61152,1,12,0:0:0:0:
444,80,61468,1,12,0:0:0:0:
436,264,61784,2,0,L|316:264,1,119.999996337891,0|8,0:0|0:0,0:0:0:0:
88,352,62416,6,0,B|132:320|120:268|120:268|162:241|162:241|160:188|201:160,1,239.999992675781,12|0,0:0|0:0,0:0:0:0:
304,60,63363,1,0,0:0:0:0:
304,60,63521,1,0,0:0:0:0:
304,60,63679,1,12,0:0:0:0:
252,236,63995,1,12,0:0:0:0:
95,143,64310,2,0,P|103:84|136:35,1,119.999996337891,0|0,0:0|0:0,0:0:0:0:
240,8,64784,1,0,0:0:0:0:
240,8,64942,6,0,B|424:64|424:64|440:108,1,239.999992675781,12|0,0:0|0:0,0:0:0:0:
488,244,65889,1,0,0:0:0:0:
387,348,66205,2,0,P|328:348|274:323,2,119.999996337891,12|8|0,0:0|0:0|0:0,0:0:0:0:
356,208,67152,1,0,0:0:0:0:
356,208,67310,1,0,0:0:0:0:
356,208,67468,6,0,B|296:236|296:236|208:240|184:312|184:312|155:308,1,239.999992675781,12|8,0:0|0:0,0:0:0:0:
60,196,68416,1,0,0:0:0:0:
60,196,68574,1,0,0:0:0:0:
60,196,68731,2,0,P|174:174|236:75,1,239.999992675781,12|8,0:0|0:0,0:0:0:0:
380,52,69679,1,12,0:0:0:0:
380,52,69837,1,8,0:0:0:0:
380,52,69995,6,0,L|374:171,1,119.999996337891,12|0,0:0|0:0,0:0:0:0:
240,220,70626,2,0,L|245:339,1,119.999996337891,0|0,0:0|0:0,0:0:0:0:
388,320,71258,1,12,0:0:0:0:
284,144,71574,1,12,0:0:0:0:
147,287,71889,2,0,B|116:232|116:232|104:177,1,119.999996337891,0|8,0:0|0:0,0:0:0:0:
220,24,72521,6,0,B|267:44|267:44|304:48|304:48|324:68|352:68|352:68|388:96|388:96|437:113,1,239.999992675781,12|0,0:0|0:0,0:0:0:0:
488,248,73468,1,8,0:0:0:0:
488,248,73626,1,0,0:0:0:0:
488,248,73784,1,12,0:0:0:0:
496,40,74100,1,12,0:0:0:0:
388,200,74416,2,0,P|328:196|268:212,1,119.999996337891,0|0,0:0|0:0,0:0:0:0:
188,280,74889,1,0,0:0:0:0:
188,280,75047,6,0,L|141:44,1,239.999992675781,12|0,0:0|0:0,0:0:0:0:
52,160,75995,1,0,0:0:0:0:
52,160,76152,1,0,0:0:0:0:
52,160,76310,2,0,L|78:277,1,119.999996337891,12|12,0:0|0:0,0:0:0:0:
196,360,76942,2,0,L|222:242,1,119.999996337891,0|8,0:0|0:0,0:0:0:0:
324,204,77416,1,0,0:0:0:0:
324,204,77574,6,0,L|349:86,1,119.999996337891,12|0,0:0|0:0,0:0:0:0:
259,24,78205,2,0,P|248:51|247:81,2,59.9999981689454,0|0|12,0:0|0:0|0:0,0:0:0:0:
259,24,78837,2,0,B|172:24|172:24|96:56|96:56|25:56,1,239.999992675781,12|12,0:0|0:0,0:0:0:0:
4,200,79784,1,0,0:0:0:0:
4,200,79942,1,0,0:0:0:0:
4,200,80100,6,0,B|8:260|8:260|26:316,1,119.999996337891,12|0,0:0|0:0,0:0:0:0:
164,360,80731,2,0,B|160:300|160:300|141:243,1,119.999996337891,0|0,0:0|0:0,0:0:0:0:
104,104,81363,1,12,0:0:0:0:
0,204,81679,1,12,0:0:0:0:
208,156,81995,2,0,L|327:161,1,119.999996337891,0|8,0:0|0:0,0:0:0:0:
372,336,82626,6,0,P|359:217|404:107,1,239.999992675781,12|0,0:0|0:0,0:0:0:0:
508,212,83574,1,0,0:0:0:0:
508,212,83731,1,0,0:0:0:0:
508,212,83889,1,12,0:0:0:0:
512,100,84205,1,4,0:0:0:0:
489,351,84521,2,0,P|433:332|374:334,1,119.999996337891,0|0,0:0|0:0,0:0:0:0:
172,360,85152,6,0,P|112:362|56:342,1,119.999996337891,12|0,0:0|0:0,0:0:0:0:
119,152,85784,2,0,P|108:210|121:268,1,119.999996337891,0|0,0:0|0:0,0:0:0:0:
252,208,86416,1,12,0:0:0:0:
224,68,86731,1,8,0:0:0:0:
364,103,87047,2,0,P|386:159|390:218,1,119.999996337891,0|0,0:0|0:0,0:0:0:0:
256,192,87679,12,0,92731,0:0:0:0:
344,64,110416,6,0,P|355:112|351:161,1,100,6|0,0:0|0:0,0:0:0:0:
300,272,111016,1,8,0:0:0:0:
236,172,111316,1,2,0:0:0:0:
168,272,111616,1,2,0:0:0:0:
104,172,111916,1,0,0:0:0:0:
104,172,112216,1,8,0:0:0:0:
172,72,112516,1,2,0:0:0:0:
24,76,112816,6,0,L|16:175,1,100,2|0,0:0|0:0,0:0:0:0:
16,175,113216,2,0,L|19:208,1,33.3333333333333,0|0,0:0|0:0,0:0:0:0:
32,288,113416,1,8,0:0:0:0:
100,384,113716,1,2,0:0:0:0:
216,352,114016,1,2,0:0:0:0:
336,320,114316,1,0,0:0:0:0:
336,320,114616,1,8,0:0:0:0:
240,244,114916,1,2,0:0:0:0:
339,179,115216,6,0,P|332:131|345:83,1,100,2|0,0:0|0:0,0:0:0:0:
480,20,115816,1,8,0:0:0:0:
492,168,116116,1,2,0:0:0:0:
368,252,116416,1,2,0:0:0:0:
345,82,116716,1,0,0:0:0:0:
324,36,116866,1,0,0:0:0:0:
292,76,117016,1,8,0:0:0:0:
212,204,117316,1,2,0:0:0:0:
215,32,117616,6,0,P|166:33|116:28,1,100,2|0,0:0|0:0,0:0:0:0:
24,104,118216,2,0,P|28:153|20:203,2,100,8|2|2,0:0|0:0|0:0,0:0:0:0:
24,104,119416,1,8,0:0:0:0:
28,152,119566,1,0,0:0:0:0:
20,203,119716,1,0,0:0:0:0:
8,252,119866,1,0,0:0:0:0:
24,299,120016,6,0,P|73:295|123:303,1,100,2|0,0:0|0:0,0:0:0:0:
272,332,120616,1,8,0:0:0:0:
132,280,120916,1,2,0:0:0:0:
272,332,121216,1,2,0:0:0:0:
144,252,121516,1,0,0:0:0:0:
272,332,121816,1,8,0:0:0:0:
168,224,122116,1,2,0:0:0:0:
276,336,122416,6,0,P|325:323|375:324,1,100,2|0,0:0|0:0,0:0:0:0:
373,323,122816,2,0,L|406:326,1,33.3333333333333,0|0,0:0|0:0,0:0:0:0:
480,336,123016,2,0,P|481:287|491:238,1,100,8|2,0:0|0:0,0:0:0:0:
512,88,123616,1,2,0:0:0:0:
491,237,123916,1,0,0:0:0:0:
360,168,124216,2,0,L|319:138,2,50,8|0|2,0:0|0:0|0:0,0:0:0:0:
480,336,124816,6,0,P|431:344|383:333,1,100,2|0,0:0|0:0,0:0:0:0:
382,333,125216,2,0,L|349:327,1,33.3333333333333,0|0,0:0|0:0,0:0:0:0:
280,360,125416,1,8,0:0:0:0:
308,212,125716,1,2,0:0:0:0:
168,264,126016,2,0,P|119:255|70:258,1,100,2|0,0:0|0:0,0:0:0:0:
48,108,126616,2,0,P|97:98|146:101,1,100,8|2,0:0|0:0,0:0:0:0:
240,311,127216,6,0,P|309:242|320:144,1,200,2|8,0:0|0:0,0:0:0:0:
312,24,128116,1,2,0:0:0:0:
428,56,128416,2,0,P|439:153|508:223,1,200,2|8,0:0|0:0,0:0:0:0:
480,340,129316,1,8,0:0:0:0:
271,320,129616,6,0,P|222:318|177:297,1,100,6|0,0:0|0:0,0:0:0:0:
84,224,130216,1,8,0:0:0:0:
68,344,130516,1,2,0:0:0:0:
192,168,130816,2,0,B|289:184|289:184|304:136|350:105,1,200,2|8,0:0|0:0,0:0:0:0:
460,52,131716,1,2,0:0:0:0:
412,212,132016,6,0,L|400:311,1,100,2|0,0:0|0:0,0:0:0:0:
292,368,132616,1,8,0:0:0:0:
200,288,132916,1,2,0:0:0:0:
127,191,133216,2,0,P|79:179|29:182,2,100,2|0|8,0:0|0:0|0:0,0:0:0:0:
200,96,134116,1,2,0:0:0:0:
29,181,134416,6,0,P|31:231|56:274,1,100,2|0,0:0|0:0,0:0:0:0:
160,336,135016,1,8,0:0:0:0:
264,280,135316,1,2,0:0:0:0:
371,331,135616,2,0,P|412:360|460:374,2,100,2|0|8,0:0|0:0|0:0,0:0:0:0:
356,212,136516,1,2,0:0:0:0:
240,364,136816,6,0,B|181:249|181:249|183:178,1,200,2|8,0:0|0:0,0:0:0:0:
212,60,137716,1,2,0:0:0:0:
396,97,138016,2,0,P|357:127|308:136,1,100,2|0,0:0|0:0,0:0:0:0:
212,60,138616,1,8,0:0:0:0:
184,208,138916,1,2,0:0:0:0:
66,25,139216,6,0,P|56:74|59:123,1,100,2|0,0:0|0:0,0:0:0:0:
72,244,139816,1,8,0:0:0:0:
12,348,140116,1,2,0:0:0:0:
184,199,140416,2,0,P|192:150|183:101,2,100,2|0|8,0:0|0:0|0:0,0:0:0:0:
164,320,141316,1,2,0:0:0:0:
308,196,141616,6,0,P|356:183|406:179,1,100,2|0,0:0|0:0,0:0:0:0:
512,223,142216,2,0,P|515:174|501:126,2,100,8|2|2,0:0|0:0|0:0,0:0:0:0:
424,304,143116,1,0,0:0:0:0:
303,324,143416,2,0,P|254:324|206:308,1,100,8|2,0:0|0:0,0:0:0:0:
32,380,144016,6,0,B|43:312|43:312|28:244|28:244|42:184,1,200,2|8,0:0|0:0,0:0:0:0:
72,68,144916,1,2,0:0:0:0:
251,108,145216,2,0,P|301:100|351:103,2,100,2|0|8,0:0|0:0|0:0,0:0:0:0:
144,56,146116,1,2,0:0:0:0:
308,212,146416,6,0,P|316:264|315:311,2,100,2|2|8,0:0|0:0|0:0,0:0:0:0:
252,108,147316,1,2,0:0:0:0:
155,180,147616,2,0,P|107:191|58:186,1,100,2|8,0:0|0:0,0:0:0:0:
8,76,148216,1,2,0:0:0:0:
8,76,148366,1,2,0:0:0:0:
8,76,148516,1,8,0:0:0:0:
248,144,148816,6,0,P|252:193|238:241,1,100,6|0,0:0|0:0,0:0:0:0:
160,360,149416,2,0,P|145:312|150:262,1,100,8|0,0:0|0:0,0:0:0:0:
248,144,150016,2,0,P|297:139|345:153,1,100,2|2,0:0|0:0,0:0:0:0:
400,316,150616,2,0,P|350:320|302:306,1,100,8|0,0:0|0:0,0:0:0:0:
148,160,151216,6,0,B|96:160|72:220|72:220|24:256|24:299,2,200,2|8|2,0:0|0:0|0:0,0:0:0:0:
268,148,152716,1,2,0:0:0:0:
196,52,153016,1,8,0:0:0:0:
196,52,153166,1,0,0:0:0:0:
196,52,153316,1,0,0:0:0:0:
223,255,153616,6,0,P|272:268|321:259,1,100,2|0,0:0|0:0,0:0:0:0:
480,196,154216,2,0,P|431:208|382:199,1,100,8|0,0:0|0:0,0:0:0:0:
228,136,154816,2,0,P|276:148|325:139,2,100,2|2|8,0:0|0:0|0:0,0:0:0:0:
124,80,155716,1,0,0:0:0:0:
96,315,156016,6,0,B|52:280|15:266|15:266|44:220|40:166,1,200,2|8,0:0|0:0,0:0:0:0:
132,88,156916,1,0,0:0:0:0:
132,88,157066,1,0,0:0:0:0:
131,88,157216,2,0,P|150:185|207:266,1,200,2|8,0:0|0:0,0:0:0:0:
300,344,158116,1,2,0:0:0:0:
444,176,158416,6,0,L|436:64,1,100,6|0,0:0|0:0,0:0:0:0:
324,239,159016,2,0,L|332:140,1,100,8|0,0:0|0:0,0:0:0:0:
328,20,159616,1,2,0:0:0:0:
224,80,159916,1,2,0:0:0:0:
144,168,160216,2,0,P|189:188|238:189,1,100,8|0,0:0|0:0,0:0:0:0:
88,16,160816,6,0,L|74:115,1,100,2|0,0:0|0:0,0:0:0:0:
76,231,161416,2,0,P|99:302|158:345,1,150,8|0,0:0|0:0,0:0:0:0:
220,343,162016,2,0,P|268:330|317:338,1,100,2|0,0:0|0:0,0:0:0:0:
432,376,162616,1,8,0:0:0:0:
432,376,162766,1,0,0:0:0:0:
432,376,162916,1,2,0:0:0:0:
404,260,163216,5,2,0:0:0:0:
256,228,163516,1,0,0:0:0:0:
356,116,163816,1,8,0:0:0:0:
208,84,164116,1,2,0:0:0:0:
256,228,164416,1,2,0:0:0:0:
108,196,164716,1,0,0:0:0:0:
208,84,165016,1,8,0:0:0:0:
256,228,165316,1,2,0:0:0:0:
368,80,165616,6,0,B|392:172|392:172|376:275,1,200,2|8,0:0|0:0,0:0:0:0:
256,368,166516,1,0,0:0:0:0:
256,368,166666,1,0,0:0:0:0:
256,368,166816,1,2,0:0:0:0:
140,272,167116,1,2,0:0:0:0:
156,224,167266,1,0,0:0:0:0:
140,176,167416,1,10,0:0:0:0:
124,128,167566,1,0,0:0:0:0:
144,76,167716,1,10,0:0:0:0:
168,32,167866,1,0,0:0:0:0:
236,92,168016,6,0,P|286:101|334:91,1,100,6|0,0:0|0:0,0:0:0:0:
432,164,168616,1,8,0:0:0:0:
500,64,168916,1,2,0:0:0:0:
495,235,169216,2,0,P|406:195|309:212,1,200,2|8,0:0|0:0,0:0:0:0:
228,304,170116,1,2,0:0:0:0:
176,164,170416,6,0,P|193:258|126:327,1,200,2|8,0:0|0:0,0:0:0:0:
16,372,171316,1,2,0:0:0:0:
32,224,171616,2,0,B|40:144|40:144|72:96|72:96|79:34,1,200,2|8,0:0|0:0,0:0:0:0:
196,8,172516,1,2,0:0:0:0:
296,152,172816,6,0,P|312:105|308:56,1,100,2|0,0:0|0:0,0:0:0:0:
196,8,173416,1,8,0:0:0:0:
160,124,173716,1,2,0:0:0:0:
208,267,174016,2,0,P|295:224|390:249,1,200,2|8,0:0|0:0,0:0:0:0:
488,176,174916,1,2,0:0:0:0:
288,148,175216,6,0,L|308:348,1,200,2|8,0:0|0:0,0:0:0:0:
188,360,176116,1,2,0:0:0:0:
188,360,176266,1,0,0:0:0:0:
188,360,176416,2,0,P|119:331|46:343,1,150,2|0,0:0|0:0,0:0:0:0:
12,292,177016,1,8,0:0:0:0:
76,192,177316,1,2,0:0:0:0:
216,44,177616,6,0,P|167:56|119:47,1,100,6|0,0:0|0:0,0:0:0:0:
0,20,178216,1,8,0:0:0:0:
4,140,178516,1,2,0:0:0:0:
177,141,178816,2,0,P|275:141|362:93,1,200,2|8,0:0|0:0,0:0:0:0:
452,16,179716,1,2,0:0:0:0:
396,204,180016,6,0,L|369:300,1,100,2|0,0:0|0:0,0:0:0:0:
268,368,180616,1,8,0:0:0:0:
152,344,180916,1,2,0:0:0:0:
72,252,181216,2,0,L|53:153,2,100,2|0|8,0:0|0:0|0:0,0:0:0:0:
188,228,182116,1,2,0:0:0:0:
320,272,182416,6,0,P|235:226|225:130,1,200,2|8,0:0|0:0,0:0:0:0:
292,32,183316,1,2,0:0:0:0:
325,159,183616,2,0,P|367:132|395:92,1,100,2|0,0:0|0:0,0:0:0:0:
484,12,184216,1,8,0:0:0:0:
484,12,184516,1,2,0:0:0:0:
291,32,184816,6,0,P|242:36|192:28,2,100,2|0|8,0:0|0:0|0:0,0:0:0:0:
412,28,185716,1,2,0:0:0:0:
254,120,186016,2,0,P|205:118|156:108,1,100,2|8,0:0|0:0,0:0:0:0:
36,40,186616,2,0,L|65:187,1,150,8|0,0:0|0:0,0:0:0:0:
108,260,187216,6,0,L|345:291,1,239.999992675781,6|8,0:0|0:0,0:0:0:0:
488,304,188116,1,2,0:0:0:0:
488,304,188266,1,0,0:0:0:0:
487,303,188416,2,0,P|465:248|468:189,1,119.999996337891,6|0,0:0|0:0,0:0:0:0:
512,115,188866,2,0,P|428:144|348:108,1,179.999994506836,12|10,0:0|0:0,0:0:0:0:
168,20,189616,6,0,P|156:78|169:136,1,119.999996337891,6|0,0:0|0:0,0:0:0:0:
244,260,190216,2,0,P|255:318|242:376,1,119.999996337891,8|0,0:0|0:0,0:0:0:0:
136,356,190666,1,0,0:0:0:0:
136,356,190816,2,0,P|119:298|133:240,1,119.999996337891,6|0,0:0|0:0,0:0:0:0:
104,156,191266,2,0,P|168:213|251:188,1,179.999994506836,14|14,0:0|0:0,0:0:0:0:
316,112,191866,1,0,0:0:0:0:
316,110,192015,6,0,P|371:89|431:91,1,119.999996337891,6|0,0:0|0:0,0:0:0:0:
412,300,192616,2,0,L|388:182,1,119.999996337891,8|2,0:0|0:0,0:0:0:0:
267,24,193216,2,0,P|229:68|219:127,2,119.999996337891,6|0|8,0:0|0:0|0:0,0:0:0:0:
259,232,194116,1,6,0:0:0:0:
259,232,194266,1,0,0:0:0:0:
259,232,194416,6,0,P|200:232|145:209,1,119.999996337891,6|0,0:0|0:0,0:0:0:0:
20,136,195016,2,0,P|-3:190|0:250,1,119.999996337891,8|2,0:0|0:0,0:0:0:0:
68,344,195466,1,0,0:0:0:0:
68,344,195616,2,0,L|187:355,1,119.999996337891,6|0,0:0|0:0,0:0:0:0:
284,352,196066,2,0,L|463:336,1,179.999994506836,14|14,0:0|0:0,0:0:0:0:
504,248,196666,1,0,0:0:0:0:
504,248,196816,6,0,L|484:116,1,119.999996337891,6|0,0:0|0:0,0:0:0:0:
368,48,197416,2,0,L|350:166,1,119.999996337891,8|2,0:0|0:0,0:0:0:0:
304,280,197866,1,0,0:0:0:0:
304,280,198016,2,0,B|244:264|244:264|186:266,1,119.999996337891,6|0,0:0|0:0,0:0:0:0:
100,224,198466,2,0,B|112:168|112:168|96:120|96:120|115:50,1,179.999994506836,14|6,0:0|0:0,0:0:0:0:
196,20,199066,1,0,0:0:0:0:
196,20,199216,6,0,P|257:26|318:12,1,125,6|0,0:0|0:0,0:0:0:0:
447,84,199816,2,0,P|405:129|348:151,1,125,8|2,0:0|0:0,0:0:0:0:
230,196,200266,1,0,0:0:0:0:
230,196,200416,2,0,P|170:207|109:193,1,125,6|0,0:0|0:0,0:0:0:0:
72,100,200866,2,0,L|44:285,1,187.5,14|14,0:0|0:0,0:0:0:0:
120,339,201466,1,0,0:0:0:0:
120,339,201616,6,0,P|178:312|242:303,1,129.999994049073,6|0,0:0|0:0,0:0:0:0:
434,241,202216,2,0,P|371:230|311:205,1,129.999994049073,8|2,0:0|0:0,0:0:0:0:
196,144,202666,1,0,0:0:0:0:
196,144,202816,2,0,L|199:14,1,129.999994049073,6|0,0:0|0:0,0:0:0:0:
112,64,203266,2,0,L|104:258,1,194.999991073609,14|14,0:0|0:0,0:0:0:0:
104,368,203866,1,0,0:0:0:0:
104,368,204016,6,0,L|233:371,1,129.999994049073,6|0,0:0|0:0,0:0:0:0:
388,348,204616,1,8,0:0:0:0:
468,212,204916,1,2,0:0:0:0:
468,212,205066,1,0,0:0:0:0:
467,211,205216,2,0,P|475:147|451:87,1,129.999994049073,6|0,0:0|0:0,0:0:0:0:
347,112,205666,2,0,P|270:169|174:172,1,194.999991073609,12|12,0:0|0:0,0:0:0:0:
60,172,206266,1,0,0:0:0:0:
60,172,206416,5,2,0:0:0:0:
256,192,206566,12,0,208816,0:0:0:0:
