osu file format v14

[General]
AudioFilename: audio.mp3
AudioLeadIn: 0
PreviewTime: 187066
Countdown: 0
SampleSet: Soft
StackLeniency: 0.7
Mode: 0
LetterboxInBreaks: 0
WidescreenStoryboard: 1

[Editor]
Bookmarks: 29546,49756,87651,110388,129573,148759,163149,167945,187131,206378
DistanceSpacing: 1.1
BeatDivisor: 8
GridSize: 4
TimelineZoom: 1

[Metadata]
Title:EXEC_CHRONICLE=KEY/.
TitleUnicode:EXEC_CHRONICLE=KEY/.
Artist:Shikata Akiko
ArtistUnicode:志方あきこ
Creator:Mir
Version:Normal
Source:アルトネリコ ~世界の終わりで詩い続ける少女~
Tags:shurelia ar tonelico melody of elemia misha arsellec lune The Girl Who Continues to Sing at the End of the World Sekai no Owari de Utai Tsuzukeru Shoujo 彌紗・アルトセルク・リューン jrpg gust best game hymn Tsuchiya Akira土屋 暁
BeatmapID:1370176
BeatmapSetID:646107

[Difficulty]
HPDrainRate:3
CircleSize:3
OverallDifficulty:4
ApproachRate:4.5
SliderMultiplier:1.7
SliderTickRate:1

[Events]
//Background and Video events
0,0,"misha.jpg",0,0
//Break Periods
2,90405,109156
//Storyboard Layer 0 (Background)
//Storyboard Layer 1 (Fail)
//Storyboard Layer 2 (Pass)
//Storyboard Layer 3 (Foreground)
//Storyboard Sound Samples

[TimingPoints]
29574,631.578947368421,4,2,1,30,1,0
29574,-100,4,2,1,30,0,0
49784,-100,4,2,2,50,0,0
87837,-100,4,2,2,5,0,0
110416,600,4,2,3,60,1,0
187216,-100,4,2,4,80,0,1
206416,-100,4,2,1,5,0,0

[Colours]
Combo1 : 232,115,118
Combo2 : 223,142,240
Combo3 : 199,177,199

[HitObjects]
68,65,29574,6,0,P|139:51|235:77,1,170,2|0,0:0|0:0,0:0:0:0:
301,137,30521,1,0,0:0:0:0:
218,181,30837,2,0,P|185:235|214:350,1,170,2|0,0:0|0:0,0:0:0:0:
288,371,31784,1,0,0:0:0:0:
360,311,32100,6,0,L|544:316,1,170,2|0,0:0|0:0,0:0:0:0:
502,226,33047,1,0,0:0:0:0:
446,150,33363,1,2,0:0:0:0:
503,76,33679,1,0,0:0:0:0:
437,9,33995,1,0,0:0:0:0:
269,91,34626,6,0,P|202:102|106:43,1,170,2|0,0:0|0:0,0:0:0:0:
24,30,35574,1,0,0:0:0:0:
47,120,35889,2,0,P|67:182|33:284,1,170,2|0,0:0|0:0,0:0:0:0:
15,370,36837,1,0,0:0:0:0:
105,347,37152,6,0,L|284:353,2,170,2|0|2,0:0|0:0|0:0,0:0:0:0:
46,276,38731,1,0,0:0:0:0:
105,203,39047,2,0,P|140:139|140:116,1,85,0|0,0:0|0:0,0:0:0:0:
64,73,39679,6,0,L|248:78,1,170,6|0,0:0|0:0,0:0:0:0:
309,22,40626,1,0,0:0:0:0:
390,67,40942,2,0,P|440:132|431:233,1,170,6|0,0:0|0:0,0:0:0:0:
378,288,41889,1,0,0:0:0:0:
297,239,42205,6,0,L|127:234,1,170,6|0,0:0|0:0,0:0:0:0:
89,148,43152,1,0,0:0:0:0:
29,220,43468,1,6,0:0:0:0:
61,307,43784,1,0,0:0:0:0:
152,326,44100,1,0,0:0:0:0:
220,152,44731,6,0,P|229:59|299:23,1,170,6|0,0:0|0:0,0:0:0:0:
374,63,45679,1,0,0:0:0:0:
461,28,45995,2,0,L|466:205,1,170,6|0,0:0|0:0,0:0:0:0:
465,291,46942,1,0,0:0:0:0:
374,316,47258,6,0,P|289:296|195:318,1,170,6|0,0:0|0:0,0:0:0:0:
129,360,48205,1,0,0:0:0:0:
75,283,48521,2,0,P|77:195|144:133,1,170,6|0,0:0|0:0,0:0:0:0:
295,49,49784,6,0,B|213:28|213:28|116:46,1,170,12|0,0:0|0:0,0:0:0:0:
12,190,51047,1,12,0:0:0:0:
69,263,51363,1,12,0:0:0:0:
226,161,51995,1,8,0:0:0:0:
297,221,52310,6,0,P|256:250|136:187,1,170,12|0,0:0|0:0,0:0:0:0:
134,128,53258,1,0,0:0:0:0:
176,44,53574,2,0,L|61:38,2,85,12|12|0,0:0|0:0|0:0,0:0:0:0:
349,113,54837,6,0,P|426:94|478:12,1,170,12|0,0:0|0:0,0:0:0:0:
416,200,56100,1,12,0:0:0:0:
468,277,56416,1,8,0:0:0:0:
283,303,57047,1,8,0:0:0:0:
307,212,57363,6,0,L|289:35,1,170,12|0,0:0|0:0,0:0:0:0:
202,8,58310,1,8,0:0:0:0:
197,101,58626,2,0,B|106:124|113:62|8:105,1,170,12|12,0:0|0:0,0:0:0:0:
72,180,59574,2,0,L|69:242,1,42.5,0|4,0:0|0:0,0:0:0:0:
51,265,59889,6,0,L|238:269,1,170,12|0,0:0|0:0,0:0:0:0:
395,202,61152,1,12,0:0:0:0:
431,288,61468,1,12,0:0:0:0:
351,118,62100,1,8,0:0:0:0:
423,56,62416,6,0,P|386:32|259:88,1,170,12|0,0:0|0:0,0:0:0:0:
269,157,63363,1,0,0:0:0:0:
190,106,63679,2,0,P|122:107|85:117,2,85,12|12|0,0:0|0:0|0:0,0:0:0:0:
306,252,64942,6,0,B|386:284|395:212|498:268,1,170,12|0,0:0|0:0,0:0:0:0:
313,355,66205,2,0,P|235:357|211:348,1,85,12|8,0:0|0:0,0:0:0:0:
162,288,66837,1,0,0:0:0:0:
138,102,67468,6,0,P|191:67|313:105,1,170,12|8,0:0|0:0,0:0:0:0:
337,165,68416,1,0,0:0:0:0:
281,239,68731,2,0,L|90:242,1,170,12|8,0:0|0:0,0:0:0:0:
49,170,69679,2,0,L|48:113,1,42.5,12|8,0:0|0:0,0:0:0:0:
44,80,69995,6,0,P|106:52|199:97,1,170,12|0,0:0|0:0,0:0:0:0:
304,242,71258,1,12,0:0:0:0:
326,151,71574,1,12,0:0:0:0:
359,327,72205,1,8,0:0:0:0:
265,330,72521,6,0,L|94:325,1,170,12|0,0:0|0:0,0:0:0:0:
53,241,73468,1,8,0:0:0:0:
81,151,73784,2,0,P|86:91|63:49,2,85,12|12|0,0:0|0:0|0:0,0:0:0:0:
214,282,75047,6,0,B|285:283|285:283|392:223,1,170,12|0,0:0|0:0,0:0:0:0:
290,65,76310,2,0,P|221:59|178:65,2,85,12|12|0,0:0|0:0|0:0,0:0:0:0:
368,116,77258,1,8,0:0:0:0:
450,78,77574,6,0,P|485:110|472:231,1,170,12|0,0:0|0:0,0:0:0:0:
328,336,78837,1,12,0:0:0:0:
173,230,79468,1,12,0:0:0:0:
115,155,79784,2,0,L|61:160,1,42.5,0|0,0:0|0:0,0:0:0:0:
30,138,80100,6,0,P|31:65|120:5,1,170,12|0,0:0|0:0,0:0:0:0:
266,94,81363,1,12,0:0:0:0:
185,141,81679,1,12,0:0:0:0:
361,79,82310,1,8,0:0:0:0:
453,94,82626,6,0,P|484:151|451:257,1,170,12|0,0:0|0:0,0:0:0:0:
394,316,83574,1,0,0:0:0:0:
301,308,83889,2,0,P|262:293|220:293,2,85,12|12|0,0:0|0:0|0:0,0:0:0:0:
323,126,85152,6,0,L|114:127,1,170,12|0,0:0|0:0,0:0:0:0:
61,290,86416,1,12,0:0:0:0:
148,256,86731,1,8,0:0:0:0:
224,310,87047,2,0,P|276:313|311:307,1,85,0|0,0:0|0:0,0:0:0:0:
256,192,87679,12,0,90205,0:0:0:0:
58,69,110416,6,0,P|125:57|175:73,1,85,6|0,0:0|0:0,0:0:0:0:
222,104,111016,1,8,0:0:0:0:
302,56,111316,2,0,L|402:52,2,85,2|2|0,0:0|0:0|0:0,0:0:0:0:
222,104,112216,1,8,0:0:0:0:
263,187,112516,1,2,0:0:0:0:
187,242,112816,6,0,P|134:249|92:239,1,85,2|0,0:0|0:0,0:0:0:0:
63,219,113266,1,0,0:0:0:0:
63,219,113416,1,8,0:0:0:0:
48,126,113716,2,0,L|44:29,2,85,2|2|0,0:0|0:0|0:0,0:0:0:0:
138,102,114616,2,0,P|162:98|192:100,1,42.5,8|0,0:0|0:0,0:0:0:0:
226,106,114916,1,2,0:0:0:0:
311,67,115216,6,0,P|385:55|415:62,1,85,2|0,0:0|0:0,0:0:0:0:
466,115,115816,1,8,0:0:0:0:
402,183,116116,1,2,0:0:0:0:
455,259,116416,1,2,0:0:0:0:
377,310,116716,2,0,L|326:313,1,42.5
287,313,117016,2,0,P|222:299|192:269,1,85,8|2,0:0|0:0,0:0:0:0:
213,194,117616,6,0,L|41:193,1,170,2|8,0:0|0:0,0:0:0:0:
21,101,118516,1,2,0:0:0:0:
97,47,118816,2,0,L|213:49,1,85,2|0,0:0|0:0,0:0:0:0:
252,110,119416,2,0,L|255:175,2,63.75,8|0|0,0:0|0:0|0:0,0:0:0:0:
292,86,120016,6,0,P|353:92|376:108,1,85,2|0,0:0|0:0,0:0:0:0:
421,185,120616,1,8,0:0:0:0:
379,269,120916,1,2,0:0:0:0:
432,345,121216,1,2,0:0:0:0:
475,262,121516,1,0,0:0:0:0:
379,269,121816,2,0,L|313:270,2,42.5,8|0|2,0:0|0:0|0:0,0:0:0:0:
421,185,122416,6,0,P|428:109|412:65,1,85,2|0,0:0|0:0,0:0:0:0:
409,57,122866,1,0,0:0:0:0:
409,57,123016,1,8,0:0:0:0:
317,36,123316,1,2,0:0:0:0:
238,86,123616,1,2,0:0:0:0:
160,33,123916,1,0,0:0:0:0:
93,98,124216,2,0,L|91:159,1,42.5,8|0,0:0|0:0,0:0:0:0:
90,187,124516,1,2,0:0:0:0:
104,279,124816,6,0,P|167:279|205:268,1,85,2|0,0:0|0:0,0:0:0:0:
264,220,125416,1,8,0:0:0:0:
353,246,125716,1,2,0:0:0:0:
428,191,126016,2,0,P|470:188|512:195,2,85,2|0|8,0:0|0:0|0:0,0:0:0:0:
353,246,126916,1,2,0:0:0:0:
292,317,127216,6,0,B|188:333|225:272|89:309,1,170,2|8,0:0|0:0,0:0:0:0:
41,259,128116,2,0,P|31:321|50:358,2,85,2|2|8,0:0|0:0|0:0,0:0:0:0:
74,226,128866,1,0,0:0:0:0:
74,226,129016,2,8,L|76:167,1,42.5,8|0,0:0|0:0,0:0:0:0:
118,165,129316,2,0,L|116:106,1,42.5,8|0,0:0|0:0,0:0:0:0:
139,77,129616,6,0,P|210:90|317:54,1,170,6|8,0:0|0:0,0:0:0:0:
375,5,130516,1,2,0:0:0:0:
398,95,130816,2,0,L|401:275,1,170,2|8,0:0|0:0,0:0:0:0:
322,317,131716,1,2,0:0:0:0:
243,265,132016,1,2,0:0:0:0:
147,104,132616,5,8,0:0:0:0:
62,133,132916,1,2,0:0:0:0:
62,226,133216,1,2,0:0:0:0:
147,255,133516,1,0,0:0:0:0:
202,179,133816,1,8,0:0:0:0:
381,230,134416,6,0,L|500:225,1,85,2|0,0:0|0:0,0:0:0:0:
499,139,135016,1,8,0:0:0:0:
429,76,135316,1,2,0:0:0:0:
350,127,135616,2,0,P|296:147|196:97,1,170,2|8,0:0|0:0,0:0:0:0:
140,29,136516,1,2,0:0:0:0:
59,76,136816,5,2,0:0:0:0:
82,261,137416,2,0,P|146:259|212:305,1,127.5,8|0,0:0|0:0,0:0:0:0:
233,322,138016,2,0,P|313:323|342:313,1,85,2|0,0:0|0:0,0:0:0:0:
367,315,138466,1,0,0:0:0:0:
367,315,138616,1,8,0:0:0:0:
317,235,138916,1,2,0:0:0:0:
357,150,139216,6,0,B|270:120|274:187|178:156,1,170,2|8,0:0|0:0,0:0:0:0:
129,90,140116,1,2,0:0:0:0:
47,136,140416,2,0,P|27:221|77:300,1,170,2|8,0:0|0:0,0:0:0:0:
134,352,141316,1,2,0:0:0:0:
199,285,141616,1,2,0:0:0:0:
320,142,142216,5,8,0:0:0:0:
405,171,142516,1,2,0:0:0:0:
405,264,142816,1,2,0:0:0:0:
320,293,143116,1,0,0:0:0:0:
265,217,143416,1,8,0:0:0:0:
209,38,144016,6,0,L|31:37,1,170,2|8,0:0|0:0,0:0:0:0:
3,123,144916,1,2,0:0:0:0:
96,118,145216,2,0,P|123:196|96:293,1,170,2|8,0:0|0:0,0:0:0:0:
36,353,146116,1,2,0:0:0:0:
126,376,146416,6,0,L|295:375,1,170,2|8,0:0|0:0,0:0:0:0:
363,310,147316,1,2,0:0:0:0:
440,362,147616,2,0,L|489:365,2,42.5,2|2|8,0:0|0:0|0:0,0:0:0:0:
446,268,148216,2,0,L|488:270,2,42.5,2|2|8,0:0|0:0|0:0,0:0:0:0:
368,215,148816,6,0,P|350:133|355:109,1,85,6|0,0:0|0:0,0:0:0:0:
388,48,149416,2,0,B|299:27|317:79|206:51,1,170,8|2,0:0|0:0,0:0:0:0:
136,13,150316,1,2,0:0:0:0:
142,106,150616,2,0,P|145:187|126:214,1,85,8|0,0:0|0:0,0:0:0:0:
80,256,151216,6,0,P|143:280|240:198,1,170,2|8,0:0|0:0,0:0:0:0:
291,164,152116,1,0,0:0:0:0:
378,193,152416,2,0,P|439:200|473:195,2,85,2|2|8,0:0|0:0|0:0,0:0:0:0:
291,164,153316,1,0,0:0:0:0:
211,114,153616,6,0,P|168:111|126:118,1,85,2|0,0:0|0:0,0:0:0:0:
55,177,154216,2,0,B|20:268|98:266|49:358,1,170,8|2,0:0|0:0,0:0:0:0:
143,377,155116,1,2,0:0:0:0:
210,312,155416,2,0,P|277:293|303:298,1,85,8|0,0:0|0:0,0:0:0:0:
350,367,156016,6,0,L|343:187,1,170,2|8,0:0|0:0,0:0:0:0:
397,120,156916,1,0,0:0:0:0:
342,44,157216,2,0,P|261:36|186:98,1,170,2|8,0:0|0:0,0:0:0:0:
160,174,158116,1,2,0:0:0:0:
241,219,158416,6,0,P|254:265|245:315,1,85,6|0,0:0|0:0,0:0:0:0:
179,363,159016,2,0,B|121:336|91:392|12:352,1,170,8|2,0:0|0:0,0:0:0:0:
5,259,159916,1,2,0:0:0:0:
60,183,160216,2,0,P|89:110|88:92,1,85,8|0,0:0|0:0,0:0:0:0:
6,60,160816,5,2,0:0:0:0:
189,24,161416,2,0,L|291:23,1,85,8|2,0:0|0:0,0:0:0:0:
357,66,162016,1,2,0:0:0:0:
362,159,162316,1,0,0:0:0:0:
282,207,162616,1,8,0:0:0:0:
105,266,163216,6,0,L|216:271,1,85,2|0,0:0|0:0,0:0:0:0:
250,340,163816,2,0,L|334:336,1,85,8|2,0:0|0:0,0:0:0:0:
373,250,164416,2,0,L|457:253,1,85,2|0,0:0|0:0,0:0:0:0:
505,173,165016,1,8,0:0:0:0:
443,102,165316,1,2,0:0:0:0:
355,134,165616,6,0,P|269:144|188:74,1,170,2|8,0:0|0:0,0:0:0:0:
146,24,166516,1,0,0:0:0:0:
71,80,166816,2,0,P|44:134|41:180,1,85,2|2,0:0|0:0,0:0:0:0:
43,204,167266,1,0,0:0:0:0:
43,204,167416,2,0,L|42:253,1,42.5,8|0,0:0|0:0,0:0:0:0:
88,252,167716,2,0,L|89:301,1,42.5,8|0,0:0|0:0,0:0:0:0:
112,335,168016,6,0,P|192:303|292:322,1,170,6|8,0:0|0:0,0:0:0:0:
345,373,168916,1,2,0:0:0:0:
360,289,169216,2,0,L|359:83,1,170,2|8,0:0|0:0,0:0:0:0:
339,27,170116,1,2,0:0:0:0:
262,80,170416,6,0,P|190:93|97:47,1,170,2|8,0:0|0:0,0:0:0:0:
23,6,171316,1,2,0:0:0:0:
32,99,171616,1,2,0:0:0:0:
43,191,171916,1,0,0:0:0:0:
53,283,172216,2,0,L|152:283,1,85,8|2,0:0|0:0,0:0:0:0:
213,227,172816,6,0,P|281:225|360:294,1,170,2|8,0:0|0:0,0:0:0:0:
404,368,173716,1,2,0:0:0:0:
450,286,174016,2,0,L|444:113,1,170,2|8,0:0|0:0,0:0:0:0:
400,33,174916,1,2,0:0:0:0:
326,91,175216,5,2,0:0:0:0:
232,92,175516,1,0,0:0:0:0:
158,34,175816,1,8,0:0:0:0:
38,107,176266,1,0,0:0:0:0:
38,107,176416,2,0,L|40:217,1,85,2|0,0:0|0:0,0:0:0:0:
45,238,176866,1,0,0:0:0:0:
45,238,177016,1,8,0:0:0:0:
96,315,177316,1,2,0:0:0:0:
166,253,177616,6,0,P|231:248|256:256,1,85,6|0,0:0|0:0,0:0:0:0:
323,310,178216,1,8,0:0:0:0:
379,235,178516,1,2,0:0:0:0:
302,181,178816,2,0,L|303:6,1,170,2|8,0:0|0:0,0:0:0:0:
214,40,179716,1,2,0:0:0:0:
123,16,180016,1,2,0:0:0:0:
99,201,180616,5,8,0:0:0:0:
10,230,180916,1,2,0:0:0:0:
10,323,181216,1,2,0:0:0:0:
99,351,181516,1,0,0:0:0:0:
148,276,181816,1,8,0:0:0:0:
307,178,182416,6,0,P|397:172|475:221,1,170,2|8,0:0|0:0,0:0:0:0:
495,298,183316,1,2,0:0:0:0:
427,362,183616,2,0,L|325:351,1,85,2|0,0:0|0:0,0:0:0:0:
269,293,184216,1,8,0:0:0:0:
177,313,184516,1,2,0:0:0:0:
113,244,184816,6,0,B|96:160|96:160|120:64,1,170,2|8,0:0|0:0,0:0:0:0:
176,6,185716,1,2,0:0:0:0:
253,58,186016,2,0,P|315:68|419:20,1,170,2|8,0:0|0:0,0:0:0:0:
503,47,186916,1,0,0:0:0:0:
440,127,187216,6,0,L|457:308,1,170,6|8,0:0|0:0,0:0:0:0:
383,367,188116,1,2,0:0:0:0:
301,305,188416,2,0,P|227:292|187:299,1,85,6|0,0:0|0:0,0:0:0:0:
174,320,188866,2,0,P|100:333|60:326,1,85,12|0,0:0|0:0,0:0:0:0:
45,309,189316,1,10,0:0:0:0:
103,225,189616,5,6,0:0:0:0:
113,123,189916,1,0,0:0:0:0:
48,44,190216,2,0,P|98:20|189:56,1,127.5,8|0,0:0|0:0,0:0:0:0:
204,69,190816,2,0,L|301:67,1,85,6|0,0:0|0:0,0:0:0:0:
326,31,191266,2,0,L|410:32,1,85,14|0,0:0|0:0,0:0:0:0:
449,67,191716,2,0,L|446:121,1,42.5,14|0,0:0|0:0,0:0:0:0:
443,160,192016,5,6,0:0:0:0:
348,341,192616,2,0,P|283:309|192:318,1,127.5,8|0,0:0|0:0,0:0:0:0:
181,326,193216,2,0,L|176:191,1,127.5,6|0,0:0|0:0,0:0:0:0:
171,147,193816,1,8,0:0:0:0:
91,83,194116,1,6,0:0:0:0:
152,1,194416,6,0,P|257:14|316:73,1,170,6|8,0:0|0:0,0:0:0:0:
330,152,195316,2,0,L|389:150,1,42.5,2|0,0:0|0:0,0:0:0:0:
420,132,195616,2,0,P|438:193|426:244,1,85,6|0,0:0|0:0,0:0:0:0:
402,252,196066,2,0,P|384:313|396:364,1,85,14|0,0:0|0:0,0:0:0:0:
405,380,196516,2,0,L|465:377,1,42.5,14|0,0:0|0:0,0:0:0:0:
498,375,196816,5,6,0:0:0:0:
301,320,197416,2,0,P|216:311|146:338,1,127.5,8|0,0:0|0:0,0:0:0:0:
146,363,198016,2,0,L|139:237,1,85,6|0,0:0|0:0,0:0:0:0:
130,228,198466,2,0,L|137:102,1,85,14|0,0:0|0:0,0:0:0:0:
138,92,198916,1,6,0:0:0:0:
58,28,199216,5,6,0:0:0:0:
261,16,199816,2,0,P|347:16|400:61,1,127.5,8|0,0:0|0:0,0:0:0:0:
366,86,200416,2,0,L|361:170,1,85,6|0,0:0|0:0,0:0:0:0:
388,214,200866,2,0,L|392:298,1,85,14|0,0:0|0:0,0:0:0:0:
396,349,201316,1,14,0:0:0:0:
487,302,201616,5,6,0:0:0:0:
283,289,202216,2,0,P|207:285|143:304,1,127.5,8|0,0:0|0:0,0:0:0:0:
116,328,202816,2,0,L|116:207,1,85,6|0,0:0|0:0,0:0:0:0:
152,206,203266,2,0,L|152:85,1,85,14|0,0:0|0:0,0:0:0:0:
126,76,203716,2,0,L|126:25,1,42.5,14|0,0:0|0:0,0:0:0:0:
171,11,204016,6,0,P|252:3|348:32,1,170,6|8,0:0|0:0,0:0:0:0:
413,93,204916,1,2,0:0:0:0:
346,170,205216,2,0,P|336:220|362:278,1,85,6|0,0:0|0:0,0:0:0:0:
382,286,205666,2,0,P|392:336|366:394,1,85,12|0,0:0|0:0,0:0:0:0:
332,375,206116,1,12,0:0:0:0:
332,375,206266,1,0,0:0:0:0:
256,192,206416,12,0,208816,0:0:0:0:
