osu file format v14

[General]
AudioFilename: audio.mp3
AudioLeadIn: 0
PreviewTime: 187066
Countdown: 0
SampleSet: Soft
StackLeniency: 0.7
Mode: 0
LetterboxInBreaks: 0
WidescreenStoryboard: 1

[Editor]
Bookmarks: 29546,49756,87651,110388,129573,148759,163149,167945,187131,206378
DistanceSpacing: 0.9
BeatDivisor: 8
GridSize: 32
TimelineZoom: 2.300001

[Metadata]
Title:EXEC_CHRONICLE=KEY/.
TitleUnicode:EXEC_CHRONICLE=KEY/.
Artist:Shikata Akiko
ArtistUnicode:志方あきこ
Creator:Mir
Version:Lullaby
Source:アルトネリコ ~世界の終わりで詩い続ける少女~
Tags:shurelia ar tonelico melody of elemia misha arsellec lune The Girl Who Continues to Sing at the End of the World Sekai no Owari de Utai Tsuzukeru Shoujo 彌紗・アルトセルク・リューン jrpg gust best game hymn Tsuchiya Akira土屋 暁
BeatmapID:1369044
BeatmapSetID:646107

[Difficulty]
HPDrainRate:6
CircleSize:5
OverallDifficulty:7.5
ApproachRate:8.5
SliderMultiplier:2.2
SliderTickRate:1

[Events]
//Background and Video events
0,0,"misha.jpg",0,0
//Break Periods
2,92931,109741
//Storyboard Layer 0 (Background)
//Storyboard Layer 1 (Fail)
//Storyboard Layer 2 (Pass)
//Storyboard Layer 3 (Foreground)
//Storyboard Sound Samples

[TimingPoints]
29574,631.578947368421,4,2,1,30,1,0
29574,-133.333333333333,4,2,1,30,0,0
30047,-133.333333333333,4,2,1,5,0,0
30205,-133.333333333333,4,2,1,30,0,0
32574,-133.333333333333,4,2,1,5,0,0
32732,-133.333333333333,4,2,1,30,0,0
35100,-133.333333333333,4,2,1,5,0,0
35258,-133.333333333333,4,2,1,30,0,0
37626,-133.333333333333,4,2,1,5,0,0
37784,-133.333333333333,4,2,1,30,0,0
40152,-133.333333333333,4,2,1,5,0,0
40310,-133.333333333333,4,2,1,30,0,0
42679,-133.333333333333,4,2,1,5,0,0
42837,-133.333333333333,4,2,1,30,0,0
45205,-133.333333333333,4,2,1,5,0,0
45363,-133.333333333333,4,2,1,30,0,0
46468,-133.333333333333,4,2,1,5,0,0
46626,-133.333333333333,4,2,1,30,0,0
47731,-133.333333333333,4,2,1,5,0,0
47889,-133.333333333333,4,2,1,30,0,0
48995,-133.333333333333,4,2,1,5,0,0
49153,-133.333333333333,4,2,1,30,0,0
49626,-133.333333333333,4,2,1,5,0,0
49784,-100,4,2,2,50,0,0
87837,-100,4,2,2,5,0,0
110416,600,4,2,3,60,1,0
187216,-76.9230769230769,4,2,4,80,0,1
206416,-100,4,2,1,5,0,0

[Colours]
Combo1 : 232,115,118
Combo2 : 223,142,240
Combo3 : 199,177,199

[HitObjects]
78,165,29574,6,0,L|234:160,1,123.750004720688,2|0,0:0|0:0,0:0:0:0:
241,98,30205,2,0,P|276:147|266:200,2,82.5000031471254,0|0|2,0:0|0:0|0:0,0:0:0:0:
241,98,31784,1,0,0:0:0:0:
293,37,32100,2,0,P|318:71|297:157,1,123.750004720688,2|0,0:0|0:0,0:0:0:0:
305,147,32731,1,0,0:0:0:0:
274,213,33047,1,0,0:0:0:0:
317,273,33363,1,2,0:0:0:0:
268,329,33679,1,0,0:0:0:0:
320,381,33995,1,0,0:0:0:0:
508,130,34626,6,0,P|449:113|389:124,1,123.750004720688,2|0,0:0|0:0,0:0:0:0:
327,169,35258,2,0,P|266:179|226:167,1,82.5000031471254
153,114,35889,1,2,0:0:0:0:
275,85,36521,1,0,0:0:0:0:
153,114,36837,1,0,0:0:0:0:
88,57,37152,6,0,P|68:105|102:183,1,123.750004720688,2|0,0:0|0:0,0:0:0:0:
162,202,37784,2,0,B|185:266|144:264|161:322,1,123.750004720688,0|0,0:0|0:0,0:0:0:0:
216,374,38416,1,2,0:0:0:0:
415,305,38731,1,0,0:0:0:0:
382,290,38889,1,0,0:0:0:0:
346,293,39047,1,0,0:0:0:0:
277,325,39363,1,0,0:0:0:0:
377,360,39679,6,0,L|366:206,1,123.750004720688,6|0,0:0|0:0,0:0:0:0:
411,167,40310,1,0,0:0:0:0:
287,78,40626,1,0,0:0:0:0:
411,167,40942,1,6,0:0:0:0:
110,62,41889,1,0,0:0:0:0:
57,120,42205,6,0,P|112:139|174:102,1,123.750004720688,6|0,0:0|0:0,0:0:0:0:
167,110,42837,1,0,0:0:0:0:
208,180,43152,1,0,0:0:0:0:
163,239,43468,1,6,0:0:0:0:
197,304,43783,1,0,0:0:0:0:
155,366,44100,1,0,0:0:0:0:
461,146,44731,6,0,L|316:142,1,123.750004720688,6|0,0:0|0:0,0:0:0:0:
264,138,45363,1,0,0:0:0:0:
397,33,45679,1,0,0:0:0:0:
298,207,45995,2,0,P|229:207|189:158,1,123.750004720688,6|0,0:0|0:0,0:0:0:0:
264,138,46626,1,0,0:0:0:0:
196,98,46942,1,0,0:0:0:0:
88,207,47258,6,0,P|148:210|193:170,1,123.750004720688,6|0,0:0|0:0,0:0:0:0:
118,57,47889,2,0,L|121:150,1,82.5000031471254
320,84,48521,2,0,P|260:61|203:93,1,123.750004720688,6|0,0:0|0:0,0:0:0:0:
265,135,49152,2,0,B|280:194|280:194|250:257,1,123.750004720688
132,324,49784,6,0,B|187:320|187:320|237:334|237:334|318:326,1,165,12|0,0:0|0:0,0:0:0:0:
417,234,50416,2,0,L|240:251,1,165,0|0,0:0|0:0,0:0:0:0:
493,282,51047,1,12,0:0:0:0:
419,16,51363,1,12,0:0:0:0:
354,77,51679,1,0,0:0:0:0:
441,100,51995,1,8,0:0:0:0:
65,31,52310,6,0,B|38:80|38:80|80:243,1,220,12|0,0:0|0:0,0:0:0:0:
120,322,53258,1,0,0:0:0:0:
280,84,53574,1,12,0:0:0:0:
282,356,53889,1,12,0:0:0:0:
232,246,54205,1,0,0:0:0:0:
473,281,54837,6,0,P|400:311|288:277,1,165,12|0,0:0|0:0,0:0:0:0:
157,235,55468,2,0,P|230:205|342:239,1,165,0|0,0:0|0:0,0:0:0:0:
56,325,56100,1,12,0:0:0:0:
65,248,56416,1,8,0:0:0:0:
129,293,56731,1,0,0:0:0:0:
203,27,57047,1,8,0:0:0:0:
453,142,57363,6,0,L|268:139,1,165,12|0,0:0|0:0,0:0:0:0:
207,139,57995,1,0,0:0:0:0:
255,214,58152,1,0,0:0:0:0:
226,291,58310,1,8,0:0:0:0:
226,302,58626,6,0,B|311:276|292:330|395:296,1,165,12|0,0:0|0:0,0:0:0:0:
130,360,59258,1,12,0:0:0:0:
170,156,59574,1,0,0:0:0:0:
126,40,59731,1,4,0:0:0:0:
86,131,59889,6,0,L|251:126,1,165,12|0,0:0|0:0,0:0:0:0:
470,192,60521,2,0,L|305:187,1,165,0|0,0:0|0:0,0:0:0:0:
492,334,61152,1,12,0:0:0:0:
431,72,61468,1,12,0:0:0:0:
340,81,61784,1,0,0:0:0:0:
395,161,62100,1,8,0:0:0:0:
201,301,62416,6,0,B|178:219|178:219|217:77,1,220,12|0,0:0|0:0,0:0:0:0:
213,88,63363,1,0,0:0:0:0:
60,364,63679,1,12,0:0:0:0:
356,260,63995,1,12,0:0:0:0:
184,239,64310,1,0,0:0:0:0:
61,24,64942,6,0,P|36:109|84:180,1,165,12|0,0:0|0:0,0:0:0:0:
146,331,65574,2,0,P|182:259|156:183,1,165,0|0,0:0|0:0,0:0:0:0:
71,379,66205,1,12,0:0:0:0:
68,292,66521,1,8,0:0:0:0:
146,331,66837,2,0,P|209:344|263:326,1,110
459,60,67468,6,0,B|406:31|357:48|357:48|305:114|207:70,1,220,12|8,0:0|0:0,0:0:0:0:
251,3,68416,1,0,0:0:0:0:
251,3,68574,1,0,0:0:0:0:
52,60,68731,2,0,B|105:31|154:48|154:48|206:114|304:70,1,220,12|8,0:0|0:0,0:0:0:0:
253,87,69679,1,12,0:0:0:0:
257,206,69837,1,8,0:0:0:0:
257,332,69995,6,0,B|276:348|279:373|279:373|340:325|285:233,1,165,12|0,0:0|0:0,0:0:0:0:
169,218,70626,2,0,P|253:282|305:266,1,165,0|0,0:0|0:0,0:0:0:0:
3,261,71258,1,12,0:0:0:0:
125,36,71574,1,12,0:0:0:0:
73,94,71889,1,0,0:0:0:0:
0,73,72205,1,8,0:0:0:0:
364,31,72521,6,0,B|399:97|399:97|381:267,1,220,12|0,0:0|0:0,0:0:0:0:
383,241,73468,1,8,0:0:0:0:
196,41,73784,1,12,0:0:0:0:
259,335,74100,1,12,0:0:0:0:
263,192,74416,1,0,0:0:0:0:
24,324,75047,6,0,B|63:343|63:343|93:329|93:329|149:360|226:337,1,165,12|0,0:0|0:0,0:0:0:0:
316,301,75679,2,0,P|231:293|176:352,1,165,0|0,0:0|0:0,0:0:0:0:
430,345,76310,1,12,0:0:0:0:
394,265,76626,1,0,0:0:0:0:
355,379,76942,1,0,0:0:0:0:
410,40,77258,1,8,0:0:0:0:
31,145,77574,6,0,L|231:155,1,165,12|0,0:0|0:0,0:0:0:0:
196,153,78205,1,0,0:0:0:0:
241,233,78363,1,0,0:0:0:0:
217,315,78521,2,0,L|219:372,1,55,12|0,0:0|0:0,0:0:0:0:
200,155,78837,5,12,0:0:0:0:
122,136,78995,1,0,0:0:0:0:
147,213,79152,1,0,0:0:0:0:
200,155,79310,1,0,0:0:0:0:
180,78,79468,5,12,0:0:0:0:
258,59,79626,1,0,0:0:0:0:
199,0,79783,1,0,0:0:0:0:
180,78,79942,1,0,0:0:0:0:
278,142,80100,6,0,P|378:135|447:84,1,165,12|0,0:0|0:0,0:0:0:0:
258,59,80731,2,0,P|158:66|89:117,1,165
431,101,81363,1,12,0:0:0:0:
350,287,81679,1,12,0:0:0:0:
401,219,81995,1,0,0:0:0:0:
447,293,82310,1,8,0:0:0:0:
223,83,82626,6,0,B|168:116|168:116|180:295,1,220,12|0,0:0|0:0,0:0:0:0:
178,271,83574,1,0,0:0:0:0:
433,94,83889,1,12,0:0:0:0:
127,65,84205,1,12,0:0:0:0:
270,167,84521,1,0,0:0:0:0:
37,321,85152,6,0,P|111:343|203:304,1,165,12|0,0:0|0:0,0:0:0:0:
349,210,85784,2,0,P|275:188|183:227,1,165,0|0,0:0|0:0,0:0:0:0:
446,347,86416,1,12,0:0:0:0:
481,265,86731,1,8,0:0:0:0:
393,270,87047,2,0,P|351:316|352:378,1,110
347,361,87521,1,0,0:0:0:0:
288,278,87679,1,12,0:0:0:0:
256,192,87837,12,0,92731,0:0:0:0:
250,115,110416,6,0,L|251:229,1,110,6|0,0:0|0:0,0:0:0:0:
320,323,111016,1,8,0:0:0:0:
170,176,111316,1,2,0:0:0:0:
20,221,111616,2,0,P|66:249|120:243,1,110,2|0,0:0|0:0,0:0:0:0:
85,62,112216,1,8,0:0:0:0:
85,62,112366,1,0,0:0:0:0:
85,62,112516,1,2,0:0:0:0:
204,94,112816,6,0,P|289:94|318:80,1,110,2|0,0:0|0:0,0:0:0:0:
310,84,113216,1,0,0:0:0:0:
310,84,113316,1,0,0:0:0:0:
310,84,113416,1,8,0:0:0:0:
248,12,113716,1,2,0:0:0:0:
411,59,114016,2,0,L|400:181,1,110,2|0,0:0|0:0,0:0:0:0:
387,288,114616,1,8,0:0:0:0:
387,288,114766,1,0,0:0:0:0:
387,288,114916,1,2,0:0:0:0:
188,276,115216,6,0,P|260:255|320:284,1,110,2|0,0:0|0:0,0:0:0:0:
248,345,115816,1,8,0:0:0:0:
191,176,116116,1,2,0:0:0:0:
97,118,116416,2,0,L|108:240,1,110,2|0,0:0|0:0,0:0:0:0:
121,327,116866,1,0,0:0:0:0:
121,327,117016,2,0,L|126:406,1,55,8|0,0:0|0:0,0:0:0:0:
225,384,117316,2,0,L|228:329,1,55,2|0,0:0|0:0,0:0:0:0:
12,327,117616,6,0,B|127:296|109:367|245:323,1,220,2|8,0:0|0:0,0:0:0:0:
350,267,118516,1,2,0:0:0:0:
277,139,118816,2,0,P|250:201|270:272,1,110,2|0,0:0|0:0,0:0:0:0:
350,267,119266,1,0,0:0:0:0:
350,267,119416,2,0,L|443:269,2,82.5,8|0|0,0:0|0:0|0:0,0:0:0:0:
277,139,120016,6,0,P|191:122|127:130,1,110,2|0,0:0|0:0,0:0:0:0:
82,158,120616,1,8,0:0:0:0:
186,33,120916,1,2,0:0:0:0:
141,236,121216,2,0,L|141:352,1,110,2|0,0:0|0:0,0:0:0:0:
34,297,121816,1,8,0:0:0:0:
34,297,121966,1,0,0:0:0:0:
34,297,122116,1,2,0:0:0:0:
243,302,122416,6,0,P|313:298|364:266,1,110,2|0,0:0|0:0,0:0:0:0:
347,280,122816,1,0,0:0:0:0:
347,280,122916,1,0,0:0:0:0:
347,280,123016,1,8,0:0:0:0:
330,42,123316,1,2,0:0:0:0:
274,103,123616,2,0,L|278:219,1,110,2|0,0:0|0:0,0:0:0:0:
457,158,124216,1,8,0:0:0:0:
387,173,124366,1,0,0:0:0:0:
367,243,124516,1,2,0:0:0:0:
488,349,124816,6,0,P|416:333|340:356,1,110,2|0,0:0|0:0,0:0:0:0:
380,338,125216,1,0,0:0:0:0:
380,338,125316,1,0,0:0:0:0:
380,338,125416,2,0,P|325:342|272:327,1,110,8|2,0:0|0:0,0:0:0:0:
145,235,126016,1,2,0:0:0:0:
69,279,126316,1,0,0:0:0:0:
113,355,126616,1,8,0:0:0:0:
189,311,126916,1,2,0:0:0:0:
216,165,127216,6,0,B|96:121|120:210|-17:158,1,220,2|8,0:0|0:0,0:0:0:0:
57,93,128116,1,2,0:0:0:0:
156,229,128416,1,2,0:0:0:0:
213,169,128716,1,8,0:0:0:0:
225,157,128866,1,0,0:0:0:0:
244,170,129016,1,8,0:0:0:0:
259,164,129166,1,0,0:0:0:0:
269,138,129316,1,8,0:0:0:0:
285,138,129466,1,8,0:0:0:0:
318,166,129616,6,0,L|319:19,1,110,6|0,0:0|0:0,0:0:0:0:
197,40,130216,1,8,0:0:0:0:
418,42,130516,1,2,0:0:0:0:
395,216,130816,2,0,P|336:252|262:232,1,110,2|0,0:0|0:0,0:0:0:0:
176,156,131416,1,8,0:0:0:0:
130,231,131716,1,2,0:0:0:0:
160,35,132016,5,2,0:0:0:0:
157,20,132616,1,8,0:0:0:0:
104,91,132916,1,2,0:0:0:0:
165,155,133216,1,2,0:0:0:0:
112,225,133516,1,0,0:0:0:0:
166,306,133816,1,8,0:0:0:0:
166,306,133966,1,0,0:0:0:0:
166,306,134116,1,2,0:0:0:0:
327,213,134416,6,0,P|253:216|209:240,1,110,2|0,0:0|0:0,0:0:0:0:
161,322,135016,1,8,0:0:0:0:
350,361,135316,1,2,0:0:0:0:
221,230,135616,2,0,P|160:243|51:227,1,165,2|0,0:0|0:0,0:0:0:0:
59,230,136216,1,8,0:0:0:0:
139,146,136516,1,2,0:0:0:0:
161,322,136816,5,2,0:0:0:0:
172,314,137416,2,0,P|201:232|181:180,1,110,8|2,0:0|0:0,0:0:0:0:
80,61,138016,2,0,P|140:114|201:104,1,110,2|0,0:0|0:0,0:0:0:0:
242,121,138466,1,0,0:0:0:0:
187,65,138616,2,0,P|166:122|181:164,1,55,8|0,0:0|0:0,0:0:0:0:
263,170,138916,2,0,P|256:143|241:120,1,55,2|0,0:0|0:0,0:0:0:0:
279,252,139216,6,0,L|454:248,1,165,2|0,0:0|0:0,0:0:0:0:
443,248,139816,1,8,0:0:0:0:
309,332,140116,1,2,0:0:0:0:
356,173,140416,2,0,P|374:121|355:29,1,110,2|0,0:0|0:0,0:0:0:0:
260,3,141016,1,8,0:0:0:0:
451,76,141316,1,2,0:0:0:0:
253,115,141616,6,0,B|171:140|177:84|71:113,1,165,2|0,0:0|0:0,0:0:0:0:
91,108,142216,1,8,0:0:0:0:
140,188,142516,1,2,0:0:0:0:
84,251,142816,1,2,0:0:0:0:
130,323,143116,1,0,0:0:0:0:
226,315,143416,1,8,0:0:0:0:
226,315,143566,1,0,0:0:0:0:
226,315,143716,1,2,0:0:0:0:
226,315,143866,1,0,0:0:0:0:
226,315,144016,6,0,P|290:302|393:312,1,165,2|0,0:0|0:0,0:0:0:0:
388,310,144616,1,8,0:0:0:0:
433,186,144916,1,2,0:0:0:0:
333,29,145216,2,0,P|302:105|369:196,1,165,2|0,0:0|0:0,0:0:0:0:
335,175,145816,1,8,0:0:0:0:
198,132,146116,1,2,0:0:0:0:
198,132,146266,1,0,0:0:0:0:
198,132,146416,5,2,0:0:0:0:
241,15,146716,1,2,0:0:0:0:
31,133,147016,1,8,0:0:0:0:
110,186,147316,1,2,0:0:0:0:
114,40,147616,1,2,0:0:0:0:
114,40,147766,1,2,0:0:0:0:
114,40,147916,2,0,L|117:113,1,55,8|0,0:0|0:0,0:0:0:0:
20,239,148216,1,2,0:0:0:0:
79,278,148366,1,2,0:0:0:0:
147,240,148516,1,8,0:0:0:0:
147,240,148666,1,2,0:0:0:0:
147,240,148816,6,0,P|228:223|293:242,1,110,6|0,0:0|0:0,0:0:0:0:
470,308,149416,2,0,B|388:282|392:342|290:307,1,165,8|0,0:0|0:0,0:0:0:0:
308,312,150016,1,2,0:0:0:0:
431,379,150316,1,2,0:0:0:0:
343,230,150616,2,0,L|339:109,1,110,8|0,0:0|0:0,0:0:0:0:
129,42,151216,6,0,P|216:30|276:52,1,110,2|0,0:0|0:0,0:0:0:0:
164,165,151816,2,0,P|77:177|17:155,1,110,8|0,0:0|0:0,0:0:0:0:
19,75,152416,1,2,0:0:0:0:
56,172,152716,1,2,0:0:0:0:
34,280,153016,1,8,0:0:0:0:
86,338,153166,1,0,0:0:0:0:
152,301,153316,1,0,0:0:0:0:
327,261,153616,6,0,L|205:261,1,110,2|0,0:0|0:0,0:0:0:0:
86,338,154216,2,0,L|259:338,1,165,8|0,0:0|0:0,0:0:0:0:
251,338,154816,1,2,0:0:0:0:
399,343,155116,1,2,0:0:0:0:
312,159,155416,2,0,P|305:227|332:271,1,110,8|0,0:0|0:0,0:0:0:0:
359,91,156016,6,0,B|255:56|248:146|115:93,1,220,2|8,0:0|0:0,0:0:0:0:
37,47,156916,1,0,0:0:0:0:
29,125,157066,1,0,0:0:0:0:
81,186,157216,2,0,P|105:246|83:327,1,110,2|2,0:0|0:0,0:0:0:0:
16,384,157816,1,8,0:0:0:0:
16,384,157966,1,0,0:0:0:0:
16,384,158116,1,2,0:0:0:0:
203,250,158416,6,0,L|341:248,1,110,6|0,0:0|0:0,0:0:0:0:
473,326,159016,2,0,L|335:324,1,110,8|0,0:0|0:0,0:0:0:0:
328,114,159616,1,2,0:0:0:0:
438,190,159916,1,2,0:0:0:0:
312,248,160216,2,0,L|203:250,1,110,8|0,0:0|0:0,0:0:0:0:
86,130,160816,5,2,0:0:0:0:
77,149,161416,2,0,P|56:232|75:278,1,110,8|2,0:0|0:0,0:0:0:0:
171,334,162016,1,2,0:0:0:0:
171,209,162316,1,0,0:0:0:0:
63,365,162616,1,8,0:0:0:0:
154,340,162916,1,2,0:0:0:0:
383,344,163216,5,2,0:0:0:0:
277,342,163516,1,0,0:0:0:0:
104,251,163816,5,8,0:0:0:0:
210,249,164116,1,2,0:0:0:0:
394,164,164416,5,2,0:0:0:0:
288,162,164716,1,0,0:0:0:0:
104,91,165016,5,8,0:0:0:0:
210,89,165316,1,2,0:0:0:0:
53,157,165616,6,0,P|20:91|50:30,1,110,2|0,0:0|0:0,0:0:0:0:
158,12,166216,1,8,0:0:0:0:
300,51,166516,2,0,L|288:123,1,55,0|0,0:0|0:0,0:0:0:0:
246,206,166816,2,0,P|342:202|376:182,1,110,2|2,0:0|0:0,0:0:0:0:
410,149,167266,1,0,0:0:0:0:
413,78,167416,1,10,0:0:0:0:
375,17,167566,1,0,0:0:0:0:
301,10,167716,5,10,0:0:0:0:
301,10,167816,1,8,0:0:0:0:
301,10,167916,1,8,0:0:0:0:
301,10,168016,6,0,L|305:143,1,110,6|0,0:0|0:0,0:0:0:0:
347,258,168616,1,8,0:0:0:0:
225,196,168916,1,2,0:0:0:0:
225,196,169066,1,0,0:0:0:0:
225,196,169216,2,0,P|108:183|41:207,1,165,2|0,0:0|0:0,0:0:0:0:
64,195,169816,1,8,0:0:0:0:
166,98,170116,1,2,0:0:0:0:
166,98,170266,1,0,0:0:0:0:
166,98,170416,6,0,P|169:40|136:-10,1,110,2|0,0:0|0:0,0:0:0:0:
63,77,171016,1,8,0:0:0:0:
106,151,171316,1,2,0:0:0:0:
86,272,171616,2,0,L|153:269,1,55,2|0,0:0|0:0,0:0:0:0:
260,340,171916,2,0,L|193:337,1,55,0|0,0:0|0:0,0:0:0:0:
384,296,172216,5,8,0:0:0:0:
395,292,172316,1,0,0:0:0:0:
407,294,172416,1,0,0:0:0:0:
424,316,172516,1,2,0:0:0:0:
435,320,172616,1,0,0:0:0:0:
448,318,172716,1,0,0:0:0:0:
470,295,172816,6,0,L|473:111,1,165,2|0,0:0|0:0,0:0:0:0:
472,130,173416,1,8,0:0:0:0:
327,35,173716,1,2,0:0:0:0:
327,35,173866,1,0,0:0:0:0:
327,35,174016,2,0,P|278:91|205:96,1,110,2|0,0:0|0:0,0:0:0:0:
82,57,174616,1,8,0:0:0:0:
82,57,174766,1,0,0:0:0:0:
82,57,174916,1,2,0:0:0:0:
82,57,175066,1,0,0:0:0:0:
82,57,175216,6,0,P|79:140|100:176,1,110,2|0,0:0|0:0,0:0:0:0:
176,204,175816,2,0,L|320:192,1,110,8|2,0:0|0:0,0:0:0:0:
285,194,176266,1,0,0:0:0:0:
347,251,176416,2,0,P|364:190|311:124,1,110,2|0,0:0|0:0,0:0:0:0:
235,89,176866,1,0,0:0:0:0:
214,66,177016,1,8,0:0:0:0:
195,65,177166,1,0,0:0:0:0:
181,85,177316,1,2,0:0:0:0:
162,87,177466,1,8,0:0:0:0:
136,65,177616,6,0,P|112:133|168:221,1,165,6|0,0:0|0:0,0:0:0:0:
152,211,178216,2,0,L|235:210,1,55,8|0,0:0|0:0,0:0:0:0:
296,211,178516,1,2,0:0:0:0:
124,326,178816,2,0,L|255:325,1,110,2|0,0:0|0:0,0:0:0:0:
296,211,179416,1,8,0:0:0:0:
486,187,179716,1,2,0:0:0:0:
486,187,179866,1,0,0:0:0:0:
486,187,180016,6,0,P|415:194|366:189,1,110,2|0,0:0|0:0,0:0:0:0:
264,33,180616,2,0,P|273:61|274:102,1,55,8|0,0:0|0:0,0:0:0:0:
199,206,180916,2,0,P|202:179|211:153,1,55,2|0,0:0|0:0,0:0:0:0:
373,271,181216,2,0,P|345:280|304:281,1,55,2|0,0:0|0:0,0:0:0:0:
199,206,181516,2,0,P|226:208|252:217,1,55,0|0,0:0|0:0,0:0:0:0:
294,369,181816,5,8,0:0:0:0:
130,302,182116,1,2,0:0:0:0:
130,302,182266,1,0,0:0:0:0:
130,302,182416,6,0,B|2:301|2:301|66:324,1,165,2|0,0:0|0:0,0:0:0:0:
36,313,183016,1,8,0:0:0:0:
91,231,183316,1,2,0:0:0:0:
35,12,183616,2,0,P|6:79|62:161,1,165,2|0,0:0|0:0,0:0:0:0:
48,154,184216,1,8,0:0:0:0:
185,14,184516,2,0,L|114:21,1,55,2|0,0:0|0:0,0:0:0:0:
189,176,184816,6,0,P|257:127|354:95,1,165,2|0,0:0|0:0,0:0:0:0:
332,99,185416,2,0,P|343:133|335:184,1,55,8|0,0:0|0:0,0:0:0:0:
353,281,185716,1,2,0:0:0:0:
353,281,185866,1,0,0:0:0:0:
353,281,186016,2,0,L|447:285,1,55,2|0,0:0|0:0,0:0:0:0:
508,236,186316,1,8,0:0:0:0:
319,363,186616,1,8,0:0:0:0:
276,329,186766,1,0,0:0:0:0:
260,277,186916,1,0,0:0:0:0:
275,226,187066,1,0,0:0:0:0:
317,190,187216,6,0,B|233:149|148:184|148:184|177:184|204:208,1,214.49999018097,6|0,0:0|0:0,0:0:0:0:
185,194,187816,2,0,P|201:81|270:73,1,142.99999345398,8|2,0:0|0:0,0:0:0:0:
81,122,188266,1,0,0:0:0:0:
185,194,188416,2,0,P|229:246|213:313,1,142.99999345398,6|0,0:0|0:0,0:0:0:0:
5,267,188866,2,0,L|156:266,1,142.99999345398,12|0,0:0|0:0,0:0:0:0:
147,266,189316,2,0,P|118:285|70:286,1,71.4999967269899,10|0,0:0|0:0,0:0:0:0:
272,260,189616,6,0,P|301:278|349:279,1,71.4999967269899,6|0,0:0|0:0,0:0:0:0:
362,109,189916,2,0,P|343:138|342:186,1,71.4999967269899,0|0,0:0|0:0,0:0:0:0:
430,261,190216,2,0,B|370:233|272:260|272:260|294:286|349:283,1,214.49999018097,8|0,0:0|0:0,0:0:0:0:
490,376,190816,2,0,P|482:307|427:259,1,142.99999345398,6|0,0:0|0:0,0:0:0:0:
261,353,191266,2,0,L|422:350,1,142.99999345398,4|0,0:0|0:0,0:0:0:0:
342,213,191716,1,14,0:0:0:0:
301,137,191866,1,0,0:0:0:0:
225,12,192016,5,6,0:0:0:0:
222,24,192616,2,0,P|146:62|53:50,1,142.99999345398,8|2,0:0|0:0,0:0:0:0:
89,61,193066,1,0,0:0:0:0:
222,24,193216,2,0,P|303:12|391:129,1,214.49999018097,6|0,0:0|0:0,0:0:0:0:
235,156,193816,2,0,P|290:100|333:101,1,71.4999967269899,8|0,0:0|0:0,0:0:0:0:
378,247,194116,2,0,P|323:191|280:192,1,71.4999967269899,6|0,0:0|0:0,0:0:0:0:
66,272,194416,6,0,B|128:262|128:262|206:277|206:277|325:267,1,214.49999018097,6|0,0:0|0:0,0:0:0:0:
278,270,195016,1,8,0:0:0:0:
129,108,195316,1,2,0:0:0:0:
165,39,195466,1,0,0:0:0:0:
155,178,195616,2,0,B|213:192|213:192|329:184,1,142.99999345398,6|0,0:0|0:0,0:0:0:0:
512,241,196066,2,0,B|454:255|454:255|338:247,1,142.99999345398,14|0,0:0|0:0,0:0:0:0:
283,349,196516,1,14,0:0:0:0:
274,265,196666,1,0,0:0:0:0:
249,76,196816,5,6,0:0:0:0:
264,83,197416,2,0,P|353:68|407:23,1,142.99999345398,8|2,0:0|0:0,0:0:0:0:
394,39,197866,1,0,0:0:0:0:
264,83,198016,2,0,P|216:139|239:220,1,142.99999345398,6|0,0:0|0:0,0:0:0:0:
339,374,198466,2,0,P|347:305|300:253,1,142.99999345398,14|0,0:0|0:0,0:0:0:0:
158,295,198916,2,0,L|238:293,1,71.4999967269899,6|0,0:0|0:0,0:0:0:0:
504,19,199216,5,6,0:0:0:0:
503,31,199816,2,0,P|418:63|305:44,1,142.99999345398,8|2,0:0|0:0,0:0:0:0:
366,62,200266,1,0,0:0:0:0:
503,31,200416,2,0,B|516:100|516:100|467:234,1,142.99999345398,6|0,0:0|0:0,0:0:0:0:
438,378,200866,2,0,B|413:309|413:309|426:240,1,142.99999345398,14|0,0:0|0:0,0:0:0:0:
491,168,201316,2,0,L|379:164,1,71.4999967269899,14|0,0:0|0:0,0:0:0:0:
146,216,201616,5,6,0:0:0:0:
155,228,202216,2,0,P|273:214|294:197,1,142.99999345398,8|2,0:0|0:0,0:0:0:0:
288,201,202666,1,0,0:0:0:0:
155,228,202816,2,0,P|91:216|-3:245,1,142.99999345398,6|0,0:0|0:0,0:0:0:0:
213,322,203266,2,0,P|277:334|371:305,1,142.99999345398,14|0,0:0|0:0,0:0:0:0:
340,159,203716,1,14,0:0:0:0:
267,82,203866,1,0,0:0:0:0:
417,230,204016,6,0,B|440:174|435:126|383:131|382:80|424:5,1,214.49999018097,6|0,0:0|0:0,0:0:0:0:
413,25,204616,2,0,P|335:68|270:43,1,142.99999345398,8|2,0:0|0:0,0:0:0:0:
286,55,205066,1,0,0:0:0:0:
413,25,205216,2,0,P|482:41|511:107,1,142.99999345398,6|0,0:0|0:0,0:0:0:0:
360,329,205666,1,12,0:0:0:0:
306,251,205816,2,0,L|446:248,1,71.4999967269899,0|0,0:0|0:0,0:0:0:0:
512,308,206116,2,0,L|372:305,1,71.4999967269899,12|0,0:0|0:0,0:0:0:0:
256,192,206416,12,0,210016,0:0:0:0:
