osu file format v14

[General]
AudioFilename: audio.mp3
AudioLeadIn: 0
PreviewTime: 187066
Countdown: 0
SampleSet: Soft
StackLeniency: 0.7
Mode: 0
LetterboxInBreaks: 0
WidescreenStoryboard: 1

[Editor]
Bookmarks: 29546,49756,87651,110388,129573,148759,163149,167945,187131,206378
DistanceSpacing: 0.8
BeatDivisor: 8
GridSize: 4
TimelineZoom: 1

[Metadata]
Title:EXEC_CHRONICLE=KEY/.
TitleUnicode:EXEC_CHRONICLE=KEY/.
Artist:Shikata Akiko
ArtistUnicode:志方あきこ
Creator:Mir
Version:Easy
Source:アルトネリコ ~世界の終わりで詩い続ける少女~
Tags:shurelia ar tonelico melody of elemia misha arsellec lune The Girl Who Continues to Sing at the End of the World Sekai no Owari de Utai Tsuzukeru Shoujo 彌紗・アルトセルク・リューン jrpg gust best game hymn Tsuchiya Akira土屋 暁
BeatmapID:1370175
BeatmapSetID:646107

[Difficulty]
HPDrainRate:2
CircleSize:2
OverallDifficulty:2
ApproachRate:3
SliderMultiplier:1.3
SliderTickRate:1

[Events]
//Background and Video events
0,0,"misha.jpg",0,0
//Break Periods
2,90405,108976
//Storyboard Layer 0 (Background)
//Storyboard Layer 1 (Fail)
//Storyboard Layer 2 (Pass)
//Storyboard Layer 3 (Foreground)
//Storyboard Sound Samples

[TimingPoints]
29574,631.578947368421,4,2,1,30,1,0
29574,-100,4,2,1,30,0,0
49784,-100,4,2,2,50,0,0
87837,-100,4,2,2,5,0,0
110416,600,4,2,3,60,1,0
187216,-100,4,2,4,80,0,1
206416,-100,4,2,1,5,0,0

[Colours]
Combo1 : 232,115,118
Combo2 : 223,142,240
Combo3 : 199,177,199

[HitObjects]
39,46,29574,6,0,P|121:43|165:64,1,130,2|0,0:0|0:0,0:0:0:0:
244,127,30837,2,0,P|306:146|372:138,1,130,2|0,0:0|0:0,0:0:0:0:
416,120,31784,1,0,0:0:0:0:
416,120,32100,2,0,L|412:256,1,130,2|0,0:0|0:0,0:0:0:0:
321,300,33363,2,0,L|322:378,2,65,2|0|0,0:0|0:0|0:0,0:0:0:0:
286,201,34626,6,0,P|180:185|128:189,1,130,2|0,0:0|0:0,0:0:0:0:
69,244,35889,2,0,L|65:108,1,130,2|0,0:0|0:0,0:0:0:0:
101,76,36837,1,0,0:0:0:0:
101,76,37152,2,0,P|170:75|238:61,1,130,2|0,0:0|0:0,0:0:0:0:
329,34,38416,1,2,0:0:0:0:
358,131,39047,2,0,P|366:153|369:195,1,65,0|0,0:0|0:0,0:0:0:0:
333,232,39679,6,0,L|469:238,1,130,6|0,0:0|0:0,0:0:0:0:
471,341,40942,2,0,L|334:347,1,130,6|0,0:0|0:0,0:0:0:0:
310,308,41889,1,0,0:0:0:0:
310,308,42205,2,0,P|230:300|170:313,1,130,6|0,0:0|0:0,0:0:0:0:
129,306,43152,1,0,0:0:0:0:
129,306,43468,2,0,L|131:370,2,65,6|0|0,0:0|0:0|0:0,0:0:0:0:
193,224,44731,6,0,P|207:146|185:83,1,130,6|0,0:0|0:0,0:0:0:0:
176,48,45679,1,0,0:0:0:0:
176,48,45995,2,0,L|35:55,1,130,6|0,0:0|0:0,0:0:0:0:
9,91,46942,1,0,0:0:0:0:
9,91,47258,2,0,P|-4:156|11:221,1,130,6|0,0:0|0:0,0:0:0:0:
53,244,48205,1,0,0:0:0:0:
53,244,48521,2,0,L|45:373,1,130,6|0,0:0|0:0,0:0:0:0:
142,338,49784,6,0,L|276:336,1,130,12|0,0:0|0:0,0:0:0:0:
364,287,51047,1,12,0:0:0:0:
364,287,51363,2,0,P|358:227|353:210,1,65,12|0,0:0|0:0,0:0:0:0:
293,139,52310,2,0,P|237:122|146:143,1,130,12|0,0:0|0:0,0:0:0:0:
81,190,53574,1,12,0:0:0:0:
81,190,53889,2,0,L|12:189,1,65,12|0,0:0|0:0,0:0:0:0:
29,85,54837,6,0,L|170:90,1,130,12|0,0:0|0:0,0:0:0:0:
230,164,56100,2,0,L|359:159,1,130,12|0,0:0|0:0,0:0:0:0:
411,154,57047,1,8,0:0:0:0:
411,154,57363,2,0,P|418:216|373:277,2,130,12|0|12,0:0|0:0|0:0,0:0:0:0:
352,68,59258,1,12,0:0:0:0:
250,45,59889,6,0,L|103:42,1,130,12|0,0:0|0:0,0:0:0:0:
46,116,61152,1,12,0:0:0:0:
46,116,61468,2,0,P|44:153|53:182,1,65,12|0,0:0|0:0,0:0:0:0:
149,215,62416,2,0,P|210:198|294:223,1,130,12|0,0:0|0:0,0:0:0:0:
330,298,63679,1,12,0:0:0:0:
330,298,63995,2,0,P|376:298|405:288,1,65,12|0,0:0|0:0,0:0:0:0:
447,203,64942,6,0,L|441:59,1,130,12|0,0:0|0:0,0:0:0:0:
342,39,66205,2,0,P|265:30|212:59,1,130,12|0,0:0|0:0,0:0:0:0:
128,102,67468,2,0,P|231:91|309:149,1,195,12|0,0:0|0:0,0:0:0:0:
286,189,68731,2,0,P|268:248|295:313,1,130,12|8,0:0|0:0,0:0:0:0:
329,345,69679,1,12,0:0:0:0:
329,345,69995,6,0,L|465:333,1,130,12|0,0:0|0:0,0:0:0:0:
481,232,71258,1,12,0:0:0:0:
481,232,71574,2,0,L|473:145,1,65,12|0,0:0|0:0,0:0:0:0:
401,94,72521,2,0,P|329:74|262:92,1,130,12|0,0:0|0:0,0:0:0:0:
182,130,73784,1,12,0:0:0:0:
182,130,74100,2,0,L|99:125,1,65,12|0,0:0|0:0,0:0:0:0:
54,42,75047,6,0,P|119:21|185:42,1,130,12|0,0:0|0:0,0:0:0:0:
243,116,76310,2,0,P|308:137|374:116,1,130,12|0,0:0|0:0,0:0:0:0:
406,88,77258,1,8,0:0:0:0:
406,88,77574,2,0,L|410:247,2,130,12|0|12,0:0|0:0|0:0,0:0:0:0:
322,26,79468,1,12,0:0:0:0:
219,46,80100,6,0,P|136:56|81:33,1,130,12|0,0:0|0:0,0:0:0:0:
28,121,81363,1,12,0:0:0:0:
28,121,81679,2,0,L|30:193,1,65,12|0,0:0|0:0,0:0:0:0:
73,280,82626,2,0,P|135:262|198:274,1,130,12|0,0:0|0:0,0:0:0:0:
292,319,83889,1,12,0:0:0:0:
292,319,84205,2,0,L|364:317,1,65,12|0,0:0|0:0,0:0:0:0:
331,216,85152,6,0,P|308:165|315:78,1,130,12|0,0:0|0:0,0:0:0:0:
393,29,86416,2,0,L|474:32,2,65,12|8|0,0:0|0:0|0:0,0:0:0:0:
256,192,87679,12,0,90205,0:0:0:0:
122,274,110416,6,0,P|107:207|134:141,1,130,6|8,0:0|0:0,0:0:0:0:
162,113,111316,1,2,0:0:0:0:
162,113,111616,2,0,L|239:117,2,65,2|0|8,0:0|0:0|0:0,0:0:0:0:
124,15,112816,2,0,P|71:6|-14:36,1,130,2|8,0:0|0:0,0:0:0:0:
4,130,114016,1,2,0:0:0:0:
60,217,114616,2,0,L|65:289,1,65,8|2,0:0|0:0,0:0:0:0:
99,320,115216,6,0,P|164:299|233:324,1,130,2|8,0:0|0:0,0:0:0:0:
263,346,116116,1,2,0:0:0:0:
263,346,116416,2,0,L|267:257,1,65,2|0,0:0|0:0,0:0:0:0:
292,236,117016,2,0,L|288:147,1,65,8|2,0:0|0:0,0:0:0:0:
260,127,117616,2,0,P|328:91|409:95,1,130,2|8,0:0|0:0,0:0:0:0:
435,174,118816,1,2,0:0:0:0:
417,276,119416,2,0,L|429:335,2,48.75,8|0|0,0:0|0:0|0:0,0:0:0:0:
393,264,120016,6,0,P|295:260|254:275,1,130,2|8,0:0|0:0,0:0:0:0:
224,301,120916,1,2,0:0:0:0:
224,301,121216,2,0,L|229:374,2,65,2|0|8,0:0|0:0|0:0,0:0:0:0:
166,218,122416,2,0,L|169:68,1,130,2|8,0:0|0:0,0:0:0:0:
167,41,123316,1,2,0:0:0:0:
167,41,123616,2,0,P|132:36|85:43,2,65,2|0|8,0:0|0:0|0:0,0:0:0:0:
256,87,124816,6,0,P|291:92|338:85,1,65,2|0,0:0|0:0,0:0:0:0:
356,52,125416,1,8,0:0:0:0:
455,78,126016,2,0,L|463:9,2,65,2|0|8,0:0|0:0|0:0,0:0:0:0:
478,124,126916,1,2,0:0:0:0:
478,124,127216,2,0,B|448:195|505:183|475:276,1,130,2|8,0:0|0:0,0:0:0:0:
398,313,128416,2,0,P|351:319|323:311,1,65,2|8,0:0|0:0,0:0:0:0:
295,280,129016,2,0,P|248:274|220:282,1,65,8|8,0:0|0:0,0:0:0:0:
192,312,129616,6,0,L|188:162,1,130,6|8,0:0|0:0,0:0:0:0:
193,130,130516,1,2,0:0:0:0:
193,130,130816,2,0,P|252:102|333:121,1,130,2|8,0:0|0:0,0:0:0:0:
354,143,131716,1,2,0:0:0:0:
354,143,132016,1,2,0:0:0:0:
455,163,132616,2,0,L|467:245,1,65,8|2,0:0|0:0,0:0:0:0:
492,271,133216,2,0,L|480:353,2,65,2|0|8,0:0|0:0|0:0,0:0:0:0:
388,265,134416,6,0,L|228:261,1,130,2|8,0:0|0:0,0:0:0:0:
211,284,135316,1,2,0:0:0:0:
211,284,135616,2,0,P|193:229|217:154,1,130,2|8,0:0|0:0,0:0:0:0:
247,123,136516,1,2,0:0:0:0:
247,123,136816,1,2,0:0:0:0:
172,49,137416,1,8,0:0:0:0:
77,91,138016,2,0,L|72:162,1,65,2|0,0:0|0:0,0:0:0:0:
30,186,138616,2,0,L|35:257,1,65,8|2,0:0|0:0,0:0:0:0:
59,296,139216,6,0,P|138:283|193:306,1,130,2|8,0:0|0:0,0:0:0:0:
226,328,140116,1,2,0:0:0:0:
226,328,140416,2,0,P|287:346|350:331,1,130,2|8,0:0|0:0,0:0:0:0:
406,243,141616,2,0,L|395:99,1,130,2|8,0:0|0:0,0:0:0:0:
391,61,142516,1,2,0:0:0:0:
391,61,142816,2,0,L|464:53,2,65,2|0|8,0:0|0:0|0:0,0:0:0:0:
293,96,144016,6,0,P|212:105|161:88,1,130,2|8,0:0|0:0,0:0:0:0:
127,66,144916,1,2,0:0:0:0:
127,66,145216,2,0,L|129:208,1,130,2|8,0:0|0:0,0:0:0:0:
86,226,146116,1,2,0:0:0:0:
86,226,146416,2,0,L|88:368,1,130,2|8,0:0|0:0,0:0:0:0:
138,343,147316,1,2,0:0:0:0:
138,343,147616,2,0,P|229:318|264:329,1,130,2|2,0:0|0:0,0:0:0:0:
262,223,148816,6,0,L|404:212,1,130,6|8,0:0|0:0,0:0:0:0:
445,124,150016,2,0,L|303:113,1,130,2|8,0:0|0:0,0:0:0:0:
238,43,151216,1,2,0:0:0:0:
162,114,151816,1,8,0:0:0:0:
60,89,152416,2,0,L|55:162,1,65,2|2,0:0|0:0,0:0:0:0:
50,205,153016,1,8,0:0:0:0:
93,299,153616,6,0,P|127:272|216:277,1,130,2|8,0:0|0:0,0:0:0:0:
301,323,154816,2,0,L|438:315,1,130,2|8,0:0|0:0,0:0:0:0:
466,217,156016,2,0,P|463:138|415:96,1,130,2|8,0:0|0:0,0:0:0:0:
380,94,156916,1,0,0:0:0:0:
380,94,157216,2,0,L|244:98,1,130,2|8,0:0|0:0,0:0:0:0:
255,149,158116,1,2,0:0:0:0:
255,149,158416,6,0,L|256:230,1,65,6|0,0:0|0:0,0:0:0:0:
243,264,159016,2,0,P|184:274|107:263,1,130,8|2,0:0|0:0,0:0:0:0:
24,214,160216,1,8,0:0:0:0:
28,110,160816,1,2,0:0:0:0:
115,58,161416,2,0,L|251:71,1,130,8|2,0:0|0:0,0:0:0:0:
294,85,162316,1,0,0:0:0:0:
294,85,162616,1,8,0:0:0:0:
397,72,163216,5,2,0:0:0:0:
349,164,163816,2,0,L|336:238,1,65,8|2,0:0|0:0,0:0:0:0:
367,270,164416,1,2,0:0:0:0:
368,373,165016,2,0,P|326:381|293:376,1,65,8|2,0:0|0:0,0:0:0:0:
251,368,165616,2,0,P|175:337|111:346,1,130,2|8,0:0|0:0,0:0:0:0:
26,360,166816,1,2,0:0:0:0:
53,257,167416,1,10,0:0:0:0:
130,188,168016,6,0,P|226:169|279:184,1,130,6|8,0:0|0:0,0:0:0:0:
306,185,168916,1,2,0:0:0:0:
306,185,169216,2,0,L|306:43,1,130,2|8,0:0|0:0,0:0:0:0:
214,103,170416,2,0,P|149:109|88:90,1,130,2|8,0:0|0:0,0:0:0:0:
39,71,171316,1,2,0:0:0:0:
39,71,171616,2,0,L|44:6,2,65,2|0|8,0:0|0:0|0:0,0:0:0:0:
46,174,172816,6,0,P|40:230|91:304,1,130,2|8,0:0|0:0,0:0:0:0:
123,311,173716,1,2,0:0:0:0:
123,311,174016,2,0,L|263:310,1,130,2|8,0:0|0:0,0:0:0:0:
354,331,175216,1,2,0:0:0:0:
387,233,175816,1,8,0:0:0:0:
335,140,176416,2,0,L|188:145,1,130,2|8,0:0|0:0,0:0:0:0:
126,76,177616,6,0,P|104:146|129:209,1,130,6|8,0:0|0:0,0:0:0:0:
159,232,178516,1,2,0:0:0:0:
159,232,178816,2,0,P|181:302|156:365,1,130,2|8,0:0|0:0,0:0:0:0:
60,351,180016,2,0,L|58:214,1,130,2|8,0:0|0:0,0:0:0:0:
62,174,180916,1,2,0:0:0:0:
62,174,181216,2,0,P|23:179|-13:169,2,65,2|0|8,0:0|0:0|0:0,0:0:0:0:
138,103,182416,6,0,L|291:94,1,130,2|8,0:0|0:0,0:0:0:0:
316,114,183316,1,2,0:0:0:0:
316,114,183616,2,0,P|326:151|271:236,1,130,2|8,0:0|0:0,0:0:0:0:
245,261,184516,1,2,0:0:0:0:
245,261,184816,2,0,L|398:252,1,130,2|8,0:0|0:0,0:0:0:0:
426,249,185716,1,2,0:0:0:0:
426,249,186016,1,2,0:0:0:0:
391,347,186616,1,8,0:0:0:0:
296,302,187216,6,0,B|229:288|229:288|150:307,1,130,6|8,0:0|0:0,0:0:0:0:
123,277,188116,1,2,0:0:0:0:
123,277,188416,2,0,L|128:160,2,97.5,6|12|10,0:0|0:0|0:0,0:0:0:0:
93,319,189616,1,6,0:0:0:0:
20,244,190216,1,8,0:0:0:0:
60,148,190816,2,0,P|36:88|39:37,2,97.5,6|14|14,0:0|0:0|0:0,0:0:0:0:
110,160,192016,6,0,L|254:148,1,130,6|8,0:0|0:0,0:0:0:0:
291,145,192916,1,2,0:0:0:0:
291,145,193216,2,0,P|303:85|266:27,1,130,6|8,0:0|0:0,0:0:0:0:
219,10,194116,1,6,0:0:0:0:
219,10,194416,2,0,L|363:-2,1,130,6|8,0:0|0:0,0:0:0:0:
403,87,195616,2,0,L|500:95,2,97.5,6|14|14,0:0|0:0|0:0,0:0:0:0:
370,127,196816,6,0,P|361:192|388:255,1,130,6|8,0:0|0:0,0:0:0:0:
426,345,198016,2,0,L|531:349,2,97.5,6|14|6,0:0|0:0|0:0,0:0:0:0:
375,359,199216,1,6,0:0:0:0:
277,322,199816,1,8,0:0:0:0:
175,345,200416,2,0,P|104:354|63:340,2,97.5,6|14|14,0:0|0:0|0:0,0:0:0:0:
186,294,201616,1,6,0:0:0:0:
113,219,202216,5,8,0:0:0:0:
61,128,202816,2,0,P|71:73|109:31,2,97.5,6|14|14,0:0|0:0|0:0,0:0:0:0:
113,124,204016,2,0,L|257:114,1,130,6|8,0:0|0:0,0:0:0:0:
293,104,204916,1,2,0:0:0:0:
293,104,205216,2,0,P|283:49|245:7,2,97.5,6|12|12,0:0|0:0|0:0,0:0:0:0:
256,192,206416,12,0,208816,0:0:0:0:
