osu file format v14

[General]
AudioFilename: audio.mp3
AudioLeadIn: 0
PreviewTime:60114
Countdown: 0
SampleSet: Soft
StackLeniency: 0.7
Mode: 0
LetterboxInBreaks: 0
WidescreenStoryboard: 1

[Editor]
Bookmarks: 12607,30607,45614,51614,60614,81614,87614,99614,117614,129614,147614,159614,165614,177614,201614
DistanceSpacing: 1
BeatDivisor: 4
GridSize: 32
TimelineZoom: 1.9

[Metadata]
Title:Arcadia
TitleUnicode:Arcadia
Artist:Shikata Akiko
ArtistUnicode:志方あきこ
Creator:GlaZe
Version:milr_'s Normal
Source:幻解!超常ファイル ダークサイド・ミステリー
Tags:Genkai! Chouchijou File Darkside Mystery Frontier Works Inc. NHK BS Premium プレミアム theme song 主題歌 conlang world music folk neoclassical darkwave constructed language frozz -Keqing milr_ imaginative Agatsu
BeatmapID:3689124
BeatmapSetID:1794132

[Difficulty]
HPDrainRate:4
CircleSize:3.5
OverallDifficulty:5
ApproachRate:5.7
SliderMultiplier:0.8
SliderTickRate:1

[Events]
//Background and Video events
0,0,"80263842_p0 x.jpg",0,0
//Break Periods
2,15614,17519
2,45814,56519
2,87814,98519
2,165814,173519
//Storyboard Layer 0 (Background)
//Storyboard Layer 1 (Fail)
//Storyboard Layer 2 (Pass)
//Storyboard Layer 3 (Foreground)
//Storyboard Layer 4 (Overlay)
//Storyboard Sound Samples

[TimingPoints]
614,250,6,2,1,85,1,0
12614,-100,6,2,1,50,0,0
18614,-111.111111111111,6,2,1,40,0,0
30614,-111.111111111111,6,2,1,65,0,0
33614,-111.111111111111,6,2,2,60,0,0
45614,-111.111111111111,6,2,1,50,0,0
51614,-111.111111111111,6,2,1,60,0,0
57614,-100,6,2,1,70,0,0
60614,-100,6,2,1,85,0,1
81614,-100,6,2,1,85,0,0
84614,-100,6,2,1,75,0,0
90114,-100,6,2,1,30,0,0
99114,-100,6,2,1,60,0,0
99614,-100,6,2,1,85,0,0
111614,-111.111111111111,6,2,2,75,0,0
117614,-111.111111111111,6,2,1,50,0,0
129364,-111.111111111111,6,2,2,50,0,0
129614,-100,6,2,1,70,0,0
135614,-100,6,2,2,60,0,0
147614,-100,6,2,1,85,0,0
159614,-100,6,2,1,65,0,0
162614,-100,6,2,1,70,0,0
165739,-100,6,2,1,40,0,0
174614,-100,6,2,2,60,0,0
176114,-100,6,2,2,70,0,0
177114,-100,6,2,1,70,0,0
177614,-100,6,2,1,85,0,1
201614,-100,6,2,1,70,0,0
202864,-100,6,2,1,50,0,0

[Colours]
Combo1 : 255,236,176
Combo2 : 170,255,170
Combo3 : 222,166,255
Combo4 : 244,74,100

[HitObjects]
155,145,614,6,0,B|239:156|214:72|297:87,1,160,4|0,1:0|0:0,0:0:0:0:
379,111,1364,2,0,P|387:59|398:24,2,80,8|8|0,0:0|0:3|1:2,0:0:0:0:
324,181,2114,2,0,P|336:228|356:343,1,160,4|0,1:3|1:2,0:0:0:0:
278,380,2864,2,0,P|221:358|227:294,1,120,10|2,0:0|0:0,0:0:0:0:
196,273,3364,1,2,1:2:0:0:
250,204,3614,6,0,P|320:216|418:237,1,160,4|0,1:0|0:0,0:0:0:0:
478,287,4364,2,0,P|482:316|435:344,2,80,8|8|0,0:0|0:3|1:2,0:0:0:0:
512,206,5114,2,0,P|520:155|431:93,1,160,4|0,1:3|1:2,0:0:0:0:
374,38,5864,2,0,P|348:32|345:19,2,40,10|2|10,0:0|0:0|0:3,0:0:0:0:
331,115,6364,1,2,1:2:0:0:
244,128,6614,6,0,P|205:122|79:103,1,160,4|0,1:0|0:0,0:0:0:0:
24,166,7364,2,0,P|20:177|52:237,1,80,8|8,0:0|0:3,0:0:0:0:
130,277,7864,1,2,1:2:0:0:
130,277,8114,6,0,B|224:269|173:345|256:363,1,160,4|0,1:3|1:2,0:0:0:0:
327,315,8864,2,0,P|319:258|306:179,1,120,10|2,0:0|0:0,0:0:0:0:
275,168,9364,1,2,1:2:0:0:
209,108,9614,6,0,P|205:61|300:34,1,160,4|0,1:0|1:2,0:0:0:0:
375,72,10364,2,0,P|419:53|475:133,1,160,8|0,0:0|1:2,0:0:0:0:
422,200,11114,1,4,1:3:0:0:
490,254,11364,2,0,P|480:290|472:341,1,80,2|2,0:0|1:2,0:0:0:0:
396,374,11864,2,0,P|362:372|342:324,2,80,10|10|2,0:0|0:3|1:2,0:0:0:0:
256,192,12614,12,2,14114,0:0:0:0:
139,222,18614,6,0,P|171:250|268:222,1,143.999995605469,2|2,1:2|0:0,0:0:0:0:
307,163,19364,1,2,0:0:0:0:
422,262,19864,1,2,0:0:0:0:
485,214,20114,2,0,P|491:163|514:62,1,143.999995605469,2|2,0:0|0:0,0:0:0:0:
453,17,20864,1,2,0:0:0:0:
234,110,21614,6,0,P|199:99|190:64,2,71.9999978027344,2|2|2,0:0|0:0|0:0,0:0:0:0:
305,147,22364,2,0,P|293:193|277:293,1,143.999995605469,2|2,0:0|0:0,0:0:0:0:
302,364,23114,1,2,0:0:0:0:
149,323,23614,2,0,P|132:359|97:362,1,71.9999978027344,2|2,0:0|0:0,0:0:0:0:
17,237,24364,1,2,0:0:0:0:
17,237,24614,6,0,P|77:222|159:207,1,143.999995605469,2|2,1:2|0:0,0:0:0:0:
214,264,25364,1,2,0:0:0:0:
325,377,25864,1,2,0:0:0:0:
389,330,26114,2,0,P|444:333|486:199,1,215.999993408203,2|2,0:0|0:0,0:0:0:0:
316,41,27614,5,2,1:2:0:0:
240,66,27864,2,0,P|227:97|252:131,1,71.9999978027344,2|2,0:0|0:0,0:0:0:0:
313,171,28364,2,0,P|302:218|284:323,1,143.999995605469,2|2,0:0|0:0,0:0:0:0:
224,362,29114,1,2,0:0:0:0:
70,324,29614,2,0,P|35:299|53:267,1,71.9999978027344,2|2,0:0|0:0,0:0:0:0:
59,105,30614,6,0,P|28:79|-8:75,2,71.9999978027344,2|2|2,1:2|0:0|0:0,0:0:0:0:
131,70,31364,2,0,P|137:36|118:1,2,71.9999978027344,2|2|2,0:0|0:0|0:0,0:0:0:0:
177,135,32114,2,0,P|207:127|227:91,2,71.9999978027344,2|2|2,0:0|0:0|0:0,0:0:0:0:
134,203,32864,2,0,P|146:247|165:349,1,143.999995605469,2|2,0:0|0:0,0:0:0:0:
238,373,33614,6,0,B|287:388|304:342|319:307|376:329,1,143.999995605469,2|2,1:2|0:0,0:0:0:0:
435,362,34364,2,0,P|475:348|479:255,1,143.999995605469,10|2,0:0|0:0,0:0:0:0:
426,202,35114,2,0,P|381:194|201:169,1,215.999993408203,2|10,1:2|0:0,0:0:0:0:
142,209,36114,1,2,0:0:0:0:
69,180,36364,1,0,0:0:0:0:
58,102,36614,6,0,P|42:83|-12:95,2,71.9999978027344,2|2|2,1:2|0:0|0:0,0:0:0:0:
125,58,37364,2,0,P|165:30|259:13,1,143.999995605469,10|2,0:0|0:0,0:0:0:0:
325,55,38114,2,0,P|354:82|341:179,1,143.999995605469,2|2,1:2|0:0,0:0:0:0:
276,221,38864,1,10,0:0:0:0:
366,352,39364,1,2,0:0:0:0:
441,325,39614,6,0,P|446:284|474:175,1,143.999995605469,2|2,1:2|0:0,0:0:0:0:
512,116,40364,2,0,P|503:76|409:39,1,143.999995605469,10|2,0:0|0:0,0:0:0:0:
339,58,41114,2,0,P|309:31|319:-5,2,71.9999978027344,2|2|2,1:2|0:0|0:0,0:0:0:0:
363,134,41864,1,10,0:0:0:0:
241,313,42614,5,2,1:2:0:0:
176,359,42864,2,0,P|140:365|122:328,1,71.9999978027344,2|2,0:0|0:0,0:0:0:0:
59,290,43364,2,0,P|51:238|33:149,1,143.999995605469,10|2,0:0|0:0,0:0:0:0:
85,87,44114,6,0,P|108:46|197:36,1,143.999995605469,2|2,1:2|0:0,0:0:0:0:
265,78,44864,2,0,P|271:105|313:114,1,71.9999978027344,10|2,0:0|0:0,0:0:0:0:
386,89,45364,1,0,1:2:0:0:
413,14,45614,5,0,1:2:0:0:
342,245,57614,6,0,P|327:308|318:375,2,120,2|2|2,1:0|1:0|1:0,0:0:0:0:
277,185,58614,1,2,1:2:0:0:
225,256,58864,1,2,1:2:0:0:
171,325,59114,6,0,P|121:328|89:398,2,120,2|2|2,1:0|1:0|1:0,0:0:0:0:
244,375,60114,2,0,P|277:365|325:353,1,80,2|2,0:0|0:0,0:0:0:0:
407,374,60614,6,0,P|447:364|452:284,1,120,6|2,1:0|1:2,0:0:0:0:
441,255,61114,1,10,0:0:0:0:
500,191,61364,1,0,1:2:0:0:
427,143,61614,2,0,P|432:106|443:51,1,80,0|8,1:2|0:0,0:0:0:0:
368,13,62114,6,0,P|319:-1|241:74,1,160,2|10,1:0|0:0,0:0:0:0:
299,131,62864,1,2,1:2:0:0:
253,207,63114,1,2,1:2:0:0:
170,178,63364,1,10,0:0:0:0:
90,141,63614,6,0,P|39:158|26:258,1,160,6|10,1:3|0:0,0:0:0:0:
98,298,64364,2,0,P|88:342|80:381,2,80,2|2|10,1:2|1:2|0:0,0:0:0:0:
179,262,65114,5,2,1:0:0:0:
179,262,65364,2,0,P|220:264|238:224,1,80,0|8,1:2|0:0,0:0:0:0:
223,148,65864,2,0,P|215:106|209:63,2,80,0|2|10,1:2|1:2|0:0,0:0:0:0:
310,138,66614,6,0,P|353:180|422:166,1,120,6|2,1:0|1:2,0:0:0:0:
446,200,67114,1,10,0:0:0:0:
512,141,67364,1,0,1:2:0:0:
476,60,67614,2,0,P|439:53|392:43,1,80,0|8,1:2|0:0,0:0:0:0:
311,24,68114,6,0,P|247:16|189:91,1,160,2|10,1:0|0:0,0:0:0:0:
250,148,68864,2,0,P|276:175|275:223,1,80,2|0,1:2|1:2,0:0:0:0:
212,274,69364,2,0,P|186:268|158:264,1,40,10|2,0:0|0:0,0:0:0:0:
129,258,69614,6,0,P|137:300|142:348,1,80,6|0,1:3|1:2,0:0:0:0:
217,383,70114,1,10,0:0:0:0:
297,345,70364,2,0,P|337:352|382:364,2,80,2|2|10,1:2|1:2|0:0,0:0:0:0:
271,261,71114,6,0,P|279:221|313:208,1,80,2|2,1:0|1:1,0:0:0:0:
392,246,71614,1,10,0:1:0:0:
471,284,71864,1,4,1:3:0:0:
509,205,72114,2,0,P|500:159|493:121,1,80,0|8,1:1|0:1,0:0:0:0:
512,40,72614,6,0,P|478:27|422:79,1,120,4|2,1:0|1:2,0:0:0:0:
391,109,73114,1,10,0:0:0:0:
312,70,73364,1,0,1:2:0:0:
235,27,73614,2,0,P|226:71|218:111,1,80,0|8,1:2|0:0,0:0:0:0:
280,169,74114,6,0,P|285:209|297:336,1,160,2|10,1:0|0:0,0:0:0:0:
222,375,74864,1,2,1:2:0:0:
180,298,75114,1,2,1:2:0:0:
97,327,75364,1,10,0:0:0:0:
14,354,75614,6,0,P|-4:309|62:217,1,160,6|10,1:3|0:0,0:0:0:0:
102,150,76364,2,0,P|97:111|92:59,2,80,2|2|10,1:2|1:2|0:0,0:0:0:0:
185,192,77114,5,2,1:0:0:0:
185,192,77364,2,0,P|229:190|243:159,1,80,2|10,1:2|0:0,0:0:0:0:
273,78,77864,1,2,1:2:0:0:
341,24,78114,1,2,1:2:0:0:
423,55,78364,1,10,0:0:0:0:
476,125,78614,6,0,P|460:184|443:284,1,160,6|10,1:0|0:0,0:0:0:0:
362,308,79364,1,0,1:2:0:0:
362,308,79614,2,0,P|306:325|261:271,1,120,2|0,1:2|0:0,0:0:0:0:
281,247,80114,6,0,P|273:184|250:91,1,160,2|8,1:0|0:0,0:0:0:0:
334,65,80864,2,0,P|360:43|358:-3,2,80,2|2|10,1:2|1:2|0:0,0:0:0:0:
256,192,81614,12,6,84614,1:0:0:0:
256,192,84864,12,6,87614,0:0:0:0:
323,192,99614,6,0,P|363:168|351:96,1,120,6|0,1:0|1:2,0:0:0:0:
326,70,100114,1,10,0:0:0:0:
244,101,100364,2,0,P|184:85|75:65,1,160,0|8,1:2|0:0,0:0:0:0:
22,124,101114,1,2,1:0:0:0:
93,176,101364,2,0,P|119:197|98:248,1,80,2|10,1:2|0:0,0:0:0:0:
32,277,101864,2,0,P|27:325|121:356,1,160,2|10,1:2|0:0,0:0:0:0:
192,314,102614,6,0,P|234:322|319:342,1,120,4|0,1:3|1:2,0:0:0:0:
348,317,103114,1,10,0:0:0:0:
423,363,103364,1,0,1:2:0:0:
492,309,103614,2,0,P|505:272|477:232,1,80,0|8,1:2|0:0,0:0:0:0:
415,187,104114,1,2,1:0:0:0:
460,112,104364,1,2,1:2:0:0:
313,17,104864,2,0,P|271:25|146:49,1,160,2|10,1:2|0:0,0:0:0:0:
72,19,105614,6,0,P|39:48|51:126,1,120,6|0,1:0|1:2,0:0:0:0:
80,146,106114,1,10,0:0:0:0:
26,216,106364,2,0,P|13:226|76:318,1,160,0|8,1:2|0:0,0:0:0:0:
127,384,107114,1,2,1:0:0:0:
203,339,107364,2,0,P|195:296|189:259,1,80,2|10,1:2|0:0,0:0:0:0:
141,186,107864,2,0,P|148:134|248:102,1,160,2|10,1:2|0:0,0:0:0:0:
322,130,108614,6,0,P|315:172|301:257,1,120,4|0,1:3|1:2,0:0:0:0:
269,277,109114,1,10,0:0:0:0:
312,354,109364,2,0,P|327:365|377:340,1,80,0|0,1:2|1:2,0:0:0:0:
465,322,109864,1,8,0:0:0:0:
496,240,110114,1,2,1:0:0:0:
411,216,110364,1,2,1:2:0:0:
360,47,110864,2,0,P|306:56|190:78,1,160,2|10,1:2|0:0,0:0:0:0:
124,38,111614,6,0,P|76:38|36:118,1,143.999995605469,6|0,1:2|0:0,0:0:0:0:
97,165,112364,2,0,P|85:205|78:244,1,71.9999978027344,10|2,0:0|0:0,0:0:0:0:
18,285,112864,1,2,0:0:0:0:
68,343,113114,2,0,P|109:355|166:278,1,143.999995605469,6|2,1:2|0:0,0:0:0:0:
230,237,113864,1,10,0:0:0:0:
230,237,114114,2,0,P|251:263|285:257,1,71.9999978027344,2|2,0:0|0:0,0:0:0:0:
355,217,114614,1,6,1:2:0:0:
310,151,114864,6,0,P|315:121|322:77,1,71.9999978027344,2|2,0:0|0:0,0:0:0:0:
388,36,115364,1,10,0:0:0:0:
464,14,115614,1,2,1:2:0:0:
508,79,115864,1,2,1:2:0:0:
463,145,116114,1,6,1:2:0:0:
136,194,117614,6,0,P|140:231|239:247,1,143.999995605469,4|2,1:2|0:0,0:0:0:0:
298,215,118364,2,0,P|292:158|272:66,1,143.999995605469,2|2,1:2|0:0,0:0:0:0:
210,27,119114,2,0,B|163:-3|116:13|116:89|60:100|21:74,1,215.999993408203,2|2,1:2|1:2,0:0:0:0:
108,272,120614,6,0,P|102:305|95:347,2,71.9999978027344,2|2|2,1:2|0:0|0:0,0:0:0:0:
182,242,121364,2,0,P|176:196|165:92,1,143.999995605469,2|2,1:2|0:0,0:0:0:0:
123,31,122114,2,0,P|194:-2|286:86,1,215.999993408203,2|2,1:2|1:2,0:0:0:0:
279,160,123114,1,0,1:2:0:0:
338,214,123364,1,0,1:2:0:0:
411,182,123614,6,0,P|420:147|443:34,1,143.999995605469,6|2,1:2|0:0,0:0:0:0:
370,8,124364,2,0,B|335:-9|295:-1|313:61|242:50,1,143.999995605469,2|2,1:2|0:0,0:0:0:0:
190,108,125114,2,0,P|128:117|43:-4,1,215.999993408203,2|2,1:2|1:2,0:0:0:0:
278,20,126614,5,0,1:2:0:0:
334,76,126864,2,0,P|328:118|323:157,1,71.9999978027344,2|2,0:0|0:0,0:0:0:0:
273,208,127364,1,2,1:2:0:0:
350,348,127864,1,2,0:0:0:0:
420,310,128114,2,0,P|471:318|506:235,1,143.999995605469,6|2,1:2|0:0,0:0:0:0:
479,173,128864,2,0,P|431:163|332:146,1,143.999995605469,2|8,0:0|0:0,0:0:0:0:
287,84,129614,6,0,P|272:53|156:36,1,160,4|8,1:0|0:0,0:0:0:0:
84,78,130364,2,0,P|41:75|28:34,2,80,4|0|8,1:3|1:2|0:0,0:0:0:0:
150,138,131114,2,0,P|156:182|165:308,1,160,2|8,1:2|0:0,0:0:0:0:
95,352,131864,1,4,1:3:0:0:
13,322,132114,1,0,1:2:0:0:
36,237,132364,1,8,0:0:0:0:
119,267,132614,6,0,B|195:250|168:357|269:326,1,160,4|8,1:0|0:0,0:0:0:0:
335,361,133364,2,0,P|398:366|424:280,1,160,4|8,1:3|0:0,0:0:0:0:
368,220,134114,2,0,P|314:210|200:190,1,160,0|8,1:2|0:0,0:0:0:0:
129,225,134864,1,4,1:3:0:0:
48,193,135114,1,0,1:2:0:0:
38,106,135364,1,8,0:0:0:0:
108,54,135614,6,0,P|148:9|245:29,1,160,6|2,1:2|0:0,0:0:0:0:
315,68,136364,2,0,P|302:110|286:240,1,160,8|10,0:0|0:3,0:0:0:0:
218,281,137114,2,0,P|186:272|136:266,2,80,2|2|2,1:2|0:0|0:0,0:0:0:0:
274,349,137864,2,0,P|304:382|344:377,1,80,10|2,0:0|1:2,0:0:0:0:
418,344,138364,1,8,1:3:0:0:
418,344,138614,6,0,P|405:284|394:187,1,160,6|2,1:2|0:0,0:0:0:0:
473,148,139364,2,0,P|491:111|419:21,1,160,10|10,0:0|0:3,0:0:0:0:
360,75,140114,2,0,B|232:119|271:-15|134:35,1,240,2|10,1:2|0:0,0:0:0:0:
68,84,141114,2,0,P|36:76|11:75,2,40,2|2|10,1:2|0:0|0:3,0:0:0:0:
136,142,141614,6,0,P|148:181|162:306,1,160,6|2,1:2|0:0,0:0:0:0:
84,341,142364,2,0,P|23:332|-1:247,1,160,8|10,0:0|0:3,0:0:0:0:
72,197,143114,2,0,P|107:210|111:261,2,80,2|2|2,1:2|0:0|0:0,0:0:0:0:
15,129,143864,2,0,P|10:87|1:50,1,80,10|2,0:0|1:2,0:0:0:0:
78,6,144364,1,8,1:3:0:0:
78,6,144614,6,0,P|101:35|151:30,1,80,6|2,1:2|0:0,0:0:0:0:
229,12,145114,1,2,0:0:0:0:
229,12,145364,2,0,P|287:44|281:142,1,160,10|10,0:0|0:3,0:0:0:0:
202,117,146114,2,0,P|164:147|142:331,1,240,2|10,1:2|0:0,0:0:0:0:
208,379,147114,1,2,1:2:0:0:
294,360,147364,1,10,0:3:0:0:
379,341,147614,5,4,1:1:0:0:
379,341,147864,2,0,P|384:296|392:247,1,80,2|0,1:2|1:2,0:0:0:0:
451,199,148364,2,0,P|473:230|520:233,2,80,8|2|0,0:0|1:2|1:2,0:0:0:0:
401,126,149114,1,6,1:3:0:0:
401,126,149364,2,0,P|347:133|308:142,1,80,2|0,1:2|1:2,0:0:0:0:
251,87,149864,2,0,P|245:53|280:23,2,80,8|2|0,0:0|1:2|1:2,0:0:0:0:
195,156,150614,6,0,P|202:195|209:249,1,80,6|2,1:3|0:0,0:0:0:0:
292,273,151114,1,10,0:0:0:0:
292,273,151364,2,0,P|307:319|230:382,1,160,2|10,1:2|0:0,0:0:0:0:
151,347,152114,2,0,P|102:358|67:300,1,120,2|2,1:2|0:0,0:0:0:0:
88,268,152614,1,8,0:0:0:0:
39,195,152864,2,0,P|16:198|-11:204,2,40,2|2|14,1:2|0:0|0:0,0:0:0:0:
108,141,153364,1,14,0:0:0:0:
182,92,153614,5,4,1:1:0:0:
182,92,153864,2,0,P|222:97|269:105,1,80,2|0,1:2|1:2,0:0:0:0:
347,81,154364,2,0,P|357:44|318:9,2,80,8|2|0,0:0|1:2|1:2,0:0:0:0:
333,172,155114,1,6,1:3:0:0:
333,172,155364,2,0,P|377:165|416:159,1,80,2|0,1:2|1:2,0:0:0:0:
486,210,155864,2,0,P|514:188|513:142,2,80,8|2|0,0:0|1:2|1:2,0:0:0:0:
438,286,156614,5,10,0:0:0:0:
438,286,156864,1,10,0:0:0:0:
277,358,157364,1,10,0:0:0:0:
277,358,157614,1,10,0:0:0:0:
178,212,158114,2,0,P|148:202|146:147,1,80,10|10,0:0|0:0,0:0:0:0:
298,84,158864,2,0,P|293:122|258:137,2,80,10|10|8,0:0|0:0|0:3,0:0:0:0:
232,29,159614,6,0,P|188:34|139:46,1,80,6|2,1:0|1:2,0:0:0:0:
76,14,160114,1,8,0:0:0:0:
76,14,160364,2,0,P|32:33|25:141,1,160,2|10,1:2|0:0,0:0:0:0:
105,157,161114,2,0,P|154:148|252:295,1,240,2|2,1:0|1:2,0:0:0:0:
179,323,162114,1,2,1:2:0:0:
97,358,162364,1,10,0:0:0:0:
16,323,162614,6,0,P|14:284|2:239,1,80,4|2,1:1|1:2,0:0:0:0:
29,208,162989,2,0,P|57:241|97:236,1,80,4|0,1:3|1:2,0:0:0:0:
130,219,163364,1,4,1:3:0:0:
171,141,163614,1,4,1:3:0:0:
251,178,163864,1,4,1:3:0:0:
256,266,164114,6,0,P|292:340|447:338,1,240,12|2,0:0|1:2,0:0:0:0:
472,268,165114,2,0,P|501:273|527:278,2,40,2|0|10,1:2|0:0|0:3,0:0:0:0:
408,207,165614,1,6,0:0:0:0:
256,192,174614,12,0,176864,1:2:0:0:
460,146,177614,6,0,P|428:140|337:126,1,120,6|2,1:0|1:2,0:0:0:0:
307,154,178114,1,10,0:0:0:0:
231,109,178364,1,0,1:2:0:0:
274,32,178614,2,0,P|308:23|361:13,1,80,0|8,1:2|0:0,0:0:0:0:
429,56,179114,6,0,P|486:57|506:151,1,160,2|10,1:0|0:0,0:0:0:0:
447,205,179864,1,2,1:2:0:0:
366,170,180114,1,2,1:2:0:0:
323,247,180364,1,10,0:0:0:0:
384,310,180614,6,0,P|374:352|265:359,1,160,6|10,1:3|0:0,0:0:0:0:
196,323,181364,2,0,P|158:329|116:336,2,80,2|2|10,1:2|1:2|0:0,0:0:0:0:
248,252,182114,5,2,1:0:0:0:
248,252,182364,2,0,P|288:257|331:265,1,80,0|8,1:2|0:0,0:0:0:0:
403,226,182864,2,0,P|437:235|465:193,2,80,0|2|10,1:2|1:2|0:0,0:0:0:0:
360,148,183614,6,0,P|298:152|277:102,1,120,6|2,1:0|1:2,0:0:0:0:
255,67,184114,1,10,0:0:0:0:
321,9,184364,1,0,1:2:0:0:
396,55,184614,2,0,P|429:62|482:75,1,80,0|8,1:2|0:0,0:0:0:0:
508,154,185114,6,0,P|496:203|399:217,1,160,2|10,1:0|0:0,0:0:0:0:
327,169,185864,2,0,P|293:174|231:183,1,80,2|0,1:2|1:2,0:0:0:0:
177,233,186364,2,0,P|182:254|188:276,1,40,10|2,0:0|0:0,0:0:0:0:
225,292,186614,6,0,P|236:337|200:364,1,80,6|0,1:3|1:2,0:0:0:0:
131,384,187114,1,10,0:0:0:0:
71,320,187364,2,0,P|32:326|-14:335,2,80,2|2|10,1:2|1:2|0:0,0:0:0:0:
111,242,188114,6,0,P|119:208|173:203,1,80,2|2,1:0|1:1,0:0:0:0:
239,230,188614,1,10,0:1:0:0:
290,157,188864,1,4,1:3:0:0:
218,105,189114,2,0,P|223:69|231:19,1,80,0|8,1:1|0:1,0:0:0:0:
314,0,189614,6,0,P|342:43|416:37,1,120,4|2,1:0|1:2,0:0:0:0:
444,22,190114,1,10,0:0:0:0:
512,78,190364,1,0,1:2:0:0:
453,142,190614,2,0,P|444:185|436:225,1,80,0|8,1:2|0:0,0:0:0:0:
492,289,191114,6,0,P|487:328|382:364,1,160,2|10,1:0|0:0,0:0:0:0:
312,321,191864,1,2,1:2:0:0:
268,245,192114,1,2,1:2:0:0:
189,284,192364,1,10,0:0:0:0:
110,322,192614,6,0,P|70:318|45:211,1,160,6|10,1:3|0:0,0:0:0:0:
97,151,193364,2,0,P|90:108|83:66,2,80,2|2|10,1:2|1:2|0:0,0:0:0:0:
176,201,194114,5,2,1:0:0:0:
176,201,194364,2,0,P|210:192|234:237,1,80,2|10,1:2|0:0,0:0:0:0:
262,307,194864,1,2,1:2:0:0:
334,358,195114,1,2,1:2:0:0:
420,341,195364,1,10,0:0:0:0:
488,285,195614,6,0,P|477:228|460:126,1,160,6|10,1:0|0:0,0:0:0:0:
512,56,196364,1,0,1:2:0:0:
512,56,196614,2,0,P|454:3|407:21,1,120,2|0,1:2|0:0,0:0:0:0:
388,40,197114,6,0,P|355:81|254:70,1,160,2|8,1:0|0:0,0:0:0:0:
178,31,197864,2,0,P|151:9|97:22,2,80,2|2|10,1:2|1:2|0:0,0:0:0:0:
149,114,198614,6,0,P|162:197|173:278,1,160,6|8,1:3|0:0,0:0:0:0:
114,339,199364,1,0,1:2:0:0:
190,384,199614,1,0,1:2:0:0:
249,319,199864,1,8,0:0:0:0:
333,345,200114,6,0,P|351:371|406:366,2,80,2|0|10,1:0|1:2|0:0,0:0:0:0:
311,259,200864,1,2,1:2:0:0:
363,188,201114,1,2,1:2:0:0:
313,114,201364,1,10,0:0:0:0:
228,136,201614,5,6,1:0:0:0:
256,192,201864,12,2,204614,0:1:0:0:
