osu file format v14

[General]
AudioFilename: audio.mp3
AudioLeadIn: 0
PreviewTime: 60114
Countdown: 0
SampleSet: Soft
StackLeniency: 0.4
Mode: 0
LetterboxInBreaks: 0
WidescreenStoryboard: 1

[Editor]
Bookmarks: 12607,18614,30607,45614,51614,60614,81614,87614,99614,117614,129614,147614,159614,165614,177614,201614
DistanceSpacing: 1.3
BeatDivisor: 4
GridSize: 32
TimelineZoom: 2.599999

[Metadata]
Title:Arcadia
TitleUnicode:Arcadia
Artist:Shikata Akiko
ArtistUnicode:志方あきこ
Creator:GlaZe
Version:Shikata Akiko's Hard
Source:幻解!超常ファイル ダークサイド・ミステリー
Tags:Genkai! Chouchijou File Darkside Mystery Frontier Works Inc. NHK BS Premium プレミアム theme song 主題歌 conlang world music folk neoclassical darkwave constructed language frozz -Keqing milr_ imaginative Agatsu
BeatmapID:3763527
BeatmapSetID:1794132

[Difficulty]
HPDrainRate:4.5
CircleSize:3.7
OverallDifficulty:6
ApproachRate:8
SliderMultiplier:1.25
SliderTickRate:1

[Events]
//Background and Video events
0,0,"80263842_p0 x.jpg",0,0
//Break Periods
2,15814,17614
2,90814,98364
2,165814,173864
//Storyboard Layer 0 (Background)
//Storyboard Layer 1 (Fail)
//Storyboard Layer 2 (Pass)
//Storyboard Layer 3 (Foreground)
//Storyboard Layer 4 (Overlay)
//Storyboard Sound Samples

[TimingPoints]
614,250,6,2,1,85,1,0
614,-105.263157894737,6,2,1,85,0,0
12614,-105.263157894737,6,2,1,50,0,0
12676,-125,6,2,1,50,0,0
18614,-125,6,2,1,40,0,0
30614,-111.111111111111,6,2,1,65,0,0
33614,-111.111111111111,6,2,2,60,0,0
45614,-125,6,2,1,50,0,0
51614,-125,6,2,1,60,0,0
57614,-125,6,2,1,70,0,0
60614,-100,6,2,1,85,0,1
81614,-100,6,2,1,85,0,0
84614,-100,6,2,1,75,0,0
87614,-111.111111111111,6,2,1,75,0,0
90114,-111.111111111111,6,2,1,30,0,0
99114,-111.111111111111,6,2,1,60,0,0
99614,-100,6,2,1,85,0,1
111614,-105.263157894737,6,2,2,75,0,0
116114,-105.263157894737,6,2,2,75,0,0
117614,-125,6,2,1,50,0,0
129364,-125,6,2,2,50,0,0
129614,-105.263157894737,6,2,1,70,0,0
135614,-111.111111111111,6,2,2,60,0,0
147614,-105.263157894737,6,2,1,85,0,0
159614,-105.263157894737,6,2,1,65,0,0
162614,-105.263157894737,6,2,1,70,0,0
165614,-125,6,2,1,70,0,0
165739,-125,6,2,1,40,0,0
174614,-125,6,2,2,60,0,0
176114,-125,6,2,2,70,0,0
177114,-111.111111111111,6,2,1,70,0,0
177614,-100,6,2,1,85,0,1
201614,-100,6,2,1,70,0,0
202864,-100,6,2,1,50,0,0

[Colours]
Combo1 : 255,236,176
Combo2 : 170,255,170
Combo3 : 222,166,255
Combo4 : 244,74,100

[HitObjects]
29,17,614,5,4,1:0:0:0:
29,17,739,2,0,L|36:94,1,59.3749984145165,0|0,1:2|0:0,0:0:0:0:
97,120,989,2,0,B|81:144|58:151|58:151|73:232,1,118.749996829033,0|0,1:2|1:2,0:0:0:0:
84,293,1364,1,8,0:0:0:0:
217,216,1613,1,8,0:3:0:0:
302,345,1864,1,0,1:2:0:0:
438,273,2114,6,0,L|424:149,1,118.749996829033,4|0,1:3|0:0,0:0:0:0:
441,82,2489,1,0,1:2:0:0:
441,82,2614,2,0,P|411:76|382:90,1,59.3749984145165,0|0,1:2|0:0,0:0:0:0:
318,126,2864,2,0,B|264:148|230:112|248:85|199:53|154:86,1,178.124995243549,10|2,0:0|0:0,0:0:0:0:
96,121,3364,1,2,1:2:0:0:
207,235,3614,5,4,1:0:0:0:
207,235,3739,2,0,L|200:310,1,59.3749984145165,0|0,1:2|0:0,0:0:0:0:
144,354,3989,2,0,B|191:341|191:341|214:350|214:350|264:336,1,118.749996829033,0|0,1:2|1:2,0:0:0:0:
332,320,4364,2,0,B|361:306|374:278|374:278|374:307|407:341,2,118.749996829033,8|8|0,0:0|0:3|1:2,0:0:0:0:
279,174,5114,6,0,P|225:162|189:217,1,118.749996829033,4|0,1:3|0:0,0:0:0:0:
201,283,5489,2,0,B|165:298|135:284|153:267|117:250|84:270,1,118.749996829033,0|0,1:2|1:2,0:0:0:0:
15,284,5864,2,0,L|23:216,1,59.3749984145165,10|2,0:0|0:0,0:0:0:0:
26,148,6113,1,10,0:3:0:0:
167,83,6364,1,2,1:2:0:0:
309,18,6614,5,4,1:0:0:0:
309,18,6739,2,0,L|319:86,1,59.3749984145165,0|0,1:2|0:0,0:0:0:0:
390,104,6989,2,0,P|353:143|378:195,1,118.749996829033,0|0,1:2|1:2,0:0:0:0:
430,251,7364,1,8,0:0:0:0:
335,372,7614,1,8,0:3:0:0:
212,277,7864,2,0,L|219:217,1,59.3749984145165,2|2,1:2|0:0,0:0:0:0:
285,178,8114,6,0,B|249:162|219:176|237:193|201:210|168:190,1,118.749996829033,4|0,1:3|0:0,0:0:0:0:
104,176,8489,1,0,1:2:0:0:
104,176,8614,1,0,1:2:0:0:
157,31,8864,2,0,B|222:43|222:43|250:80|250:80|316:95,1,178.124995243549,10|2,0:0|0:0,0:0:0:0:
389,113,9364,1,2,1:2:0:0:
512,210,9614,5,4,1:0:0:0:
512,210,9739,2,0,L|500:272,1,59.3749984145165
449,325,9989,2,0,B|371:299|371:299|356:318|336:331,1,118.749996829033,0|0,1:2|1:2,0:0:0:0:
275,357,10364,2,0,B|237:314|237:314|200:378,2,118.749996829033,8|8|0,0:0|0:3|1:2,0:0:0:0:
220,211,11114,1,4,1:3:0:0:
228,56,11364,6,0,P|198:52|167:69,1,59.3749984145165,2|0,0:0|1:2,0:0:0:0:
107,22,11614,2,0,P|88:45|87:81,1,59.3749984145165,2|0,1:2|1:2,0:0:0:0:
16,109,11864,2,0,P|27:136|57:155,1,59.3749984145165,10|0,0:0|0:0,0:0:0:0:
39,229,12114,2,0,P|69:233|100:216,1,59.3749984145165,10|0,0:3|0:0,0:0:0:0:
151,274,12364,2,0,P|169:250|170:214,1,59.3749984145165,2|0,1:2|0:0,0:0:0:0:
159,145,12614,5,6,1:2:0:0:
256,192,12676,12,2,15614,0:0:0:0:
256,192,18364,5,2,0:0:0:0:
357,128,18614,2,0,B|407:160|407:160|376:265,1,150,2|2,1:2|0:0,0:0:0:0:
358,317,19113,1,2,0:0:0:0:
469,363,19364,2,0,B|414:389|370:351|394:327|340:284|291:319,1,200,2|2,0:0|0:0,0:0:0:0:
181,362,20114,2,0,P|130:366|94:330,2,100,2|2|2,0:0|0:0|0:0,0:0:0:0:
293,317,20864,1,2,0:0:0:0:
22,78,21614,6,0,B|6:128|6:128|35:170,2,100,2|2|2,0:0|0:0|0:0,0:0:0:0:
139,53,22364,2,0,B|123:103|123:103|152:145,2,100,2|0|2,0:0|0:0|0:0,0:0:0:0:
248,4,23114,2,0,B|288:62|288:62|264:137,1,150,2|0,0:0|0:0,0:0:0:0:
237,207,23614,1,2,0:0:0:0:
347,252,23864,1,2,0:0:0:0:
489,63,24364,2,0,L|475:141,1,75,2|0,0:0|0:0,0:0:0:0:
488,167,24614,6,0,B|449:178|414:177|414:177|425:212|422:258,1,150,2|2,1:2|0:0,0:0:0:0:
409,326,25113,1,2,0:0:0:0:
308,261,25364,2,0,B|234:274|234:274|202:316|202:316|128:333,1,200,2|2,0:0|0:0,0:0:0:0:
13,350,26114,1,2,0:0:0:0:
69,243,26364,1,2,0:0:0:0:
2,143,26614,1,2,0:0:0:0:
90,61,26864,2,0,B|110:43|114:23|114:23|176:18|212:63|199:120,1,200,2|0,0:0|0:0,0:0:0:0:
169,237,27614,6,0,P|220:249|261:224,1,100,2|2,1:2|0:0,0:0:0:0:
338,135,28114,1,2,0:0:0:0:
408,232,28364,2,0,P|450:255|498:242,2,100,2|2|2,0:0|0:0|0:0,0:0:0:0:
338,135,29113,2,0,B|283:109|239:147|263:171|209:214|160:179,1,200,2|2,0:0|0:0,0:0:0:0:
56,123,29864,1,2,0:0:0:0:
226,59,30239,1,0,0:0:0:0:
226,59,30363,1,2,0:0:0:0:
353,12,30614,6,0,B|391:0|391:0|372:79,1,112.499996566773,2|2,1:2|0:0,0:0:0:0:
363,146,30989,1,0,0:0:0:0:
363,146,31114,1,2,0:0:0:0:
484,64,31364,2,0,B|522:52|522:52|503:131,1,112.499996566773,2|2,0:0|0:0,0:0:0:0:
488,196,31739,1,0,0:0:0:0:
488,196,31864,1,2,0:0:0:0:
379,294,32114,6,0,B|346:308|319:295|335:280|303:265|273:283,1,112.499996566773,2|2,0:0|0:0,0:0:0:0:
210,311,32489,1,0,0:0:0:0:
210,311,32614,1,2,0:0:0:0:
157,174,32864,2,0,L|215:164,1,56.2499982833863,2|2,0:0|0:0,0:0:0:0:
268,116,33114,2,0,L|326:126,1,56.2499982833863,2|2,0:0|0:0,0:0:0:0:
396,137,33364,1,2,0:0:0:0:
468,23,33614,6,0,B|518:55|518:55|481:163,1,168.749994850159,2|2,1:2|0:0,0:0:0:0:
426,206,34114,2,0,L|437:272,1,56.2499982833863,2|0,0:0|0:0,0:0:0:0:
494,307,34364,2,0,P|450:274|356:321,1,168.749994850159,10|0,0:0|0:0,0:0:0:0:
314,377,34864,1,2,0:0:0:0:
221,278,35114,5,2,1:2:0:0:
283,158,35364,2,0,L|216:161,1,56.2499982833863
155,143,35614,1,2,0:0:0:0:
229,30,35864,2,0,B|291:40|291:40|317:76|317:76|380:90,1,168.749994850159,10|0,0:0|0:0,0:0:0:0:
448,109,36363,1,0,0:0:0:0:
509,229,36614,5,2,1:2:0:0:
408,315,36864,2,0,P|374:321|350:309,1,56.2499982833863,2|0,0:0|0:0,0:0:0:0:
289,280,37114,1,2,0:0:0:0:
185,366,37364,2,0,B|167:348|146:342|146:342|165:262,1,112.499996566773,10|2,0:0|0:0,0:0:0:0:
187,145,37863,1,2,0:0:0:0:
315,102,38114,6,0,B|275:127|227:101|248:74|201:46|153:75,1,168.749994850159,2|0,1:2|0:0,0:0:0:0:
93,96,38614,1,2,0:0:0:0:
34,217,38864,2,0,L|38:280,1,56.2499982833863,10|2,0:0|0:0,0:0:0:0:
77,334,39114,2,0,P|112:340|137:327,1,56.2499982833863,2|2,0:0|0:0,0:0:0:0:
196,302,39364,1,2,0:0:0:0:
127,185,39614,6,0,B|243:163|243:163|259:192|281:205,1,168.749994850159,2|2,1:2|0:0,0:0:0:0:
328,251,40113,1,2,0:0:0:0:
446,185,40364,2,0,P|471:137|442:89,1,112.499996566773,10|0,0:0|0:0,0:0:0:0:
391,37,40739,1,0,0:0:0:0:
391,37,40863,1,2,0:0:0:0:
271,100,41114,5,2,1:2:0:0:
151,37,41364,2,0,L|146:108,1,56.2499982833863,2|0,0:0|0:0,0:0:0:0:
138,166,41614,1,2,0:0:0:0:
20,227,41864,2,0,B|58:235|58:235|76:263|76:263|116:273,1,112.499996566773,10|2,0:0|0:0,0:0:0:0:
189,296,42239,1,2,0:0:0:0:
189,296,42363,1,2,0:0:0:0:
300,218,42614,5,2,1:2:0:0:
421,276,42864,2,0,P|445:231|423:175,1,112.499996566773,2|2,0:0|0:0,0:0:0:0:
293,206,43364,1,10,0:0:0:0:
345,81,43614,2,0,P|300:57|244:79,1,112.499996566773,2|2,0:0|0:0,0:0:0:0:
115,37,44114,6,0,B|150:7|150:7|196:28|212:73|182:118,1,168.749994850159,2|0,1:2|0:0,0:0:0:0:
148,170,44614,1,2,0:0:0:0:
27,108,44864,2,0,L|36:185,1,56.2499982833863,10|2,0:0|0:0,0:0:0:0:
66,228,45114,2,0,L|57:305,1,56.2499982833863,2|0,0:0|0:0,0:0:0:0:
47,355,45364,2,0,P|75:361|104:351,1,56.2499982833863,0|0,1:2|0:0,0:0:0:0:
166,298,45614,6,0,B|245:241|316:311|275:355|359:415|428:359,1,300,0|2,1:2|0:1,0:0:0:0:
259,148,47114,2,0,B|247:118|240:83|269:32|319:2|402:36|411:80|388:130|353:143|322:118,1,300,2|2,1:2|0:1,0:0:0:0:
67,55,48614,2,0,B|125:18|125:18|100:159,1,200,0|2,1:2|0:0,0:0:0:0:
41,252,49364,2,0,B|26:273|-5:287|-5:287|32:315|87:313|126:277,1,200,2|2,0:1|0:0,0:0:0:0:
219,202,50114,2,0,B|236:183|271:175|299:189|299:189|320:230|357:225,1,150,2|2,1:2|0:0,0:0:0:0:
418,201,50614,1,2,0:0:0:0:
462,301,50863,1,2,0:1:0:0:
197,357,51614,6,0,B|190:322|156:299|156:299|217:265|265:313|231:340|305:381|371:335,1,300,0|2,1:2|0:1,0:0:0:0:
507,117,53113,2,0,B|465:111|420:101|420:101|330:197|330:197|292:186|244:185,1,300,2|2,1:2|0:1,0:0:0:0:
27,33,54614,2,0,B|49:7|97:-3|134:15|134:15|157:70|213:64,1,200,2|2,1:2|0:0,0:0:0:0:
315,48,55364,1,2,0:1:0:0:
349,152,55614,1,2,0:0:0:0:
383,256,55864,1,2,0:0:0:0:
338,367,56114,6,0,B|286:398|232:366|261:338|202:308|154:336,1,200,0|2,1:2|0:0,0:0:0:0:
43,375,56864,1,2,0:0:0:0:
0,274,57113,1,2,0:0:0:0:
55,178,57364,1,2,0:0:0:0:
12,65,57614,6,0,B|78:54|78:54|89:72|110:78,1,100,2|0,1:0|0:0,0:0:0:0:
165,117,57989,2,0,P|144:163|167:204,1,100,2|0,1:0|0:0,0:0:0:0:
219,256,58364,1,2,1:0:0:0:
312,166,58614,1,2,1:2:0:0:
403,74,58863,1,2,1:2:0:0:
407,204,59114,6,0,L|393:307,1,100,2|0,1:0|0:0,0:0:0:0:
339,355,59489,2,0,P|293:368|246:340,1,100,2|0,1:0|0:0,0:0:0:0:
199,288,59864,1,2,1:0:0:0:
104,377,60114,6,0,L|97:302,1,75,2|0,0:0|0:0,0:0:0:0:
92,256,60364,1,2,0:0:0:0:
26,107,60614,6,0,P|89:80|147:103,1,125,6|0,1:0|1:2,0:0:0:0:
204,155,60989,1,2,1:2:0:0:
204,155,61114,2,0,L|211:229,1,62.5,10|0,0:0|0:0,0:0:0:0:
253,286,61364,1,0,1:2:0:0:
388,192,61613,2,0,P|401:225|394:260,1,62.5,0|0,1:2|0:0,0:0:0:0:
469,291,61864,2,0,P|447:319|413:331,1,62.5,8|0,0:0|0:0,0:0:0:0:
342,368,62114,6,0,B|290:385|254:353|273:325|223:291|170:326,1,187.5,2|0,1:0|1:2,0:0:0:0:
97,339,62614,2,0,L|87:275,1,62.5,10|0,0:0|0:0,0:0:0:0:
57,200,62864,2,0,P|91:193|117:202,1,62.5,2|0,1:2|0:0,0:0:0:0:
194,225,63114,2,0,L|202:162,1,62.5,2|0,1:2|0:0,0:0:0:0:
211,82,63364,1,10,0:0:0:0:
47,37,63614,6,0,B|98:12|142:47|117:70|168:111|213:80,1,187.5,6|0,1:3|1:2,0:0:0:0:
285,45,64114,1,10,0:0:0:0:
285,45,64239,1,0,0:0:0:0:
362,69,64364,2,0,P|397:79|426:67,1,62.5,2|0,1:2|0:0,0:0:0:0:
498,48,64614,2,0,L|490:120,1,62.5,2|0,1:2|0:0,0:0:0:0:
478,191,64864,1,10,0:0:0:0:
509,363,65114,6,0,B|462:354|462:354|441:332|441:332|370:319,1,125,2|0,1:0|1:2,0:0:0:0:
318,293,65489,1,0,1:2:0:0:
318,293,65614,1,8,0:0:0:0:
174,371,65864,2,0,L|164:309,1,62.5,0|0,1:2|0:0,0:0:0:0:
88,278,66114,2,0,L|102:172,1,93.75,2|0,1:2|0:0,0:0:0:0:
104,147,66364,1,10,0:0:0:0:
104,147,66489,1,0,0:0:0:0:
56,73,66614,6,0,B|137:58|137:58|163:95,1,125,6|0,1:0|1:2,0:0:0:0:
208,165,66989,1,2,1:2:0:0:
208,165,67114,2,0,P|247:173|273:159,1,62.5,10|0,0:0|0:0,0:0:0:0:
325,107,67364,1,0,1:2:0:0:
450,3,67614,2,0,B|466:18|482:21|482:21|468:85,1,93.75,0|0,1:2|0:0,0:0:0:0:
441,104,67864,2,0,L|449:177,1,62.5,8|0,0:0|0:0,0:0:0:0:
511,227,68114,6,0,B|474:210|444:224|462:242|426:256|392:239,1,125,2|0,1:0|1:2,0:0:0:0:
322,215,68488,1,0,1:2:0:0:
322,215,68614,2,0,P|316:248|328:281,1,62.5,10|0,0:0|0:0,0:0:0:0:
369,343,68864,2,0,B|324:353|324:353|303:376|303:376|249:386,2,125,2|0|10,1:2|1:2|0:0,0:0:0:0:
445,312,69489,1,2,0:0:0:0:
403,236,69614,6,0,B|380:170|349:124|349:124|382:110|409:79,1,187.5,6|0,1:3|1:2,0:0:0:0:
427,11,70114,1,10,0:0:0:0:
271,56,70364,2,0,P|241:64|210:55,1,62.5,2|0,1:2|0:0,0:0:0:0:
139,15,70614,2,0,L|133:77,1,62.5,2|0,1:2|0:0,0:0:0:0:
82,140,70863,2,0,L|88:202,1,62.5,10|0,0:0|0:0,0:0:0:0:
175,205,71113,6,0,B|156:222|132:234|132:234|151:317,1,125,2|2,1:0|1:1,0:0:0:0:
202,373,71489,1,0,1:2:0:0:
202,373,71614,1,10,0:1:0:0:
361,339,71864,2,0,P|379:297|359:255,1,93.75,4|0,1:3|0:0,0:0:0:0:
326,234,72114,2,0,L|317:168,1,62.5,0|0,1:1|0:0,0:0:0:0:
337,92,72364,2,0,P|302:87|271:102,1,62.5,8|0,0:1|0:0,0:0:0:0:
225,27,72614,6,0,B|209:24|195:12|195:12|160:27|151:66|176:98,1,125,4|0,1:0|1:2,0:0:0:0:
190,170,72989,1,2,1:2:0:0:
190,170,73114,2,0,L|184:236,1,62.5,10|0,0:0|0:0,0:0:0:0:
177,313,73364,1,0,1:2:0:0:
335,347,73614,2,0,P|374:349|398:331,1,62.5,0|0,1:2|0:0,0:0:0:0:
459,384,73864,2,0,P|480:350|477:321,1,62.5,8|0,0:0|0:0,0:0:0:0:
440,250,74114,6,0,B|450:176|450:176|481:153|481:153|491:76,1,187.5,2|0,1:0|1:2,0:0:0:0:
451,8,74614,1,10,0:0:0:0:
315,96,74864,2,0,L|248:86,1,62.5,2|0,1:2|0:0,0:0:0:0:
182,126,75114,2,0,L|114:135,1,62.5,2|0,1:2|0:0,0:0:0:0:
41,112,75364,2,0,P|34:142|44:171,1,62.5,10|0,0:0|0:0,0:0:0:0:
79,252,75614,6,0,B|133:277|172:246|148:215|206:188|251:217,1,187.5,6|0,1:3|1:2,0:0:0:0:
323,241,76114,1,10,0:0:0:0:
414,375,76364,2,0,L|423:306,1,62.5,2|0,1:2|0:0,0:0:0:0:
485,261,76614,2,0,L|476:192,1,62.5,2|0,1:2|0:0,0:0:0:0:
411,149,76864,2,0,L|420:80,1,62.5,10|0,0:0|0:0,0:0:0:0:
434,0,77114,5,2,1:0:0:0:
289,61,77364,1,2,1:2:0:0:
289,61,77489,1,0,1:2:0:0:
222,14,77614,2,0,B|212:27|195:38|195:38|211:110,1,93.75,10|0,0:0|0:0,0:0:0:0:
215,134,77864,1,2,1:2:0:0:
261,288,78113,2,0,P|222:296|196:283,1,62.5,2|0,1:2|0:0,0:0:0:0:
146,346,78363,2,0,P|119:316|117:287,1,62.5,10|0,0:0|0:0,0:0:0:0:
28,293,78614,6,0,B|11:260|28:224|49:244|59:203|43:173,1,125,6|0,1:0|1:2,0:0:0:0:
20,104,78989,1,0,1:2:0:0:
20,104,79114,2,0,L|85:89,1,62.5,10|0,0:0|0:0,0:0:0:0:
158,64,79364,1,0,1:2:0:0:
274,176,79614,2,0,B|340:161|340:161|372:117|372:117|439:101,1,187.5,2|0,1:2|0:0,0:0:0:0:
483,35,80114,6,0,P|522:87|498:148,1,125,2|0,1:0|1:2,0:0:0:0:
469,214,80488,1,0,1:2:0:0:
469,214,80613,1,8,0:0:0:0:
508,372,80864,2,0,L|441:365,1,62.5,2|0,1:2|0:0,0:0:0:0:
374,325,81114,2,0,L|307:318,1,62.5,2|0,1:2|0:0,0:0:0:0:
244,271,81364,2,0,L|177:264,1,62.5,10|0,0:0|0:0,0:0:0:0:
115,323,81614,5,6,1:3:0:0:
23,173,81864,2,0,B|86:143|86:143|52:269,1,187.5,2|0,1:2|0:0,0:0:0:0:
5,321,82364,2,0,P|39:313|66:321,1,62.5,0|0,1:2|0:0,0:0:0:0:
132,364,82613,2,0,P|167:372|193:364,1,62.5,0|0,1:2|0:0,0:0:0:0:
269,340,82864,1,8,0:0:0:0:
307,182,83114,6,0,B|322:164|353:157|378:170|378:170|394:203|427:203,1,125,2|2,1:0|1:2,0:0:0:0:
494,196,83489,2,0,B|505:151|505:151|494:122|494:122|510:69,1,125,2|2,1:2|0:0,0:0:0:0:
464,7,83864,2,0,P|430:0|404:8,1,62.5,4|2,1:3|0:0,0:0:0:0:
327,36,84114,2,0,L|337:99,1,62.5,2|2,1:2|0:0,0:0:0:0:
383,164,84364,2,0,L|373:227,1,62.5,10|2,0:0|0:0,0:0:0:0:
313,289,84614,6,0,B|259:264|220:295|244:326|186:353|141:324,1,187.5,6|8,1:0|0:0,0:0:0:0:
70,295,85114,1,0,1:2:0:0:
81,132,85364,2,0,P|118:124|143:133,1,62.5,2|2,1:2|0:0,0:0:0:0:
199,74,85614,2,0,P|224:102|229:128,1,62.5,2|2,1:2|1:2,0:0:0:0:
309,141,85864,2,0,P|297:177|277:194,1,62.5,10|2,0:0|0:0,0:0:0:0:
219,247,86114,6,0,B|259:248|284:233|284:233|302:257|335:272,1,125,2|2,1:2|1:2,0:0:0:0:
391,320,86489,1,10,0:0:0:0:
498,198,86739,1,0,0:0:0:0:
498,198,86864,2,0,L|491:134,1,62.5,2|2,1:2|0:0,0:0:0:0:
509,56,87114,2,0,P|478:50|441:65,1,62.5,10|2,0:0|0:0,0:0:0:0:
374,92,87364,2,0,P|343:98|306:83,1,62.5,2|10,1:2|0:0,0:0:0:0:
239,42,87614,5,6,0:0:0:0:
256,192,87676,12,0,90614,0:0:0:0:
116,340,99114,6,0,L|106:284,1,56.2499982833863,2|2,0:0|0:0,0:0:0:0:
59,229,99363,2,0,L|69:173,1,56.2499982833863,2|2,0:0|0:0,0:0:0:0:
119,101,99614,6,0,B|143:96|164:78|164:78|217:101|231:159|193:207,1,187.5,6|0,1:0|1:2,0:0:0:0:
167,264,100114,1,10,0:0:0:0:
318,322,100364,2,0,P|355:328|383:311,1,62.5,0|0,1:2|0:0,0:0:0:0:
442,364,100614,2,0,P|465:334|464:302,1,62.5,0|0,1:2|0:0,0:0:0:0:
435,236,100863,1,8,0:0:0:0:
508,75,101114,6,0,B|461:84|461:84|440:106|440:106|369:119,1,125,2|2,1:0|1:2,0:0:0:0:
326,159,101489,1,0,1:2:0:0:
326,159,101614,2,0,P|310:126|314:98,1,62.5,10|0,0:0|0:0,0:0:0:0:
296,20,101864,2,0,P|196:22|181:105,1,187.5,2|0,1:2|0:0,0:0:0:0:
215,165,102364,1,10,0:0:0:0:
40,152,102614,6,0,L|58:283,1,125,4|0,1:3|1:2,0:0:0:0:
108,346,102989,1,0,1:2:0:0:
108,346,103114,2,0,P|144:348|170:334,1,62.5,10|0,0:0|0:0,0:0:0:0:
236,293,103364,2,0,B|226:248|226:248|203:227|203:227|193:173,1,125,0|0,1:2|1:2,0:0:0:0:
177,104,103739,1,0,0:0:0:0:
177,104,103864,1,8,0:0:0:0:
332,151,104114,6,0,P|369:157|401:140,1,62.5,2|0,1:0|0:0,0:0:0:0:
467,119,104364,2,0,L|460:193,1,62.5,2|0,1:2|1:2,0:0:0:0:
449,258,104614,1,8,0:0:0:0:
342,381,104864,2,0,L|280:371,1,62.5,2|0,1:2|0:0,0:0:0:0:
213,324,105114,2,0,L|151:314,1,62.5,0|0,1:2|0:0,0:0:0:0:
92,258,105364,2,0,L|30:248,1,62.5,10|0,0:0|0:0,0:0:0:0:
5,164,105614,6,0,B|73:148|73:148|118:171|118:171|186:158,1,187.5,6|0,1:0|1:2,0:0:0:0:
264,141,106114,1,10,0:0:0:0:
364,13,106364,1,0,1:2:0:0:
507,89,106614,2,0,L|496:189,1,93.75,0|0,1:2|0:0,0:0:0:0:
488,222,106864,1,8,0:0:0:0:
361,343,107114,6,0,B|346:325|315:318|290:331|290:331|274:364|241:364,1,125,2|2,1:0|1:2,0:0:0:0:
179,360,107489,1,0,1:2:0:0:
179,360,107613,2,0,L|190:290,1,62.5,10|0,0:0|0:0,0:0:0:0:
118,254,107864,2,0,B|93:200|124:161|155:185|182:127|153:82,1,187.5,2|0,1:2|0:0,0:0:0:0:
116,15,108364,1,10,0:0:0:0:
273,91,108614,6,0,P|331:108|382:71,1,125,4|0,1:3|1:2,0:0:0:0:
455,37,108989,1,0,1:2:0:0:
455,37,109114,2,0,L|465:101,1,62.5,10|0,0:0|0:0,0:0:0:0:
408,158,109364,2,0,B|425:178|452:184|452:184|432:270,1,125,0|0,1:2|1:2,0:0:0:0:
415,337,109739,1,0,0:0:0:0:
415,337,109863,1,8,0:0:0:0:
255,379,110114,6,0,L|245:312,1,62.5,2|0,1:0|0:0,0:0:0:0:
186,262,110364,2,0,L|196:195,1,62.5,2|0,1:2|1:2,0:0:0:0:
207,120,110613,1,10,0:0:0:0:
207,120,110739,1,0,0:0:0:0:
291,144,110864,2,0,B|324:161|360:144|340:123|381:113|411:129,1,125,2|0,1:2|1:2,0:0:0:0:
485,163,111239,1,0,0:0:0:0:
485,163,111364,2,0,L|476:232,1,62.5,10|0,0:0|0:0,0:0:0:0:
434,297,111614,6,0,B|368:278|368:278|341:244|341:244|267:223,1,178.124995243549,6|0,1:2|0:0,0:0:0:0:
203,204,112113,1,0,0:0:0:0:
64,135,112364,2,0,B|123:106|123:106|91:226,1,178.124995243549,10|0,0:0|0:0,0:0:0:0:
78,290,112864,1,2,0:0:0:0:
223,340,113114,6,0,B|244:365|288:375|324:357|324:357|346:310|393:310,1,178.124995243549,6|0,1:2|0:0,0:0:0:0:
448,329,113614,1,2,0:0:0:0:
499,183,113864,2,0,B|447:159|410:188|433:218|378:243|335:216,1,178.124995243549,10|0,0:0|0:0,0:0:0:0:
270,191,114363,1,2,0:0:0:0:
325,46,114614,5,6,1:2:0:0:
173,16,114864,2,0,L|182:83,1,59.3749984145165,2|0,0:0|0:0,0:0:0:0:
199,149,115114,1,2,0:0:0:0:
42,205,115364,5,10,0:0:0:0:
87,364,115614,1,2,1:2:0:0:
243,309,115863,1,2,1:2:0:0:
199,149,116114,5,6,1:2:0:0:
199,149,117364,1,4,0:3:0:0:
233,34,117614,6,0,B|276:14|307:38|288:63|334:85|370:62,1,150,4|2,1:2|0:0,0:0:0:0:
437,37,118114,1,2,0:0:0:0:
503,136,118364,2,0,B|476:165|449:172|449:172|484:303,1,200,2|2,1:2|0:0,0:0:0:0:
379,362,119114,2,0,P|331:376|284:342,2,100,2|2|2,1:2|0:0|0:0,0:0:0:0:
483,301,119864,2,0,L|444:155,1,150,2|0,1:2|0:0,0:0:0:0:
420,85,120364,1,0,1:2:0:0:
301,105,120614,6,0,B|278:111|257:130|257:130|245:108|218:96,2,100,2|2|2,1:2|0:0|0:0,0:0:0:0:
290,225,121364,2,0,B|267:231|246:250|246:250|234:228|207:216,2,100,2|2|2,1:2|0:0|0:0,0:0:0:0:
295,344,122114,2,0,B|259:328|241:294|241:294|209:323|176:333,1,150,2|0,1:2|0:0,0:0:0:0:
107,363,122613,1,2,0:0:0:0:
22,277,122864,1,2,1:2:0:0:
214,133,123364,1,0,1:2:0:0:
297,218,123614,6,0,B|349:206|349:206|375:170|375:170|429:158,1,150,6|2,1:2|0:0,0:0:0:0:
499,141,124114,1,2,0:0:0:0:
445,33,124364,2,0,B|421:4|372:-6|332:14|332:14|307:66|255:66,1,200,2|2,1:2|0:0,0:0:0:0:
193,150,125114,2,0,L|178:252,2,100,2|2|2,1:2|0:0|0:0,0:0:0:0:
159,34,125864,2,0,P|87:22|48:83,1,150,2|0,1:2|0:0,0:0:0:0:
26,151,126364,1,8,0:3:0:0:
97,247,126614,5,0,1:2:0:0:
45,355,126864,2,0,P|98:366|139:341,1,100,2|2,0:0|0:0,0:0:0:0:
85,235,127364,1,2,1:2:0:0:
195,281,127614,2,0,P|206:228|181:187,1,100,0|2,0:0|0:0,0:0:0:0:
112,82,128114,6,0,B|168:50|216:89|184:121|250:151|292:119,1,200,6|2,1:2|0:0,0:0:0:0:
398,74,128864,1,2,0:0:0:0:
422,191,129114,2,0,L|413:247,1,50,0|0,1:2|1:2,0:0:0:0:
398,314,129364,1,8,0:0:0:0:
233,292,129614,6,0,B|152:277|152:277|140:296|122:306,1,118.749996829033,4|0,1:0|0:0,0:0:0:0:
57,337,129989,1,0,1:2:0:0:
57,337,130114,2,0,L|43:275,1,59.3749984145165,8|0,0:0|0:0,0:0:0:0:
78,210,130364,2,0,B|95:177|78:141|57:157|44:117|63:90,1,118.749996829033,4|0,1:3|1:2,0:0:0:0:
174,0,130864,1,8,0:0:0:0:
281,126,131114,6,0,B|347:107|347:107|374:73|374:73|448:52,1,178.124995243549,2|0,1:2|1:2,0:0:0:0:
512,34,131614,1,8,0:0:0:0:
448,174,131864,1,4,1:3:0:0:
507,316,132114,2,0,P|473:326|443:313,1,59.3749984145165,0|0,1:2|0:0,0:0:0:0:
382,284,132364,1,8,0:0:0:0:
242,351,132614,6,0,B|227:368|198:374|174:362|174:362|159:331|128:331,1,118.749996829033,4|0,1:0|0:0,0:0:0:0:
65,339,132989,1,0,1:2:0:0:
65,339,133114,1,8,0:0:0:0:
12,193,133364,2,0,B|46:187|72:198|72:198|92:168|121:148,1,118.749996829033,4|0,1:3|1:2,0:0:0:0:
218,46,133863,1,8,0:0:0:0:
301,190,134114,6,0,B|279:274|279:274|298:287|307:307,1,118.749996829033,0|0,1:2|0:0,0:0:0:0:
352,362,134489,1,0,1:2:0:0:
352,362,134614,1,8,0:0:0:0:
488,289,134864,2,0,L|478:228,1,59.3749984145165,4|0,1:3|0:0,0:0:0:0:
428,171,135114,2,0,L|438:110,1,59.3749984145165,0|0,1:2|0:0,0:0:0:0:
452,39,135364,1,8,0:0:0:0:
452,39,135489,1,8,0:3:0:0:
371,62,135614,6,0,B|321:84|286:57|308:28|256:5|215:30,1,168.749994850159,6|2,1:2|1:2,0:0:0:0:
156,64,136113,1,2,0:0:0:0:
28,19,136364,2,0,L|35:81,1,56.2499982833863,8|0,0:0|0:0,0:0:0:0:
72,137,136614,2,0,L|65:199,1,56.2499982833863
55,265,136864,1,10,0:3:0:0:
176,346,137114,5,2,1:2:0:0:
296,263,137364,2,0,P|326:256|355:267,1,56.2499982833863,2|0,0:0|1:2,0:0:0:0:
399,317,137614,1,2,0:0:0:0:
508,237,137864,2,0,B|503:200|503:200|475:176|475:176|472:134,1,112.499996566773,10|2,0:0|1:2,0:0:0:0:
454,3,138364,1,8,1:3:0:0:
340,88,138614,6,0,B|308:82|283:93|283:93|264:64|237:45,1,112.499996566773,6|2,1:2|0:0,0:0:0:0:
189,7,138989,1,0,1:2:0:0:
189,7,139114,2,0,L|127:17,1,56.2499982833863,2|0,0:0|0:0,0:0:0:0:
61,31,139364,1,10,0:0:0:0:
127,148,139614,1,2,0:0:0:0:
34,245,139863,1,10,0:3:0:0:
109,370,140114,6,0,B|171:351|171:351|197:319|197:319|267:299,1,168.749994850159,2|0,1:2|1:2,0:0:0:0:
328,286,140614,1,2,0:0:0:0:
458,322,140864,2,0,P|464:293|451:264,1,56.2499982833863,10|2,0:0|0:0,0:0:0:0:
506,217,141114,2,0,P|483:197|452:194,1,56.2499982833863,2|2,1:2|0:0,0:0:0:0:
427,127,141364,2,0,P|398:136|380:162,1,56.2499982833863,10|2,0:3|0:0,0:0:0:0:
352,229,141614,6,0,B|303:251|268:223|289:195|237:171|197:197,1,168.749994850159,6|2,1:2|1:2,0:0:0:0:
139,233,142114,1,2,0:0:0:0:
104,90,142364,2,0,P|136:80|162:89,1,56.2499982833863,8|0,0:0|0:0,0:0:0:0:
228,104,142614,2,0,P|255:109|281:99,1,56.2499982833863
342,60,142864,1,10,0:3:0:0:
479,114,143114,6,0,B|461:138|436:151|436:151|475:263,1,168.749994850159,2|0,1:2|1:2,0:0:0:0:
501,323,143613,1,2,0:0:0:0:
372,362,143863,2,0,B|342:377|311:361|323:348|296:334|264:348,1,112.499996566773,10|2,0:0|1:2,0:0:0:0:
133,372,144364,1,8,1:3:0:0:
62,268,144614,6,0,B|40:190|40:190|58:180|70:156,1,112.499996566773,6|2,1:2|0:0,0:0:0:0:
115,112,144988,1,0,1:2:0:0:
115,112,145113,1,2,0:0:0:0:
222,194,145364,2,0,P|272:193|306:140,1,112.499996566773,10|2,0:0|1:2,0:0:0:0:
345,15,145864,1,10,0:3:0:0:
409,146,146114,6,0,B|427:134|440:113|440:113|491:116|520:161|503:213,1,168.749994850159,2|0,1:2|1:2,0:0:0:0:
502,270,146614,1,2,0:0:0:0:
402,377,146864,1,10,0:0:0:0:
256,358,147114,1,2,1:2:0:0:
111,337,147364,1,10,0:3:0:0:
34,189,147614,6,0,L|22:93,1,89.0624976217747,4|0,1:1|0:0,0:0:0:0:
16,62,147864,1,2,1:2:0:0:
157,0,148114,1,0,1:2:0:0:
277,96,148364,2,0,L|262:194,1,89.0624976217747,8|0,0:0|0:0,0:0:0:0:
253,221,148614,1,2,1:2:0:0:
379,309,148864,1,0,1:2:0:0:
497,210,149114,6,0,B|489:198|472:191|472:191|485:133,1,89.0624976217747,6|0,1:3|0:0,0:0:0:0:
491,96,149364,1,2,1:2:0:0:
344,46,149614,1,0,1:2:0:0:
195,5,149864,2,0,B|203:17|220:24|220:24|207:82,1,89.0624976217747,8|0,0:0|0:0,0:0:0:0:
198,117,150114,1,2,1:2:0:0:
341,173,150364,1,0,1:2:0:0:
482,234,150614,6,0,L|474:303,1,59.3749984145165,6|0,1:3|0:0,0:0:0:0:
414,340,150864,2,0,P|381:345|352:333,1,59.3749984145165,2|0,0:0|0:0,0:0:0:0:
284,307,151114,2,0,L|294:247,1,59.3749984145165,10|0,0:0|0:0,0:0:0:0:
274,167,151364,2,0,B|222:143|185:172|208:202|153:227|110:200,1,178.124995243549,2|0,1:2|0:0,0:0:0:0:
43,171,151864,1,10,0:0:0:0:
18,18,152114,6,0,B|61:31|61:31|77:52|77:52|124:69,1,118.749996829033,2|0,1:2|1:2,0:0:0:0:
200,91,152489,1,2,0:0:0:0:
200,91,152614,2,0,L|260:78,1,59.3749984145165,8|0,0:0|0:0,0:0:0:0:
328,33,152864,6,0,P|345:63|343:90,1,59.3749984145165,2|2,1:2|0:0,0:0:0:0:
420,120,153114,6,0,P|402:149|378:161,1,59.3749984145165,14|2,0:0|0:0,0:0:0:0:
391,243,153364,6,0,P|356:242|334:227,1,59.3749984145165,14|0,0:0|0:0,0:0:0:0:
261,194,153614,6,0,B|252:216|237:233|237:233|255:252|263:283,1,89.0624976217747,4|0,1:1|0:0,0:0:0:0:
264,308,153864,2,0,P|236:320|203:313,1,59.3749984145165,2|0,1:2|0:0,0:0:0:0:
131,304,154114,1,0,1:2:0:0:
38,170,154364,2,0,B|47:148|62:131|62:131|44:112|36:81,1,89.0624976217747,8|0,0:0|0:0,0:0:0:0:
23,59,154614,1,2,1:2:0:0:
172,19,154864,1,0,1:2:0:0:
294,112,155114,6,0,B|290:147|290:147|276:160|276:160|272:197,1,89.0624976217747,6|0,1:3|0:0,0:0:0:0:
268,233,155364,1,2,1:2:0:0:
393,323,155614,1,0,1:2:0:0:
511,223,155864,2,0,B|507:188|507:188|493:175|493:175|489:140,1,89.0624976217747,8|0,0:0|0:0,0:0:0:0:
484,101,156114,2,0,L|478:41,1,59.3749984145165,2|0,1:2|0:0,0:0:0:0:
395,27,156364,2,0,L|401:87,1,59.3749984145165,0|0,1:2|0:0,0:0:0:0:
399,169,156614,5,10,0:0:0:0:
215,123,156863,1,10,0:0:0:0:
215,123,157364,5,10,0:0:0:0:
399,169,157613,1,10,0:0:0:0:
399,169,158114,5,10,0:0:0:0:
215,123,158363,1,10,0:0:0:0:
215,123,158864,5,10,0:0:0:0:
399,169,159114,1,10,0:0:0:0:
364,319,159364,1,8,0:3:0:0:
210,255,159614,6,0,B|164:264|164:264|145:282|145:282|91:292,1,118.749996829033,6|2,1:0|1:2,0:0:0:0:
32,324,159989,1,0,1:2:0:0:
32,324,160114,2,0,P|20:289|28:261,1,59.3749984145165,8|0,0:0|0:0,0:0:0:0:
57,197,160364,1,2,1:2:0:0:
1,53,160614,2,0,P|32:42|62:52,1,59.3749984145165,2|0,1:2|0:0,0:0:0:0:
115,99,160864,1,10,0:0:0:0:
260,18,161114,6,0,B|311:-5|348:23|325:53|380:78|423:51,1,178.124995243549,2|0,1:0|1:2,0:0:0:0:
496,39,161614,2,0,L|489:105,1,59.3749984145165,8|0,0:0|0:0,0:0:0:0:
481,174,161863,1,2,1:2:0:0:
462,327,162114,1,2,1:2:0:0:
310,303,162363,1,10,0:0:0:0:
319,148,162614,6,0,B|273:160|273:160|255:179|255:179|208:191,1,118.749996829033,4|2,1:1|1:2,0:0:0:0:
135,203,162989,2,0,B|180:215|180:215|198:234|198:234|245:246,1,118.749996829033,4|0,1:3|1:2,0:0:0:0:
314,273,163364,1,4,1:3:0:0:
443,188,163614,1,4,1:3:0:0:
328,84,163864,1,4,1:3:0:0:
477,8,164114,5,12,0:0:0:0:
477,8,164239,2,0,L|486:74,1,59.3749984145165
465,141,164489,2,0,B|387:122|387:122|374:143|357:156,1,118.749996829033,2|2,1:2|1:2,0:0:0:0:
313,212,164864,1,2,1:2:0:0:
183,127,165114,2,0,L|191:193,1,59.3749984145165,2|0,1:2|0:0,0:0:0:0:
139,244,165364,2,0,L|131:310,1,59.3749984145165,10|10,0:3|0:3,0:0:0:0:
169,378,165614,5,6,0:0:0:0:
256,192,174614,12,8,176114,0:0:0:0:
256,192,177114,6,0,L|256:288,1,84.3749974250794,2|0,0:0|0:0,0:0:0:0:
254,313,177364,1,6,0:3:0:0:
84,356,177614,6,0,B|67:323|84:287|105:307|115:266|99:236,1,125,6|0,1:0|1:2,0:0:0:0:
57,176,177989,1,2,1:2:0:0:
57,176,178114,2,0,P|92:163|122:169,1,62.5,10|0,0:0|0:0,0:0:0:0:
193,208,178364,2,0,B|213:232|257:242|293:224|293:224|315:178|362:178,1,187.5,0|0,1:2|0:0,0:0:0:0:
432,194,178864,2,0,L|424:131,1,62.5,8|0,0:0|0:0,0:0:0:0:
377,58,179114,6,0,B|324:30|281:72|307:96|258:135|205:100,1,187.5,2|0,1:0|1:2,0:0:0:0:
143,65,179614,1,10,0:0:0:0:
46,195,179864,2,0,L|54:259,1,62.5,2|0,1:2|0:0,0:0:0:0:
31,335,180114,2,0,P|71:338|96:323,1,62.5,2|0,1:2|0:0,0:0:0:0:
159,286,180364,2,0,P|192:279|220:288,1,62.5,10|0,0:0|0:0,0:0:0:0:
298,326,180614,6,0,B|311:282|311:282|302:252|302:252|320:200,1,125,6|0,1:3|1:2,0:0:0:0:
337,130,180989,1,0,1:2:0:0:
337,130,181114,1,10,0:0:0:0:
484,62,181364,2,0,L|472:129,1,62.5,2|0,1:2|0:0,0:0:0:0:
434,195,181614,2,0,L|446:262,1,62.5,2|0,1:2|0:0,0:0:0:0:
456,336,181864,1,10,0:0:0:0:
283,367,182114,6,0,B|271:350|248:340|248:340|266:259,1,125,2|0,1:0|1:2,0:0:0:0:
304,193,182489,1,0,1:2:0:0:
304,193,182614,2,0,L|289:122,1,62.5,8|0,0:0|0:0,0:0:0:0:
357,74,182864,2,0,P|318:86|277:58,1,93.75,0|0,1:2|0:0,0:0:0:0:
252,26,183114,2,0,L|189:37,1,62.5,2|0,1:2|0:0,0:0:0:0:
133,95,183364,2,0,P|96:97|75:83,1,62.5,10|0,0:0|0:0,0:0:0:0:
15,19,183614,6,0,B|35:38|54:46|54:46|33:127,1,125,6|0,1:0|1:2,0:0:0:0:
11,201,183989,1,2,1:2:0:0:
11,201,184114,2,0,L|18:271,1,62.5,10|0,0:0|0:0,0:0:0:0:
24,344,184363,1,0,1:2:0:0:
165,263,184614,2,0,B|191:261|210:250|210:250|227:270|252:281,1,93.75,0|0,1:2|0:0,0:0:0:0:
278,309,184864,2,0,P|309:312|338:297,1,62.5,8|0,0:0|0:0,0:0:0:0:
407,247,185114,5,2,1:0:0:0:
407,247,185239,1,0,0:0:0:0:
351,187,185364,2,0,B|325:144|325:144|347:104,1,93.75,0|0,1:2|0:0,0:0:0:0:
366,70,185614,1,10,0:0:0:0:
197,22,185864,2,0,B|152:0|152:0|105:19|81:68|115:113,1,187.5,2|0,1:2|0:0,0:0:0:0:
164,181,186364,1,10,0:0:0:0:
164,181,186489,1,2,0:0:0:0:
124,259,186614,6,0,B|136:193|193:173|232:191|232:191|237:215|259:233,1,187.5,6|0,1:3|1:2,0:0:0:0:
309,281,187114,1,10,0:0:0:0:
451,359,187364,2,0,P|457:327|443:297,1,62.5,2|0,1:2|0:0,0:0:0:0:
503,241,187614,2,0,P|478:219|445:216,1,62.5,2|0,1:2|0:0,0:0:0:0:
432,135,187864,2,0,P|401:145|382:172,1,62.5,10|0,0:0|0:0,0:0:0:0:
358,251,188114,6,0,B|322:236|289:251|309:272|272:286|238:266,1,125,2|2,1:0|1:1,0:0:0:0:
172,236,188489,1,0,1:2:0:0:
172,236,188614,2,0,L|103:250,1,62.5,10|0,0:1|0:0,0:0:0:0:
33,205,188864,2,0,B|46:187|60:180|60:180|45:125,1,93.75,4|0,1:3|0:0,0:0:0:0:
35,85,189114,2,0,P|68:74|94:82,1,62.5,0|0,1:1|0:0,0:0:0:0:
173,116,189364,1,8,0:1:0:0:
173,116,189489,1,0,0:0:0:0:
243,64,189614,6,0,B|286:78|286:78|305:103|305:103|358:118,1,125,4|0,1:0|1:2,0:0:0:0:
435,103,189989,1,2,1:2:0:0:
435,103,190114,2,0,P|435:138|418:168,1,62.5,10|0,0:0|0:0,0:0:0:0:
376,228,190363,1,0,1:2:0:0:
458,368,190614,2,0,L|391:358,1,62.5,0|0,1:2|0:0,0:0:0:0:
316,345,190864,1,8,0:0:0:0:
255,194,191114,6,0,B|137:162|137:162|115:192|88:212,1,187.5,2|0,1:0|1:2,0:0:0:0:
31,264,191614,1,10,0:0:0:0:
147,375,191864,2,0,L|209:365,1,62.5,2|0,1:2|0:0,0:0:0:0:
271,314,192113,2,0,L|333:324,1,62.5,2|0,1:2|0:0,0:0:0:0:
407,357,192364,2,0,P|418:326|406:293,1,62.5,10|0,0:0|0:0,0:0:0:0:
350,233,192614,6,0,B|375:205|401:198|401:198|368:72,1,187.5,6|0,1:3|1:2,0:0:0:0:
335,3,193114,1,10,0:0:0:0:
214,112,193364,2,0,P|182:119|153:106,1,62.5,2|0,1:2|0:0,0:0:0:0:
78,82,193614,2,0,L|86:157,1,62.5,2|0,1:2|0:0,0:0:0:0:
132,210,193864,2,0,L|124:285,1,62.5,10|0,0:0|0:0,0:0:0:0:
115,353,194114,5,2,1:0:0:0:
276,336,194363,2,0,B|309:319|345:336|325:357|366:367|396:351,1,125,2|10,1:2|0:0,0:0:0:0:
493,223,194864,1,2,1:2:0:0:
392,79,195114,2,0,B|374:166|374:166|393:176|410:203,1,125,2|10,1:2|0:0,0:0:0:0:
312,354,195613,6,0,B|258:379|219:348|243:317|185:290|140:319,1,187.5,6|0,1:0|1:2,0:0:0:0:
67,342,196114,1,10,0:0:0:0:
7,190,196364,1,0,1:2:0:0:
109,47,196614,2,0,L|238:74,1,125,2|8,1:2|0:0,0:0:0:0:
310,93,196989,1,0,0:0:0:0:
357,19,197114,6,0,B|370:63|370:63|361:93|361:93|379:145,1,125,2|0,1:0|1:2,0:0:0:0:
418,213,197489,1,0,1:2:0:0:
418,213,197614,1,8,0:0:0:0:
319,339,197864,2,0,P|285:346|257:334,1,62.5,2|0,1:2|0:0,0:0:0:0:
191,380,198114,2,0,P|167:354|164:323,1,62.5,2|0,1:2|0:0,0:0:0:0:
85,307,198364,2,0,P|95:274|120:255,1,62.5,10|0,0:0|0:0,0:0:0:0:
204,227,198614,5,6,1:3:0:0:
204,227,198739,1,0,0:0:0:0:
276,190,198864,2,0,B|293:157|276:121|255:141|245:100|261:70,1,125,2|8,1:2|0:0,0:0:0:0:
412,19,199364,2,0,P|444:64|421:126,1,125,0|0,1:2|1:2,0:0:0:0:
367,185,199739,1,0,0:0:0:0:
367,185,199863,1,8,0:0:0:0:
410,342,200114,6,0,L|343:332,1,62.5,2|0,1:0|0:0,0:0:0:0:
280,287,200364,2,0,L|213:297,1,62.5,0|0,1:2|1:2,0:0:0:0:
138,310,200614,1,10,0:0:0:0:
38,181,200864,2,0,P|28:144|38:117,1,62.5,2|0,1:2|0:0,0:0:0:0:
77,52,201114,2,0,L|142:61,1,62.5,2|0,1:2|0:0,0:0:0:0:
210,101,201364,2,0,P|243:107|276:89,1,62.5,10|0,0:0|0:0,0:0:0:0:
350,49,201614,5,6,1:0:0:0:
256,192,201676,12,2,204614,0:1:0:0:
