osu file format v14

[General]
AudioFilename: audio.mp3
AudioLeadIn: 0
PreviewTime: 51357
Countdown: 1
SampleSet: Soft
StackLeniency: 0.7
Mode: 0
LetterboxInBreaks: 0
WidescreenStoryboard: 1

[Editor]
DistanceSpacing: 1.1
BeatDivisor: 4
GridSize: 16
TimelineZoom: 1.6

[Metadata]
Title:Akatsuki (TV Size)
TitleUnicode:暁 (TV Size)
Artist:Shikata Akiko
ArtistUnicode:志方あきこ
Creator:-Arche
Version:Dawn
Source:暁のヨナ
Tags:Kalibe Scub Domino natsume shiki jungkyuyoung anime girl no yona of the dawn ending ed 2 folk japanese
BeatmapID:2570784
BeatmapSetID:1236787

[Difficulty]
HPDrainRate:6
CircleSize:5.5
OverallDifficulty:8
ApproachRate:8.6
SliderMultiplier:1.9
SliderTickRate:1

[Events]
//Background and Video events
0,0,"ok.jpg",0,0
//Break Periods
//Storyboard Layer 0 (Background)
//Storyboard Layer 1 (Fail)
//Storyboard Layer 2 (Pass)
//Storyboard Layer 3 (Foreground)
//Storyboard Layer 4 (Overlay)
//Storyboard Sound Samples

[TimingPoints]
304,566.037735849057,4,2,1,30,1,0
304,-142.857142857143,4,2,1,30,0,0
870,526.315789473684,4,2,1,30,1,0
870,-142.857142857143,4,2,1,30,0,0
2448,500,4,2,1,30,1,0
2698,625,4,2,1,30,1,0
3003,465.116279069767,4,2,1,30,1,0
3003,-142.857142857143,4,2,1,30,0,0
3234,652.173913043478,4,2,1,30,1,0
3558,501.672240802676,4,2,1,20,1,0
3558,-200,4,2,1,20,0,0
4561,480,4,2,1,20,1,0
4561,-125,4,2,1,20,0,0
4921,-125,4,2,1,5,0,0
5041,536.672629695886,4,2,1,35,1,0
5041,-142.857142857143,4,2,1,35,0,0
5577,-100,4,2,1,35,0,0
6114,524.9343832021,4,2,1,20,1,0
6638,-100,4,2,1,40,0,0
7689,472.44094488189,4,2,1,40,1,0
8633,521.739130434783,4,2,1,60,1,0
8633,-100,4,2,1,60,0,0
13198,-100,4,2,1,5,0,0
13328,-100,4,2,1,60,0,0
15937,612.244897959184,4,2,1,50,1,0
15937,-100,4,2,1,50,0,0
16396,-100,4,2,1,5,0,0
16548,505.47598989048,4,2,1,40,1,0
16548,-333.333333333333,4,2,1,40,0,0
17053,505.47598989048,4,2,1,5,1,0
18443,-100,4,2,1,5,0,0
18569,-100,4,2,1,50,0,0
19074,-100,4,2,1,35,0,0
21097,566.037735849057,4,2,1,30,1,0
21663,-166.666666666667,4,2,1,30,0,0
22795,526.315789473684,4,2,1,30,1,0
22795,-142.857142857143,4,2,1,30,0,0
23058,535.714285714286,4,2,1,30,1,0
23325,-121.951219512195,4,2,1,30,0,0
23459,515.021459227468,4,2,1,30,1,0
23716,-125,4,2,1,5,0,0
23845,515.021459227468,4,2,1,30,1,0
23845,-166.666666666667,4,2,1,30,0,0
24875,588.235294117647,4,2,1,30,1,0
25463,521.739130434783,4,2,1,35,1,0
25463,-142.857142857143,4,2,1,35,0,0
26245,566.037735849057,4,2,1,30,1,0
26245,-142.857142857143,4,2,1,30,0,0
26528,547.445255474453,4,2,1,30,1,0
27622,486.61800486618,4,2,1,30,1,0
27622,-166.666666666667,4,2,1,30,0,0
27865,-166.666666666667,4,2,1,5,0,0
27986,-166.666666666667,4,2,1,30,0,0
28473,-166.666666666667,4,2,1,5,0,0
28595,-142.857142857143,4,2,1,30,0,0
29568,537.15308863026,4,2,1,45,1,0
29568,-125,4,2,1,45,0,0
29970,-125,4,2,1,5,0,0
30105,-125,4,2,1,45,0,0
31716,550.45871559633,4,2,1,40,1,0
31716,-142.857142857143,4,2,1,40,0,0
32816,483.870967741935,4,2,1,40,1,0
32816,-166.666666666667,4,2,1,40,0,0
33662,-166.666666666667,4,2,1,5,0,0
33784,550.45871559633,4,2,1,40,1,0
33784,-142.857142857143,4,2,1,40,0,0
34334,487.80487804878,4,2,1,40,1,0
34821,518.134715025907,4,2,1,40,1,0
34821,-166.666666666667,4,2,1,40,0,0
35209,-166.666666666667,4,2,1,5,0,0
35339,-90.9090909090909,4,2,1,35,0,0
35468,-90.9090909090909,4,2,1,5,0,0
35598,-166.666666666667,4,2,1,35,0,0
35857,518.134715025907,4,2,1,5,1,0
35986,-250,4,2,1,45,0,0
38188,-250,4,2,1,5,0,0
38965,-125,4,2,1,40,0,0
40001,521.739130434783,4,2,1,40,1,0
40001,-125,4,2,1,40,0,0
42087,545.454545454546,4,2,1,40,1,0
42087,-142.857142857143,4,2,1,40,0,0
42905,662.983425414365,4,2,1,40,1,0
43236,512.820512820513,4,2,1,40,1,0
43236,-125,4,2,1,40,0,0
43621,500,4,2,1,40,1,0
44121,550.45871559633,4,2,1,40,1,0
44121,-142.857142857143,4,2,1,40,0,0
44946,659.340659340659,4,2,1,40,1,0
45165,-129.87012987013,4,2,1,40,0,0
45276,461.538461538462,4,2,1,40,1,0
45737,512.820512820513,4,2,1,40,1,0
46250,535.714285714286,4,2,1,40,1,0
46250,-142.857142857143,4,2,1,40,0,0
47321,521.739130434783,4,2,1,40,1,0
47712,-100,4,2,1,5,0,0
47842,-111.111111111111,4,2,1,30,0,0
48362,526.315789473684,4,2,1,20,1,0
48362,-100,4,2,1,45,0,0
49414,485.82995951417,4,2,1,50,1,0
51357,533.333333333333,4,2,1,40,1,0
51357,-125,4,2,1,40,0,0
51823,-125,4,2,1,5,0,0
51890,-125,4,2,1,40,0,0
52290,-125,4,2,1,5,0,0
52423,508.560773012375,4,2,1,65,1,0
52423,-100,4,2,1,65,0,0
54457,-83.3333333333333,4,2,1,65,0,0
54965,-100,4,2,1,65,0,0
58525,-83.3333333333333,4,2,1,65,0,0
59034,-100,4,2,1,65,0,0
72765,-100,4,2,1,65,0,0
72892,-100,4,2,1,65,0,0
74291,-100,4,2,1,65,0,0
74799,-100,4,2,1,65,0,0
80902,-100,4,2,1,65,0,0
81029,-100,4,2,1,65,0,0
83953,-100,4,2,1,50,0,0
84462,-100,4,2,1,40,0,0
84970,528.63436123348,4,2,1,30,1,0
84970,-100,4,2,1,30,0,0
87084,508.474576271186,4,2,1,60,1,0
88612,428.571428571429,4,2,1,60,1,0
88933,-100,4,2,1,5,0,0
89038,508.474576271186,4,2,1,5,1,0

[Colours]
Combo1 : 130,207,244
Combo2 : 238,164,164
Combo3 : 242,188,115
Combo4 : 138,244,213

[HitObjects]
70,238,304,6,0,P|98:222|156:227,1,66.4999979705811,0|0,2:0|2:0,0:0:0:0:
199,265,870,2,0,P|159:205|206:160,1,132.999995941162,4|0,2:0|0:0,0:0:0:0:
353,87,1659,1,0,2:0:0:0:
413,130,1922,6,0,P|348:119|257:110,1,132.999995941162,4|4,2:0|2:0,0:0:0:0:
121,91,2698,1,0,2:0:0:0:
194,228,3003,6,0,P|198:195|190:164,1,66.4999979705811,0|0,2:3|2:0,0:0:0:0:
129,306,3558,6,0,P|202:293|285:286,1,142.5,2|0,2:0|0:0,0:0:0:0:
369,380,4561,6,0,P|341:329|366:281,1,114,8|0,2:3|0:0,0:0:0:0:
512,231,5041,2,0,P|463:217|414:215,1,99.7499969558717,2|0,2:0|0:0,0:0:0:0:
260,166,5577,2,0,P|305:153|352:150,1,95,8|0,2:1|0:0,0:0:0:0:
373,153,5980,1,0,0:0:0:0:
373,153,6114,1,2,2:0:0:0:
451,102,6376,1,0,0:0:0:0:
375,46,6638,5,4,2:3:0:0:
287,92,6901,1,0,2:0:0:0:
212,48,7163,1,0,2:0:0:0:
149,90,7426,1,0,2:0:0:0:
105,62,7688,5,2,2:0:0:0:
149,90,7846,5,2,2:0:0:0:
212,48,8003,5,2,2:0:0:0:
287,92,8161,5,2,2:0:0:0:
375,46,8318,5,2,2:0:0:0:
451,102,8476,5,2,2:0:0:0:
373,153,8633,6,0,P|352:192|354:245,1,95,4|2,1:0|2:0,0:0:0:0:
351,358,9154,2,0,P|327:320|280:295,1,95,2|0,2:3|2:3,0:0:0:0:
199,270,9676,1,8,3:2:0:0:
50,348,9937,1,2,2:0:0:0:
1,264,10198,2,0,P|4:197|19:112,1,142.5,2|0,2:3|0:0,0:0:0:0:
27,104,10719,5,12,3:2:0:0:
287,92,10980,1,2,2:0:0:0:
95,172,11241,1,2,2:3:0:0:
218,24,11502,1,0,2:3:0:0:
267,218,11763,5,8,3:2:0:0:
158,101,12024,1,2,2:0:0:0:
158,101,12154,1,2,2:0:0:0:
158,101,12285,1,2,2:3:0:0:
99,266,12546,1,2,2:0:0:0:
267,218,12806,6,0,B|353:222|311:282|416:279,1,142.5,12|0,3:2|0:0,0:0:0:0:
512,263,13328,2,0,P|468:290|461:348,1,95,2|0,2:3|2:3,0:0:0:0:
512,384,13850,1,8,3:2:0:0:
398,193,14111,1,2,2:0:0:0:
398,193,14241,1,2,2:0:0:0:
398,193,14371,1,2,2:3:0:0:
268,296,14633,1,0,2:3:0:0:
139,251,14893,6,0,P|142:202|151:143,1,95,8|2,3:2|2:0,0:0:0:0:
261,79,15415,1,2,2:3:0:0:
32,104,15676,1,0,2:3:0:0:
139,251,15937,6,0,B|224:245|185:310|280:294,1,142.5,8|0,3:2|0:0,0:0:0:0:
335,248,16549,6,0,P|298:292|395:294,1,213.749993476868,4|0,2:0|0:0,0:0:0:0:
256,192,18569,12,0,20970,0:0:0:0:
128,68,21097,5,2,2:0:0:0:
128,68,21191,1,2,2:0:0:0:
128,68,21285,1,8,2:3:0:0:
273,113,21663,6,0,P|218:120|177:141,1,85.4999973907472,0|0,0:0|0:0,0:0:0:0:
125,198,22229,1,2,2:0:0:0:
125,198,22323,1,2,2:0:0:0:
125,198,22417,1,8,2:0:0:0:
30,72,22795,6,0,P|49:99|61:130,1,66.4999979705811,0|0,0:0|0:0,0:0:0:0:
44,247,23236,1,2,2:0:0:0:
54,257,23325,2,0,B|121:250|95:297|197:287,1,114,2|0,2:0|2:0,0:0:0:0:
218,238,23845,2,0,P|200:298|215:366,1,113.999996520996,0|0,2:0|0:0,0:0:0:0:
491,129,24875,5,0,0:0:0:0:
390,283,25169,1,0,0:0:0:0:
306,167,25365,1,2,2:0:0:0:
295,178,25463,2,0,P|238:169|153:180,1,132.999995941162,2|0,2:0|0:0,0:0:0:0:
87,255,26245,6,0,P|95:236|93:196,1,33.2499989852906,0|0,0:0|0:0,0:0:0:0:
54,164,26528,2,0,P|48:108|59:65,1,95,2|0,2:0|0:0,0:0:0:0:
126,0,27075,6,0,P|171:33|214:45,1,95,2|0,2:0|0:0,0:0:0:0:
312,29,27531,1,0,0:0:0:0:
300,42,27622,2,0,P|296:83|300:119,1,56.9999982604981,4|2,2:3|2:0,0:0:0:0:
235,164,27986,2,0,P|282:171|338:233,1,113.999996520996,0|0,0:0|0:0,0:0:0:0:
399,273,28595,2,0,P|361:287|332:315,1,66.4999979705811,0|0,0:0|0:0,0:0:0:0:
303,372,29081,5,0,0:0:0:0:
196,316,29325,1,0,0:0:0:0:
90,366,29568,2,0,P|83:302|87:239,1,114,4|0,2:0|0:0,0:0:0:0:
166,208,30105,2,0,P|128:182|116:134,1,76,0|0,2:0|0:0,0:0:0:0:
56,98,30642,2,0,P|88:66|91:16,1,76,6|0,2:0|0:0,0:0:0:0:
24,0,31179,1,2,2:3:0:0:
37,175,31448,1,2,2:0:0:0:
195,125,31716,6,0,B|313:117|248:200|392:185,1,199.499993911743,8|2,2:3|2:0,0:0:0:0:
490,172,32816,2,0,P|503:91|428:122,1,199.499993911743,8|0,2:0|0:0,0:0:0:0:
446,242,33784,6,0,P|446:303|429:403,1,132.999995941162,8|2,2:3|2:0,0:0:0:0:
230,340,34821,2,0,P|259:306|305:298,1,85.4999973907472,4|0,2:3|0:0,0:0:0:0:
317,306,35339,2,0,P|319:277|324:241,1,52.2500015945435,2|0,2:0|0:0,0:0:0:0:
355,176,35598,2,0,P|351:136|340:96,1,56.9999982604981,6|0,2:0|0:0,0:0:0:0:
223,50,35986,6,0,B|155:82|121:140|143:224|207:271|289:209|275:154|228:140,1,323,8|0,2:1|0:0,0:0:0:0:
22,267,38965,6,0,P|105:266|196:300,1,152,4|0,2:0|0:0,0:0:0:0:
244,365,40001,6,0,P|290:338|340:329,1,76,4|0,2:0|0:0,0:0:0:0:
448,328,40522,2,0,P|401:301|368:262,1,76,2|0,2:0|0:0,0:0:0:0:
400,201,41044,2,0,P|411:159|397:65,1,114,8|0,2:0|0:0,0:0:0:0:
393,64,41566,1,0,2:0:0:0:
272,133,41827,1,2,2:0:0:0:
202,72,42087,6,0,P|118:77|162:148,1,199.499993911743,6|2,2:0|2:0,0:0:0:0:
311,232,43236,2,0,B|251:234|269:272|189:269,1,114,8|2,2:0|2:0,0:0:0:0:
51,383,44121,6,0,P|65:349|63:290,1,66.4999979705811,4|0,2:0|0:0,0:0:0:0:
128,270,44671,2,0,P|114:236|116:177,1,66.4999979705811,2|0,2:0|0:0,0:0:0:0:
137,112,45165,2,0,P|103:126|44:124,1,76,8|0,2:0|0:0,0:0:0:0:
9,71,45737,1,2,2:0:0:0:
168,38,45993,5,0,0:0:0:0:
168,38,46121,1,0,0:0:0:0:
168,38,46250,2,0,P|236:32|311:33,1,132.999995941162,4|0,2:0|0:0,0:0:0:0:
418,120,47053,1,2,2:0:0:0:
334,110,47321,2,0,P|315:66|400:76,1,142.5,2|0,2:0|0:0,0:0:0:0:
418,120,47842,6,0,P|411:185|420:256,1,128.249996086121,0|0,2:0|0:0,0:0:0:0:
427,268,48362,1,4,2:0:0:0:
282,185,48625,1,0,2:0:0:0:
220,265,48888,1,0,2:0:0:0:
375,186,49151,1,0,2:0:0:0:
229,100,49414,5,2,2:0:0:0:
127,278,49656,1,2,2:3:0:0:
127,278,49778,1,0,2:0:0:0:
127,278,49899,1,2,2:1:0:0:
282,185,50142,1,2,2:0:0:0:
262,340,50385,5,4,1:2:0:0:
220,265,50547,5,2,2:0:0:0:
282,185,50709,5,2,2:0:0:0:
229,100,50871,5,8,2:0:0:0:
288,53,51033,5,2,2:0:0:0:
248,0,51195,5,2,2:0:0:0:
288,53,51357,6,0,P|331:72|294:33,1,133,12|0,2:0|0:0,0:0:0:0:
193,39,51890,6,0,P|161:78|189:161,1,114,0|0,2:0|0:0,0:0:0:0:
282,185,52423,6,0,P|217:202|260:280,1,142.5,4|2,1:0|2:1,0:0:0:0:
304,324,52931,1,2,3:2:0:0:
128,216,53185,1,2,2:1:0:0:
31,326,53440,6,0,P|87:310|155:314,1,95,8|2,3:2|2:1,0:0:0:0:
142,326,53821,1,2,2:3:0:0:
142,326,53948,2,0,P|147:351|148:378,1,47.5,2|0,3:2|2:0,0:0:0:0:
304,324,54202,2,0,P|300:347|298:371,1,47.5,2|0,2:3|2:0,0:0:0:0:
223,265,54457,6,0,P|223:198|218:116,1,113.999996520996,4|2,3:2|2:1,0:0:0:0:
204,126,54838,1,0,2:3:0:0:
204,126,54965,1,2,3:2:0:0:
392,152,55220,1,2,2:1:0:0:
392,152,55347,1,0,2:0:0:0:
392,152,55474,6,0,P|346:180|324:232,1,95,8|2,3:2|2:0,0:0:0:0:
223,265,55982,2,0,P|277:275|306:318,1,95,0|2,3:2|2:0,0:0:0:0:
409,379,56364,1,0,2:0:0:0:
423,382,56491,2,0,P|413:313|419:195,1,142.5,8|2,1:3|2:1,0:0:0:0:
493,182,57000,1,2,3:2:0:0:
323,79,57254,6,0,P|372:71|393:63,1,47.5,2|0,2:1|2:0,0:0:0:0:
487,25,57508,2,0,P|469:71|465:93,1,47.5,8|0,3:2|2:0,0:0:0:0:
493,182,57762,2,0,P|446:164|424:160,1,47.5,2|2,2:1|2:3,0:0:0:0:
327,215,58017,2,0,P|280:232|258:236,1,47.5,2|0,3:2|2:0,0:0:0:0:
163,163,58271,2,0,P|212:170|233:178,1,47.5,2|0,2:3|2:0,0:0:0:0:
82,256,58525,6,0,P|82:189|87:107,1,113.999996520996,8|2,3:1|2:1,0:0:0:0:
101,117,58906,1,0,2:3:0:0:
101,117,59033,1,8,3:0:0:0:
233,304,59288,5,2,2:1:0:0:
233,304,59415,1,0,2:0:0:0:
233,304,59542,2,0,B|316:295|295:349|382:333,1,142.5,4|8,3:0|2:0,0:0:0:0:
473,368,60051,2,0,P|456:300|470:228,1,142.5,0|0,3:2|2:0,0:0:0:0:
505,155,60559,5,4,1:0:0:0:
282,76,60814,1,0,2:0:0:0:
282,76,60941,1,2,2:1:0:0:
282,76,61068,2,0,P|342:70|357:73,1,47.5,2|0,3:2|2:0,0:0:0:0:
224,160,61322,2,0,P|169:135|157:125,1,47.5,2|0,2:1|2:0,0:0:0:0:
71,31,61577,2,0,P|88:49|101:68,1,47.5,8|0,3:2|2:0,0:0:0:0:
78,173,61831,2,0,P|61:191|48:210,1,47.5,2|2,2:1|2:3,0:0:0:0:
190,377,62085,6,0,P|185:316|149:227,1,142.5,2|0,3:2|2:0,0:0:0:0:
78,173,62594,1,4,3:2:0:0:
252,283,62848,5,2,2:1:0:0:
252,283,62975,1,0,2:3:0:0:
252,283,63102,2,0,P|322:281|329:277,1,47.5,2|0,3:2|2:0,0:0:0:0:
498,241,63357,2,0,P|474:238|451:242,1,47.5,2|0,2:1|2:0,0:0:0:0:
387,363,63611,2,0,P|399:342|405:319,1,47.5,8|0,3:2|2:0,0:0:0:0:
398,167,63865,2,0,P|387:145|383:122,1,47.5,2|2,2:1|2:3,0:0:0:0:
496,18,64119,2,0,P|499:75|480:163,1,142.5,2|2,3:2|2:0,0:0:0:0:
369,245,64628,5,8,1:0:0:0:
264,52,64882,1,2,2:0:0:0:
264,52,65009,1,0,2:0:0:0:
264,52,65137,1,8,3:2:0:0:
243,288,65391,1,2,2:1:0:0:
398,167,65645,5,2,3:2:0:0:
162,242,65899,1,2,2:1:0:0:
162,242,66027,1,2,2:3:0:0:
162,242,66154,1,2,3:2:0:0:
404,319,66408,1,2,2:3:0:0:
315,329,66662,6,0,P|308:255|313:181,1,142.5,4|0,1:0|2:3,0:0:0:0:
332,108,67171,1,8,3:0:0:0:
451,241,67425,1,2,2:1:0:0:
252,133,67679,1,4,3:0:0:0:
162,242,67934,1,2,2:0:0:0:
162,242,68061,1,8,2:0:0:0:
162,242,68188,2,0,P|166:272|170:306,1,47.5,0|0,3:2|2:0,0:0:0:0:
231,384,68442,2,0,P|235:360|239:319,1,47.5,2|0,2:0|2:0,0:0:0:0:
309,242,68696,6,0,P|357:234|469:246,1,142.5,4|0,3:2|2:3,0:0:0:0:
497,313,69205,1,2,3:2:0:0:
512,147,69459,1,2,2:1:0:0:
330,347,69714,6,0,P|283:349|233:335,1,95,8|2,3:2|2:0,0:0:0:0:
162,242,70095,1,8,2:0:0:0:
170,235,70222,2,0,P|196:199|208:144,1,95,0|2,3:2|2:0,0:0:0:0:
134,20,70731,6,0,P|112:94|124:180,1,142.5,8|2,1:3|2:1,0:0:0:0:
170,235,71239,1,2,3:2:0:0:
274,93,71494,1,2,2:1:0:0:
385,237,71748,6,0,P|347:208|308:200,1,47.5,8|0,3:2|2:0,0:0:0:0:
213,217,72002,2,0,P|192:228|170:235,1,47.5,2|2,2:1|2:3,0:0:0:0:
0,206,72257,2,0,P|23:206|46:212,1,47.5,2|0,3:2|2:0,0:0:0:0:
75,361,72511,2,0,P|75:337|81:314,1,47.5,2|0,2:1|2:0,0:0:0:0:
208,151,72765,6,0,P|262:133|372:146,1,142.5,8|0,3:1|2:3,0:0:0:0:
385,237,73273,1,8,3:0:0:0:
469,102,73528,1,2,2:1:0:0:
469,102,73655,1,2,2:0:0:0:
469,102,73782,2,0,P|468:133|463:162,1,47.5,4|0,3:2|2:0,0:0:0:0:
391,243,74036,5,2,2:0:0:0:
391,243,74163,1,8,2:0:0:0:
391,243,74291,2,0,P|393:275|402:302,1,47.5,0|0,3:2|2:0,0:0:0:0:
512,382,74545,2,0,P|492:362|459:348,1,47.5,2|0,2:0|2:0,0:0:0:0:
321,353,74799,6,0,P|254:364|145:350,1,142.5,4|2,1:0|2:1,0:0:0:0:
128,292,75308,1,2,3:2:0:0:
12,384,75562,1,2,2:1:0:0:
83,216,75816,1,8,3:2:0:0:
218,290,76071,1,2,2:1:0:0:
307,213,76325,6,0,P|317:164|312:143,1,47.5,2|0,3:2|2:0,0:0:0:0:
238,44,76579,2,0,P|253:91|268:107,1,47.5,2|0,2:3|2:0,0:0:0:0:
512,185,76833,6,0,P|443:154|413:206,1,142.5,4|0,3:2|2:3,0:0:0:0:
473,272,77342,1,2,3:2:0:0:
307,213,77596,1,2,2:1:0:0:
321,365,77851,1,8,3:2:0:0:
413,198,78105,1,2,2:1:0:0:
257,293,78359,6,0,P|208:303|187:298,1,47.5,2|0,3:2|2:0,0:0:0:0:
95,216,78613,2,0,P|142:231|158:246,1,47.5,2|2,2:3|2:0,0:0:0:0:
20,340,78868,5,8,1:3:0:0:
99,120,79122,1,2,2:0:0:0:
99,120,79249,1,0,2:0:0:0:
99,120,79376,1,8,3:2:0:0:
307,213,79631,1,2,2:1:0:0:
116,319,79885,5,2,3:2:0:0:
251,88,80139,1,2,2:1:0:0:
251,88,80266,1,2,2:3:0:0:
251,88,80393,1,2,3:2:0:0:
368,282,80648,1,2,2:3:0:0:
243,351,80902,6,0,P|197:316|112:320,1,142.5,4|0,1:0|2:3,0:0:0:0:
58,380,81410,1,8,3:0:0:0:
5,182,81665,1,2,2:1:0:0:
118,232,81919,6,0,P|174:237|198:230,1,47.5,4|0,3:0|2:0,0:0:0:0:
234,178,82173,2,0,P|256:184|277:196,1,47.5,2|8,2:0|2:0,0:0:0:0:
368,282,82428,2,0,P|359:232|383:162,1,95,2|8,3:2|2:0,0:0:0:0:
476,94,82936,6,0,P|426:118|415:118,1,47.5,4|0,3:2|0:0,0:0:0:0:
353,55,83190,2,0,P|303:31|292:31,1,47.5,2|0,2:1|2:3,0:0:0:0:
190,99,83445,2,0,P|235:67|241:58,1,47.5,2|0,3:2|2:0,0:0:0:0:
101,7,83699,2,0,P|105:62|110:71,1,47.5,2|0,2:1|2:0,0:0:0:0:
171,202,83953,5,8,3:2:0:0:
124,206,84080,1,0,2:0:0:0:
93,240,84207,1,2,2:1:0:0:
92,286,84334,1,2,2:3:0:0:
121,319,84462,5,2,3:2:0:0:
152,308,84589,1,0,2:0:0:0:
184,307,84716,1,2,2:3:0:0:
220,315,84843,1,0,2:0:0:0:
232,325,84970,5,4,1:2:0:0:
256,192,85102,12,0,88933,0:0:0:0:
