osu file format v14

[General]
AudioFilename: audio.mp3
AudioLeadIn: 0
PreviewTime: 51299
Countdown: 0
SampleSet: Soft
StackLeniency: 0.7
Mode: 0
LetterboxInBreaks: 0
WidescreenStoryboard: 0

[Editor]
DistanceSpacing: 1.2
BeatDivisor: 4
GridSize: 4
TimelineZoom: 1

[Metadata]
Title:Akatsuki
TitleUnicode:暁
Artist:Shikata Akiko
ArtistUnicode:志方あきこ
Creator:Hazu-
Version:Hime
Source:暁のヨナ
Tags:no yona of the dawn ending 2 tv size
BeatmapID:983049
BeatmapSetID:458815

[Difficulty]
HPDrainRate:5
CircleSize:4
OverallDifficulty:6
ApproachRate:7
SliderMultiplier:1.6
SliderTickRate:1

[Events]
//Background and Video events
0,0,"Akatsuki.jpg",0,0
Video,0,"Akatsuki.avi"
//Break Periods
//Storyboard Layer 0 (Background)
//Storyboard Layer 1 (Fail)
//Storyboard Layer 2 (Pass)
//Storyboard Layer 3 (Foreground)
//Storyboard Sound Samples

[TimingPoints]
324,521.739130434783,4,2,1,20,1,0
324,-125,4,2,1,20,0,0
4497,-125,4,2,3,20,0,0
5019,-125,4,2,1,20,0,0
7628,-125,4,2,1,25,0,0
8150,-125,4,2,1,30,0,0
8671,-100,4,2,1,40,0,0
19106,-100,4,2,1,5,0,0
21193,-125,4,2,1,30,0,0
29541,-125,4,2,2,30,0,0
31628,-125,4,2,3,30,0,0
33193,-125,4,2,3,5,0,0
33715,-125,4,2,3,30,0,0
35802,-125,4,2,1,30,0,0
39454,-125,4,2,2,30,0,0
42063,-125,4,2,1,30,0,0
48324,-100,4,2,1,20,0,0
49628,-125,4,2,1,25,0,0
50150,-125,4,2,1,30,0,0
50410,508.474576271186,4,2,1,35,1,0
50410,-125,4,2,1,35,0,0
50918,-125,4,2,1,40,0,0
52443,-100,4,2,1,50,0,1
56511,-100,4,2,2,50,0,1
56893,-100,4,2,4,50,0,1
57147,-100,4,2,2,50,0,1
57528,-100,4,2,1,50,0,1
67062,-100,4,2,4,50,0,1
67316,-100,4,2,1,50,0,1
71130,-100,4,2,4,50,0,1
71384,-100,4,2,1,50,0,1
81299,-100,4,2,4,50,0,1
81554,-100,4,2,1,50,0,1
84986,-125,4,2,1,60,0,0
89054,-125,4,2,1,5,0,0

[Colours]
Combo1 : 255,174,174
Combo2 : 190,124,124
Combo3 : 197,197,197
Combo4 : 104,206,240

[HitObjects]
64,240,324,6,0,L|144:256,1,64
180,332,845,1,0,0:0:0:0:
352,244,1367,2,0,L|364:176,1,64
416,100,1889,1,0,0:0:0:0:
228,56,2410,6,0,L|144:80,1,64
72,84,2932,2,0,P|56:148|72:176,1,85.3333333333333
136,228,3541,2,0,B|208:284|228:200|300:252,1,170.666666666667
392,228,4497,6,0,B|420:292|380:352,2,128,2|0|0,0:0|0:0|0:0,0:0:0:0:
360,132,5802,2,0,L|380:128,2,21.3333333333333
336,140,6063,2,0,L|260:132,1,64
188,108,6584,5,0,0:0:0:0:
172,200,6845,1,0,0:0:0:0:
172,200,7106,2,0,L|156:276,1,64
220,336,7628,6,0,L|208:388,2,42.6666666666667,2|2|2,0:0|0:0|0:0,0:0:0:0:
280,268,8150,2,0,L|288:220,2,42.6666666666667,2|2|2,0:0|0:0|0:0,0:0:0:0:
336,336,8671,6,0,P|372:356|416:352,1,80,4|0,0:0|0:0,0:0:0:0:
468,276,9193,2,0,L|448:92,1,160
364,76,9976,1,0,0:0:0:0:
268,92,10237,2,0,P|189:177|204:236,1,160,0|2,0:0|0:0,0:0:0:0:
212,304,11019,5,0,0:0:0:0:
212,304,11280,2,0,L|296:296,1,80
272,204,11802,2,0,L|192:212,1,80,2|2,0:0|0:0,0:0:0:0:
108,164,12324,1,2,0:0:0:0:
108,164,12584,1,2,0:0:0:0:
172,92,12845,6,0,B|264:60|236:124|348:80,1,160,4|2,0:0|0:0,0:0:0:0:
420,56,13628,1,0,0:0:0:0:
456,144,13889,1,2,0:0:0:0:
420,232,14150,2,0,L|376:212,1,40
340,200,14410,2,0,L|248:212,1,80,2|0,0:0|0:0,0:0:0:0:
192,280,14932,6,0,L|108:272,1,80,4|2,0:0|0:0,0:0:0:0:
28,224,15454,2,0,P|16:180|36:140,1,80,2|2,0:0|0:0,0:0:0:0:
96,80,15976,1,2,0:0:0:0:
248,196,16497,1,2,0:0:0:0:
256,192,16628,12,0,19106,0:0:0:0:
200,112,21193,1,2,0:0:0:0:
200,112,21324,2,0,L|188:280,1,160,2|0,0:0|0:0,0:0:0:0:
264,332,22236,1,2,0:0:0:0:
264,332,22367,2,0,B|312:344|312:344|440:332,1,160,2|0,0:0|0:0,0:0:0:0:
508,288,23280,6,0,L|504:216,1,64
448,144,23802,2,0,L|456:12,2,128
400,228,25106,1,0,0:0:0:0:
328,164,25367,5,0,0:0:0:0:
328,164,25497,2,0,P|248:152|148:132,1,160,2|0,0:0|0:0,0:0:0:0:
100,72,26410,1,2,0:0:0:0:
100,72,26541,2,0,P|44:124|68:212,1,160,2|0,0:0|0:0,0:0:0:0:
136,256,27454,6,0,P|136:300|112:336,1,64
56,380,27976,2,0,L|196:372,2,128
0,300,29280,1,0,0:0:0:0:
92,268,29541,6,0,L|108:116,1,128,2|0,0:0|0:0,0:0:0:0:
276,52,30584,2,0,B|304:76|316:108|316:128|316:128|324:92|356:56|396:64|420:88,1,224,2|0,0:0|0:0,0:0:0:0:
440,128,31628,6,0,L|428:308,1,160,2|0,0:0|0:0,0:0:0:0:
412,380,32541,2,0,L|328:364,1,64
88,156,33715,6,0,B|56:188|56:188|40:284,2,128,2|0|0,0:0|0:0|0:0,0:0:0:0:
252,56,35280,1,0,0:0:0:0:
416,156,35802,6,0,B|444:188|492:196|492:196|452:208|432:244|444:284,1,192,0|2,0:0|0:0,0:0:0:0:
468,368,36845,2,0,L|332:344,1,128,2|2,0:0|0:0,0:0:0:0:
252,308,37628,1,0,0:0:0:0:
160,340,37889,6,0,L|168:196,1,128,4|0,0:0|0:0,0:0:0:0:
124,128,38671,1,0,0:0:0:0:
124,128,38802,1,0,0:0:0:0:
124,128,38932,2,0,P|196:120|244:156,1,128,0|2,0:0|0:0,0:0:0:0:
288,232,39715,1,2,0:0:0:0:
356,164,39976,6,0,P|388:212|368:288,1,128
308,348,40758,1,0,0:0:0:0:
308,348,41019,1,2,0:0:0:0:
220,304,41280,1,2,0:0:0:0:
220,304,41541,2,0,P|172:336|136:340,1,64
80,292,42063,6,0,L|12:288,2,64,4|0|0,0:0|0:0|0:0,0:0:0:0:
268,256,43106,2,0,L|424:272,1,128,4|2,0:0|0:0,0:0:0:0:
480,220,43889,1,2,0:0:0:0:
460,124,44150,6,0,P|420:92|380:88,1,64
328,140,44671,1,2,0:0:0:0:
152,128,45193,2,0,L|80:120,2,64,0|0|2,0:0|0:0|0:0,0:0:0:0:
228,188,45976,1,0,0:0:0:0:
228,188,46106,1,0,0:0:0:0:
228,188,46237,6,0,P|284:200|364:172,2,128
60,96,47802,2,0,P|96:72|132:68,1,64,2|0,0:0|0:0,0:0:0:0:
200,112,48324,5,2,0:0:0:0:
256,192,48584,1,2,0:0:0:0:
196,272,48845,1,2,0:0:0:0:
244,356,49106,1,2,0:0:0:0:
396,324,49628,1,0,0:0:0:0:
396,324,49758,1,0,0:0:0:0:
396,324,49889,1,0,0:0:0:0:
392,228,50150,1,0,0:0:0:0:
392,228,50280,1,0,0:0:0:0:
392,228,50410,6,0,L|356:192,2,42.6666666666667,2|2|2,0:0|0:0|0:0,0:0:0:0:
480,204,50918,2,0,L|512:236,2,42.6666666666667,2|2|2,0:0|0:0|0:0,0:0:0:0:
464,108,51426,6,0,B|452:84|444:48|444:48|380:88|356:16|276:64,1,224
248,80,52443,6,0,L|164:88,1,80,4|0,0:0|0:0,0:0:0:0:
92,144,52952,1,8,0:0:0:0:
164,204,53206,1,0,0:0:0:0:
108,284,53460,1,0,0:0:0:0:
184,344,53715,1,2,0:0:0:0:
184,344,53842,1,0,0:0:0:0:
184,344,53969,2,8,P|252:356|280:348,1,80,8|0,0:0|0:0,0:0:0:0:
356,332,54477,6,0,L|368:244,1,80,4|0,0:0|0:0,0:0:0:0:
372,156,54985,1,8,0:0:0:0:
284,196,55239,1,2,0:0:0:0:
284,196,55366,1,0,0:0:0:0:
284,196,55493,2,0,P|216:192|172:204,1,80
108,192,56002,2,0,L|128:332,1,120,8|0,0:0|0:0,0:0:0:0:
160,344,56510,6,0,P|200:352|252:336,1,80,2|0,0:0|0:0,0:0:0:0:
328,308,57019,1,8,0:0:0:0:
256,244,57273,1,0,0:0:0:0:
256,244,57527,2,0,P|276:192|276:160,1,80,2|2,0:0|0:0,0:0:0:0:
204,104,58036,2,0,P|184:156|184:188,1,80,10|2,0:0|0:0,0:0:0:0:
136,264,58544,5,4,0:0:0:0:
196,340,58798,1,2,0:0:0:0:
196,340,58926,1,0,0:0:0:0:
196,340,59053,2,0,L|288:344,1,80,8|0,0:0|0:0,0:0:0:0:
368,324,59561,1,2,0:0:0:0:
368,324,59688,1,0,0:0:0:0:
368,324,59815,1,0,0:0:0:0:
316,244,60070,2,0,L|184:236,1,120,8|0,0:0|0:0,0:0:0:0:
152,220,60578,6,0,P|136:184|140:144,1,80,4|0,0:0|0:0,0:0:0:0:
188,60,61087,1,10,0:0:0:0:
248,136,61341,1,2,0:0:0:0:
304,60,61595,1,2,0:0:0:0:
364,136,61849,1,2,0:0:0:0:
364,136,62104,2,0,B|380:188|380:188|372:284,1,120,10|0,0:0|0:0,0:0:0:0:
348,292,62612,6,0,L|256:300,1,80,4|0,0:0|0:0,0:0:0:0:
172,300,63121,2,0,P|156:348|124:372,1,80,8|2,0:0|0:0,0:0:0:0:
40,356,63630,1,2,0:0:0:0:
92,276,63884,1,2,0:0:0:0:
20,212,64139,1,10,0:0:0:0:
72,132,64393,1,2,0:0:0:0:
72,132,64647,6,0,L|172:136,1,80,2|2,0:0|0:0,0:0:0:0:
248,136,65155,1,10,0:0:0:0:
248,136,65410,1,2,0:0:0:0:
296,220,65664,2,0,B|312:248|332:284|332:284|296:276|264:284|232:312,1,160,2|8,0:0|0:0,0:0:0:0:
168,348,66427,1,0,0:0:0:0:
92,288,66680,6,0,B|64:252|64:252|72:136,1,160,2|8,0:0|0:0,0:0:0:0:
108,48,67443,1,2,0:0:0:0:
108,48,67697,2,0,P|160:56|200:88,1,80,2|2,0:0|0:0,0:0:0:0:
244,144,68205,2,0,B|372:152,1,120,10|0,0:0|0:0,0:0:0:0:
408,132,68714,6,0,L|404:220,1,80,4|2,0:0|0:0,0:0:0:0:
408,260,69095,1,0,0:0:0:0:
408,260,69223,2,0,B|332:312|320:240|240:284,1,160,8|0,0:0|0:0,0:0:0:0:
176,328,69985,1,2,0:0:0:0:
176,328,70112,1,0,0:0:0:0:
176,328,70239,2,0,L|168:200,1,120,8|0,0:0|0:0,0:0:0:0:
168,160,70748,5,4,0:0:0:0:
232,88,71002,1,2,0:0:0:0:
240,96,71129,1,0,0:0:0:0:
240,96,71256,2,0,P|292:72|328:76,1,80,8|2,0:0|0:0,0:0:0:0:
400,116,71765,1,2,0:0:0:0:
400,116,72019,1,2,0:0:0:0:
416,216,72273,2,0,L|404:304,1,80,10|2,0:0|0:0,0:0:0:0:
328,356,72781,5,2,0:0:0:0:
264,284,73036,1,2,0:0:0:0:
264,284,73163,1,0,0:0:0:0:
264,284,73291,2,0,B|200:244|172:316|104:268,1,160,8|0,0:0|0:0,0:0:0:0:
48,200,74053,1,2,0:0:0:0:
48,200,74180,1,0,0:0:0:0:
48,200,74307,2,0,L|60:116,1,80,8|0,0:0|0:0,0:0:0:0:
132,60,74815,5,4,0:0:0:0:
184,140,75070,1,2,0:0:0:0:
184,140,75197,1,0,0:0:0:0:
184,140,75324,2,0,P|232:152|272:140,1,80,8|0,0:0|0:0,0:0:0:0:
348,108,75833,2,0,L|336:288,1,160,0|8,0:0|0:0,0:0:0:0:
288,352,76596,1,0,0:0:0:0:
224,280,76850,6,0,L|112:276,1,80,2|2,0:0|0:0,0:0:0:0:
96,272,77232,1,0,0:0:0:0:
96,272,77359,2,0,P|80:220|88:180,1,80,8|0,0:0|0:0,0:0:0:0:
140,120,77867,1,0,0:0:0:0:
196,196,78121,1,2,0:0:0:0:
196,196,78249,1,0,0:0:0:0:
196,196,78376,2,0,L|292:208,1,80,8|0,0:0|0:0,0:0:0:0:
372,192,78884,6,0,L|364:280,1,80,2|2,0:0|0:0,0:0:0:0:
340,312,79266,1,0,0:0:0:0:
340,312,79393,2,0,P|300:340|248:340,1,80,8|0,0:0|0:0,0:0:0:0:
176,320,79901,2,0,L|192:156,1,160,0|8,0:0|0:0,0:0:0:0:
152,72,80664,1,0,0:0:0:0:
80,136,80918,6,0,L|72:224,1,80,4|0,0:0|0:0,0:0:0:0:
20,296,81427,2,0,P|52:328|88:332,1,80,8|0,0:0|0:0,0:0:0:0:
164,280,81935,1,0,0:0:0:0:
232,348,82189,1,0,0:0:0:0:
304,288,82444,1,8,0:0:0:0:
376,352,82698,1,0,0:0:0:0:
440,280,82952,6,0,P|473:240|473:200,1,80,4|0,0:0|0:0,0:0:0:0:
404,152,83461,2,0,P|356:129|317:139,1,80,8|0,0:0|0:0,0:0:0:0:
252,184,83969,2,0,L|188:176,3,40,2|0|0|0,0:0|0:0|0:0|0:0,0:0:0:0:
164,188,84477,2,0,L|100:180,3,40,2|0|0|0,0:0|0:0|0:0|0:0,0:0:0:0:
88,192,84986,1,4,0:0:0:0:
256,192,85113,12,0,89054,0:0:0:0:
